<?xml version="1.0" standalone="no"?>
<!DOCTYPE svg PUBLIC "-//W3C//DTD SVG 1.1//EN" "http://www.w3.org/Graphics/SVG/1.1/DTD/svg11.dtd" >
<svg xmlns="http://www.w3.org/2000/svg" xmlns:xlink="http://www.w3.org/1999/xlink" version="1.1">
<metadata>
Created by FontForge 20170731 at Wed Jul 12 06:40:02 2023
 By Aleksey,,,
Copyright by Pangram Pangram Foundry. All rights reserved.
</metadata>
<defs>
<font id="PPNeueMontreal-Medium" horiz-adv-x="0" >
  <font-face 
    font-family="PP Neue Montreal Medium"
    font-weight="500"
    font-stretch="normal"
    units-per-em="2048"
    panose-1="0 0 6 0 0 0 0 0 0 0"
    ascent="1638"
    descent="-410"
    x-height="1044"
    cap-height="1464"
    bbox="-358 -500 4360 1933"
    underline-thickness="151"
    underline-position="-212"
    unicode-range="U+000D-1F150"
  />
<missing-glyph horiz-adv-x="1343" 
 />
    <glyph glyph-name="f_f" unicode="ff" horiz-adv-x="1132" 
d="M389 0h-203v879h-143v165h143v127q0 173 67.5 240.5t203.5 67.5q34 0 127 -13v-161q-61 6 -86 6q-64 0 -86.5 -26.5t-22.5 -108.5v-132h332v127q0 173 67 240.5t203 67.5q34 0 127 -13v-161q-62 6 -86 6q-64 0 -86 -26.5t-22 -108.5v-132h194v-165h-194v-879h-203v879
h-332v-879z" />
    <glyph glyph-name="f_f_i" unicode="ffi" horiz-adv-x="1562" 
d="M389 0h-203v879h-143v165h143v127q0 173 67.5 240.5t203.5 67.5q34 0 127 -13v-161q-61 6 -86 6q-64 0 -86.5 -26.5t-22.5 -108.5v-132h332v127q0 173 67 240.5t203 67.5q34 0 127 -13v-161q-62 6 -86 6q-64 0 -86 -26.5t-22 -108.5v-132h194v-165h-194v-879h-203v879
h-332v-879zM1464 1231h-225v217h225v-217zM1452 0h-203v1044h203v-1044z" />
    <glyph glyph-name="f_i" unicode="fi" horiz-adv-x="1032" 
d="M186 1044v127q0 173 67.5 240.5t203.5 67.5q34 0 127 -13v-161q-61 6 -86 6q-64 0 -86.5 -26.5t-22.5 -108.5v-132h195v-165h-195v-879h-203v879h-143v165h143zM707 1231v217h225v-217h-225zM920 0h-201v1044h201v-1044z" />
    <glyph glyph-name="f_l" unicode="fl" horiz-adv-x="1032" 
d="M186 1044v127q0 173 67.5 240.5t203.5 67.5q34 0 127 -13v-161q-61 6 -86 6q-64 0 -86.5 -26.5t-22.5 -108.5v-132h195v-165h-195v-879h-203v879h-143v165h143zM719 0v1464h201v-1464h-201z" />
    <glyph glyph-name=".notdef" horiz-adv-x="1343" 
 />
    <glyph glyph-name=".null" 
 />
    <glyph glyph-name="nonmarkingreturn" horiz-adv-x="682" 
 />
    <glyph glyph-name="CR" unicode="&#xd;" horiz-adv-x="428" 
 />
    <glyph glyph-name="space" unicode=" " horiz-adv-x="428" 
 />
    <glyph glyph-name="exclam" unicode="!" horiz-adv-x="458" 
d="M289 399h-117l-53 668v397h221v-397zM342 0h-223v223h223v-223z" />
    <glyph glyph-name="quotedbl" unicode="&#x22;" horiz-adv-x="684" 
d="M252 952h-141l-25 512h190zM575 952h-143l-24 512h192z" />
    <glyph glyph-name="numbersign" unicode="#" horiz-adv-x="1181" 
d="M1130 1032l-32 -168h-199l-61 -301h219l-29 -166h-223l-80 -397h-166l80 397h-233l-80 -397h-166l80 397h-187l31 166h188l62 301h-209l33 168h209l77 383h166l-78 -383h234l76 383h168l-78 -383h198zM438 563h234l59 301h-231z" />
    <glyph glyph-name="dollar" unicode="$" horiz-adv-x="1234" 
d="M1167 371q0 -169 -123 -280t-352 -120v-178h-123v182q-223 23 -364.5 150t-151.5 342h209q25 -273 307 -311v489q-1 0 -3 1t-3 1q-52 14 -92.5 27t-89.5 32.5t-85.5 41t-73 51.5t-59.5 64t-37.5 79t-14.5 96q0 174 123 280.5t335 113.5v145h123v-152
q191 -24 308.5 -140.5t129.5 -309.5h-208q-26 227 -230 268v-436q70 -21 115.5 -35.5t101 -37t89.5 -44.5t69.5 -54t55 -69t32 -86.5t12.5 -109.5zM322 1059q0 -44 17 -77.5t52.5 -58.5t75.5 -42t102 -37v407q-115 -6 -181 -56.5t-66 -135.5zM692 610v-460q264 14 264 215
q0 97 -61 149t-203 96z" />
    <glyph glyph-name="percent" unicode="%" horiz-adv-x="1712" 
d="M397 631q-113 0 -194.5 55t-120.5 145.5t-39 206.5q0 178 91.5 292t262.5 114q167 0 260 -115t93 -291q0 -179 -91.5 -293t-261.5 -114zM551 0h-176l786 1415h176zM397 784q83 0 124.5 67t41.5 187t-41.5 187t-124.5 67q-84 0 -126 -67t-42 -187t42 -187t126 -67z
M1317 -29q-168 0 -260 114.5t-92 291.5q0 179 91 293t261 114q168 0 260 -114.5t92 -292.5q0 -86 -22 -159t-65 -128.5t-111 -87t-154 -31.5zM1317 123q83 0 125.5 67t42.5 187t-42.5 187t-125.5 67t-125.5 -67t-42.5 -187t42.5 -187t125.5 -67z" />
    <glyph glyph-name="ampersand" unicode="&#x26;" horiz-adv-x="1273" 
d="M1053 276l231 -276h-244l-106 131q-173 -160 -420 -160q-213 0 -334 108t-121 277q0 64 20 121t49 98.5t77 83t89.5 68.5t100.5 61q-87 109 -128.5 188.5t-41.5 170.5q0 67 23.5 128t68 110t116 78.5t159.5 29.5q168 1 266 -98.5t98 -245.5q0 -64 -20 -117t-63.5 -99.5
t-94 -83.5t-129.5 -85l277 -332q59 117 86 285h192q-35 -254 -151 -441zM592 1315q-79 0 -124.5 -50t-45.5 -120q0 -60 33 -122t98 -144q107 64 157 123t50 133q0 77 -45.5 128.5t-122.5 51.5zM530 162q166 0 283 114l-324 396q-110 -68 -166.5 -136t-56.5 -153
q0 -99 69.5 -160t194.5 -61z" />
    <glyph glyph-name="quotesingle" unicode="'" horiz-adv-x="362" 
d="M252 952h-141l-25 512h190z" />
    <glyph glyph-name="parenleft" unicode="(" horiz-adv-x="561" 
d="M528 -250h-176q-125 168 -204.5 402t-79.5 497q0 270 79 501.5t205 401.5h176q-113 -210 -175 -425t-62 -478q0 -258 62.5 -474t174.5 -425z" />
    <glyph glyph-name="parenright" unicode=")" horiz-adv-x="561" 
d="M209 -250h-176q113 211 176 426.5t63 478.5q0 257 -63 471.5t-176 425.5h176q126 -169 205.5 -402t79.5 -495q0 -270 -79.5 -502.5t-205.5 -402.5z" />
    <glyph glyph-name="asterisk" unicode="*" horiz-adv-x="919" 
d="M461 993l-168 -225l-119 84l166 215l-260 78l47 129l258 -80v270h152l-2 -270l258 80l47 -129l-260 -78l168 -215l-119 -84z" />
    <glyph glyph-name="plus" unicode="+" horiz-adv-x="1140" 
d="M666 184h-191v389h-377v191h377v389h191v-389h376v-191h-376v-389z" />
    <glyph glyph-name="comma" unicode="," horiz-adv-x="415" 
d="M96 -279v111q59 18 83.5 54.5t23.5 113.5h-107v223h223v-223q0 -223 -223 -279z" />
    <glyph glyph-name="hyphen" unicode="-" horiz-adv-x="720" 
d="M635 426h-549v190h549v-190z" />
    <glyph glyph-name="period" unicode="." horiz-adv-x="407" 
d="M315 0h-223v223h223v-223z" />
    <glyph glyph-name="slash" unicode="/" horiz-adv-x="804" 
d="M211 0h-186l567 1464h186z" />
    <glyph glyph-name="zero" unicode="0" horiz-adv-x="1300" 
d="M651 -29q-144 0 -254 57.5t-176.5 159t-99.5 232.5t-33 287q0 124 20.5 232.5t64.5 202t109 160t159 104.5t210 38q144 0 253.5 -57.5t175.5 -159.5t99 -233t33 -287q0 -124 -20 -232.5t-64 -202t-108.5 -160t-158.5 -104t-210 -37.5zM651 162q92 0 158 43t102.5 121.5
t53 172t16.5 208.5t-16.5 209t-53 172t-102.5 121.5t-158 43.5q-93 0 -159.5 -43.5t-103 -121.5t-53 -171.5t-16.5 -209.5q0 -91 9.5 -168.5t33.5 -148.5t61 -120.5t95 -78.5t133 -29z" />
    <glyph glyph-name="one" unicode="1" horiz-adv-x="698" 
d="M324 0v1051q-42 -40 -115.5 -54t-181.5 -14v180q124 3 196 31.5t104.5 80t41.5 140.5h176v-1415h-221z" />
    <glyph glyph-name="two" unicode="2" horiz-adv-x="1165" 
d="M1063 0h-1006q0 191 109 338t323 280q177 107 221 140q100 74 126 158q14 43 14 96q0 38 -6 70.5t-23 64.5t-43 55t-69 37t-99 14q-291 0 -291 -338h-225q0 115 32 210t94.5 167t163.5 112t232 40q199 0 331 -114t132 -310q0 -57 -14 -110t-34 -94.5t-56.5 -84.5
t-67.5 -72.5t-82 -66t-83.5 -58t-88.5 -55.5q-69 -41 -104.5 -63.5t-85 -60.5t-78 -76.5t-43.5 -83.5v-5h721v-190z" />
    <glyph glyph-name="three" unicode="3" horiz-adv-x="1232" 
d="M635 -29q-273 0 -421 134t-148 378h225q0 -156 76.5 -238.5t253.5 -82.5q161 0 230 60.5t69 180.5q0 242 -283 242h-133v182h125q112 0 176.5 53t64.5 164q0 91 -59 150t-182 59q-299 0 -299 -264h-226q0 204 137 329.5t390 125.5q128 0 233 -44t170.5 -134t65.5 -211
q0 -213 -213 -303v-4q262 -83 262 -349q0 -203 -138.5 -315.5t-375.5 -112.5z" />
    <glyph glyph-name="four" unicode="4" horiz-adv-x="1208" 
d="M948 0h-221v324h-674v204l674 887h221v-901h199v-190h-199v-324zM727 1130l-469 -616h469v616z" />
    <glyph glyph-name="five" unicode="5" horiz-adv-x="1189" 
d="M600 -29q-123 0 -223.5 35.5t-166 97t-101.5 141t-39 169.5h225q6 -51 23.5 -94t50.5 -80t89 -57.5t130 -20.5q138 0 218.5 83t80.5 238q0 146 -74.5 217.5t-210.5 71.5q-189 0 -287 -127h-227l152 770h804v-190h-634l-78 -391v-5q120 123 330 123q200 0 327 -132.5
t127 -336.5q0 -153 -68.5 -270.5t-185 -179.5t-262.5 -62z" />
    <glyph glyph-name="six" unicode="6" horiz-adv-x="1226" 
d="M641 -29q-551 0 -551 734q0 349 145.5 544t407.5 195q193 0 319 -111t146 -276h-227q-31 203 -238 203q-77 0 -136 -28t-95.5 -73.5t-59.5 -111t-32 -132.5t-9 -145v-20l6 -2q56 90 150 138t215 48q206 0 335.5 -131t129.5 -340q0 -211 -138.5 -351.5t-367.5 -140.5z
M635 156q137 0 212 79.5t75 215.5q0 138 -74.5 217.5t-198.5 79.5q-144 0 -228.5 -83.5t-84.5 -218.5q0 -132 78.5 -211t220.5 -79z" />
    <glyph glyph-name="seven" unicode="7" horiz-adv-x="1060" 
d="M465 0h-234q0 169 49 356t128 348t174.5 296.5t191.5 220.5v4h-754v190h996v-170q-159 -132 -285 -338.5t-196 -444.5t-70 -462z" />
    <glyph glyph-name="eight" unicode="8" horiz-adv-x="1243" 
d="M621 -29q-117 0 -215 27t-171.5 79t-115 134.5t-41.5 187.5q0 238 264 353v4q-195 103 -195 303q0 179 132 282t342 103q212 0 343.5 -103t131.5 -282q0 -198 -195 -303v-4q264 -117 264 -353q0 -139 -72.5 -237.5t-193 -144.5t-278.5 -46zM621 840q122 0 187.5 52.5
t65.5 158.5q0 105 -66 159t-187 54q-120 0 -186 -54.5t-66 -158.5q0 -105 65.5 -158t186.5 -53zM621 156q148 0 230.5 67.5t82.5 188.5q0 119 -82.5 185.5t-230.5 66.5t-231 -66.5t-83 -185.5q0 -121 83 -188.5t231 -67.5z" />
    <glyph glyph-name="nine" unicode="9" horiz-adv-x="1230" 
d="M584 -29q-192 0 -318 111t-147 276h229q13 -93 71 -147.5t167 -54.5q94 0 161.5 41t103.5 113.5t51.5 154t15.5 180.5v21l-7 2q-56 -90 -150 -138.5t-214 -48.5q-206 0 -335.5 131t-129.5 340q0 211 138 351.5t368 140.5q551 0 551 -733q0 -350 -146 -545t-409 -195z
M580 668q143 0 228 83t85 218q0 132 -79 211.5t-222 79.5q-136 0 -210.5 -79.5t-74.5 -215.5q0 -138 74.5 -217.5t198.5 -79.5z" />
    <glyph glyph-name="colon" unicode=":" horiz-adv-x="428" 
d="M326 627h-224v223h224v-223zM326 0h-224v223h224v-223z" />
    <glyph glyph-name="semicolon" unicode=";" horiz-adv-x="428" 
d="M326 627h-224v223h224v-223zM102 -279v111q59 18 83.5 54.5t23.5 113.5h-107v223h224v-223q0 -223 -224 -279z" />
    <glyph glyph-name="less" unicode="&#x3c;" horiz-adv-x="1038" 
d="M930 373v-191l-838 348v213l838 349v-191l-672 -262v-4z" />
    <glyph glyph-name="equal" unicode="=" horiz-adv-x="1128" 
d="M1026 735h-924v191h924v-191zM1026 414h-924v188h924v-188z" />
    <glyph glyph-name="greater" unicode="&#x3e;" horiz-adv-x="1038" 
d="M944 530l-835 -348v191l669 262v4l-669 262v191l835 -351v-211z" />
    <glyph glyph-name="question" unicode="?" horiz-adv-x="1026" 
d="M561 399h-205q0 77 13 140t30.5 104t52.5 82t62 64.5t76 60.5q92 71 117 98q63 67 63 160q0 91 -60.5 143t-172.5 52q-129 0 -206 -76t-77 -240h-223q0 147 55.5 259.5t170 179.5t275.5 67q206 0 332.5 -106.5t126.5 -278.5q0 -61 -15.5 -110t-50.5 -91t-65 -68.5
t-86 -68.5q-91 -67 -112 -88q-77 -73 -95 -188q-6 -43 -6 -95zM575 0h-223v223h223v-223z" />
    <glyph glyph-name="at" unicode="@" horiz-adv-x="1792" 
d="M889 -217q-377 0 -603.5 224t-226.5 595q0 177 62 334.5t172 273t270 183t346 67.5t341 -62t258.5 -169.5t160.5 -252t57 -308.5q0 -109 -23 -197.5t-60.5 -144.5t-87.5 -93.5t-101.5 -53t-105.5 -15.5q-185 0 -261 170h-4q-85 -164 -284 -164q-147 0 -244.5 113
t-97.5 307q0 209 110.5 339t272.5 130q96 0 170.5 -48.5t103.5 -119.5h4l21 153h172l-66 -514q-14 -104 17.5 -159.5t105.5 -55.5q93 0 147 90.5t54 258.5q0 289 -180 467t-476 178q-157 0 -289 -58t-219 -155.5t-135.5 -225.5t-48.5 -268q0 -196 84 -348t236 -236t348 -84
q204 0 362 64l56 -127q-162 -88 -418 -88zM836 332q114 0 177.5 89t63.5 224q0 122 -56.5 187t-146.5 65q-116 0 -179.5 -87t-63.5 -226q0 -115 51 -183.5t154 -68.5z" />
    <glyph glyph-name="A" unicode="A" horiz-adv-x="1351" 
d="M246 0h-238l545 1464h244l549 -1464h-246l-121 352h-612zM672 1255l-238 -712h481l-239 712h-4z" />
    <glyph glyph-name="B" unicode="B" horiz-adv-x="1366" 
d="M799 0h-654v1464h617q226 0 351.5 -96.5t125.5 -271.5q0 -228 -227 -305v-5q125 -22 204.5 -112.5t79.5 -245.5q0 -207 -132.5 -317.5t-364.5 -110.5zM371 856h385q133 0 190.5 52t57.5 155q0 98 -59 152.5t-173 54.5h-401v-414zM371 195h411q153 0 216 64t63 177
q0 115 -66 178.5t-182 63.5h-442v-483z" />
    <glyph glyph-name="C" unicode="C" horiz-adv-x="1445" 
d="M758 -29q-204 0 -360.5 98t-240 270.5t-83.5 391.5q0 220 84 393t241 271t361 98q134 0 247.5 -41t192 -112.5t127.5 -166.5t62 -206h-236q-9 48 -24.5 90t-46.5 88t-72.5 78.5t-107 53.5t-146.5 21q-117 0 -205.5 -46.5t-140 -127.5t-76.5 -179t-25 -212q0 -91 15 -172
t49.5 -154t85 -126t127 -84t170.5 -31q82 0 148.5 21t110 56t74 83.5t45.5 99t19 106.5h236q-12 -122 -61 -225t-128 -177.5t-192.5 -116.5t-249.5 -42z" />
    <glyph glyph-name="D" unicode="D" horiz-adv-x="1431" 
d="M707 0h-562v1464h557q307 0 479.5 -191t172.5 -542t-170 -541t-477 -190zM371 195h321q428 0 428 536q0 539 -428 539h-321v-1075z" />
    <glyph glyph-name="E" unicode="E" horiz-adv-x="1267" 
d="M1202 0h-1057v1464h1037v-194h-811v-416h710v-195h-710v-464h831v-195z" />
    <glyph glyph-name="F" unicode="F" horiz-adv-x="1196" 
d="M371 0h-226v1464h1016v-194h-790v-441h639v-194h-639v-635z" />
    <glyph glyph-name="G" unicode="G" horiz-adv-x="1509" 
d="M735 -29q-155 0 -280.5 57t-208 158.5t-126.5 241t-44 305.5q0 219 83.5 391.5t240.5 270.5t362 98q273 0 431.5 -130.5t195.5 -350.5h-236q-29 139 -130 212.5t-263 73.5q-117 0 -206 -49t-140.5 -131.5t-77 -180t-25.5 -204.5q0 -88 12 -165.5t43.5 -153t79.5 -129
t125.5 -86.5t176.5 -33q120 0 219 51.5t157.5 146.5t59.5 214h-432v188h661v-766h-156l-55 203h-4q-79 -116 -189.5 -174t-273.5 -58z" />
    <glyph glyph-name="H" unicode="H" horiz-adv-x="1460" 
d="M371 0h-226v1464h226v-612h719v612h227v-1464h-227v657h-719v-657z" />
    <glyph glyph-name="I" unicode="I" horiz-adv-x="516" 
d="M371 0h-226v1464h226v-1464z" />
    <glyph glyph-name="J" unicode="J" horiz-adv-x="1060" 
d="M479 -29q-101 0 -178.5 27t-126.5 72t-80.5 109t-44 131.5t-12.5 146.5v59h217v-59q0 -56 4.5 -95.5t18 -79t37 -63.5t64.5 -38.5t97 -14.5q69 0 114.5 21t68.5 62.5t31.5 90t8.5 117.5v1007h226v-1007q0 -78 -12.5 -146t-44.5 -132t-81.5 -109t-127.5 -72t-179 -27z" />
    <glyph glyph-name="K" unicode="K" horiz-adv-x="1333" 
d="M1364 0h-264l-496 705l-233 -248v-457h-226v1464h226v-741l694 741h252l-574 -610z" />
    <glyph glyph-name="L" unicode="L" horiz-adv-x="1142" 
d="M1112 0h-967v1464h226v-1269h741v-195z" />
    <glyph glyph-name="M" unicode="M" horiz-adv-x="1734" 
d="M367 0h-222v1464h297l422 -1151h4l424 1151h297v-1464h-221v1137h-4l-403 -1137h-187l-403 1137h-4v-1137z" />
    <glyph glyph-name="N" unicode="N" horiz-adv-x="1460" 
d="M371 0h-226v1464h258l680 -1126h4v1126h228v-1464h-258l-682 1126h-4v-1126z" />
    <glyph glyph-name="O" unicode="O" horiz-adv-x="1585" 
d="M793 -29q-215 0 -379.5 98.5t-252 271.5t-87.5 392t87.5 391.5t252 270.5t379.5 98t379 -98t251.5 -270.5t87.5 -391.5q0 -164 -51 -304.5t-143 -241.5t-227.5 -158.5t-296.5 -57.5zM793 166q101 0 183 30t137 82.5t92.5 125t54 154.5t16.5 175q0 117 -27.5 216
t-83.5 178.5t-151.5 125t-220.5 45.5t-220.5 -45.5t-152 -125t-84 -178.5t-27.5 -216q0 -93 17 -175t54 -154.5t92.5 -125t137.5 -82.5t183 -30z" />
    <glyph glyph-name="P" unicode="P" horiz-adv-x="1277" 
d="M371 0h-226v1464h611q219 0 349 -108t130 -328t-130 -327t-349 -107h-385v-594zM371 788h374q128 0 192 59t64 181q0 124 -63.5 183t-192.5 59h-374v-482z" />
    <glyph glyph-name="Q" unicode="Q" horiz-adv-x="1585" 
d="M1343 217l177 -176l-131 -133l-183 184q-175 -121 -413 -121q-215 0 -379.5 98.5t-252 271.5t-87.5 392t87.5 391.5t252 270.5t379.5 98t379 -98t251.5 -270.5t87.5 -391.5q0 -311 -168 -516zM793 166q154 0 266 72l-191 192l131 133l189 -190q88 144 88 360
q0 117 -27.5 216t-83.5 178.5t-151.5 125t-220.5 45.5t-220.5 -45.5t-152 -125t-84 -178.5t-27.5 -216q0 -93 17 -175t54 -154.5t92.5 -125t137.5 -82.5t183 -30z" />
    <glyph glyph-name="R" unicode="R" horiz-adv-x="1343" 
d="M371 0h-226v1464h611q242 0 369.5 -109.5t127.5 -312.5q0 -137 -75.5 -233.5t-198.5 -124.5v-4q80 -15 134 -69.5t76 -125.5t34.5 -152t14 -149t10 -116t26.5 -54v-14h-242q-13 12 -17.5 51t-5.5 89.5t-3.5 110t-16.5 116t-39.5 103t-77 75t-124.5 28.5h-377v-573z
M371 768h336q155 0 237 66t82 192q0 122 -75 183t-240 61h-340v-502z" />
    <glyph glyph-name="S" unicode="S" horiz-adv-x="1294" 
d="M696 -29q-282 0 -458.5 139.5t-188.5 383.5h234q13 -156 111.5 -243t295.5 -87q307 0 307 235q0 52 -16.5 90.5t-43.5 64t-77 46.5t-102 35.5t-133 35.5q-24 6 -37 9q-62 16 -100 27.5t-94.5 32.5t-92 41t-76.5 52t-64.5 68t-39 85.5t-15.5 107.5q0 189 137 294t375 105
q252 0 404.5 -122.5t169.5 -342.5h-234q-19 136 -100 204t-237 68q-138 0 -208.5 -49.5t-70.5 -144.5q0 -26 6 -49t14 -41t25.5 -34.5t31.5 -28t41 -23.5t45 -19.5t53 -17.5t54.5 -15t59.5 -15l12 -3q216 -55 305 -95q174 -78 223 -217q21 -61 21 -136q0 -198 -136 -319.5
t-401 -121.5z" />
    <glyph glyph-name="T" unicode="T" horiz-adv-x="1234" 
d="M731 0h-227v1270h-473v194h1173v-194h-473v-1270z" />
    <glyph glyph-name="U" unicode="U" horiz-adv-x="1415" 
d="M707 -29q-290 0 -431 140t-141 387v966h225v-966q0 -169 86.5 -250.5t260.5 -81.5q175 0 260.5 81t85.5 251v966h227v-966q0 -247 -141 -387t-432 -140z" />
    <glyph glyph-name="V" unicode="V" horiz-adv-x="1298" 
d="M774 0h-244l-516 1464h248l389 -1226h2l387 1226h238z" />
    <glyph glyph-name="W" unicode="W" horiz-adv-x="1898" 
d="M637 0h-244l-364 1464h235l258 -1153h4l303 1153h238l305 -1153h4l258 1153h236l-367 -1464h-241l-312 1178h-4z" />
    <glyph glyph-name="X" unicode="X" horiz-adv-x="1230" 
d="M256 0h-264l495 748l-460 716h249l340 -553h2l343 553h247l-460 -712l485 -752h-262l-359 584h-2z" />
    <glyph glyph-name="Y" unicode="Y" horiz-adv-x="1304" 
d="M766 0h-227v586l-525 878h244l393 -700h4l394 700h241l-524 -878v-586z" />
    <glyph glyph-name="Z" unicode="Z" horiz-adv-x="1239" 
d="M1184 0h-1139v195l842 1071v4h-801v194h1077v-194l-841 -1071v-4h862v-195z" />
    <glyph glyph-name="bracketleft" unicode="[" horiz-adv-x="618" 
d="M575 -250h-442v1802h442v-190h-221v-1421h221v-191z" />
    <glyph glyph-name="backslash" unicode="\" horiz-adv-x="804" 
d="M780 0h-186l-567 1464h186z" />
    <glyph glyph-name="bracketright" unicode="]" horiz-adv-x="618" 
d="M485 -250h-442v191h221v1421h-221v190h442v-1802z" />
    <glyph glyph-name="asciicircum" unicode="^" horiz-adv-x="974" 
d="M254 901h-213l356 563h183l354 -563h-211l-236 383h-2z" />
    <glyph glyph-name="underscore" unicode="_" horiz-adv-x="1169" 
d="M1116 -311h-1065v190h1065v-190z" />
    <glyph glyph-name="grave" unicode="`" horiz-adv-x="485" 
d="M403 1202h-157l-172 283h225z" />
    <glyph glyph-name="a" unicode="a" horiz-adv-x="1087" 
d="M401 -29q-156 0 -249 82.5t-93 216.5q0 68 21.5 121.5t57 89.5t93.5 64t119 45t146 33q52 10 78 15.5t62.5 15t54 19.5t36.5 24.5t26 34t7 44.5q0 139 -199 139q-133 0 -186.5 -44.5t-61.5 -151.5h-204q8 162 120.5 260t339.5 98q84 0 151.5 -19t122 -59.5t84 -112
t29.5 -169.5v-479q0 -60 11 -87.5t39 -27.5q12 0 24 2v-123q-52 -12 -102 -12q-78 0 -117.5 35t-48.5 122h-4q-110 -176 -357 -176zM446 133q140 0 227 71.5t87 203.5v149q-36 -34 -230 -76q-141 -28 -201.5 -72t-60.5 -124q0 -152 178 -152z" />
    <glyph glyph-name="b" unicode="b" horiz-adv-x="1167" 
d="M639 1075q204 0 336.5 -150t132.5 -403t-132.5 -402t-336.5 -149q-215 0 -322 158h-4v-129h-200v1464h200v-542h4q118 153 322 153zM606 137q95 0 162 54.5t98 139.5t31 191t-31 191t-98 139.5t-162 54.5q-135 0 -213 -103t-78 -282q0 -177 78 -281t213 -104z" />
    <glyph glyph-name="c" unicode="c" horiz-adv-x="1087" 
d="M571 -31q-232 0 -373 153t-141 400t140.5 400t371.5 153q197 0 324.5 -114t146.5 -295h-206q-3 35 -12.5 67.5t-30 65t-49 56.5t-72.5 39t-99 15q-80 0 -141 -32t-95.5 -88t-51.5 -123t-17 -144t17 -143.5t51.5 -122t95 -87.5t141.5 -32q69 0 120.5 21.5t80.5 59.5
t43.5 79t18.5 90h206q-11 -182 -140.5 -300t-328.5 -118z" />
    <glyph glyph-name="d" unicode="d" horiz-adv-x="1167" 
d="M854 918v546h201v-1464h-201v123h-4q-117 -152 -322 -152q-204 0 -336.5 149t-132.5 402t132.5 403t336.5 150q213 0 322 -157h4zM561 137q135 0 213 104t78 281q0 179 -78 282t-213 103q-95 0 -162.5 -54.5t-99 -139.5t-31.5 -191t31.5 -191t99 -139.5t162.5 -54.5z" />
    <glyph glyph-name="e" unicode="e" horiz-adv-x="1128" 
d="M1071 545q0 -60 -2 -76h-803q2 -90 36 -164.5t106.5 -123t171.5 -48.5q65 0 117 19t83 50t48.5 60.5t25.5 59.5h205q-44 -160 -166 -256.5t-318 -96.5q-162 0 -280 72.5t-177 197t-59 285.5q0 249 139.5 401t376.5 152q235 0 365.5 -143t130.5 -389zM266 627h596
q0 125 -80.5 205.5t-212.5 80.5q-126 0 -210 -78.5t-93 -207.5z" />
    <glyph glyph-name="f" unicode="f" horiz-adv-x="598" 
d="M498 1311q-64 0 -86.5 -26.5t-22.5 -108.5v-132h195v-165h-195v-879h-203v879h-143v165h143v127q0 173 67.5 240.5t203.5 67.5q34 0 127 -13v-161q-61 6 -86 6z" />
    <glyph glyph-name="g" unicode="g" horiz-adv-x="1161" 
d="M850 922v122h201v-962q0 -230 -129 -343.5t-361 -113.5q-215 0 -334 91.5t-135 240.5h209q36 -168 260 -168q145 0 217 68t72 213v141h-4q-107 -158 -322 -158q-203 0 -332 134t-129 376q0 123 35.5 221t98 161.5t146 96.5t181.5 33q204 0 322 -153h4zM561 219
q137 0 212 88t75 256q0 169 -75 256.5t-212 87.5q-142 0 -215.5 -94.5t-73.5 -249.5t73.5 -249.5t215.5 -94.5z" />
    <glyph glyph-name="h" unicode="h" horiz-adv-x="1114" 
d="M662 1075q153 0 250.5 -89t97.5 -261v-725h-201v670q0 110 -51.5 171.5t-161.5 61.5q-129 0 -206 -71.5t-77 -190.5v-641h-200v1464h200v-551h4q48 69 134.5 115.5t210.5 46.5z" />
    <glyph glyph-name="i" unicode="i" horiz-adv-x="425" 
d="M328 1231h-228v217h228v-217zM313 0h-200v1044h200v-1044z" />
    <glyph glyph-name="j" unicode="j" horiz-adv-x="425" 
d="M328 1231h-228v217h228v-217zM63 -371q-41 0 -124 13v165q49 -6 79 -6q49 0 72 33.5t23 118.5v1091h200v-1099q0 -161 -67 -238.5t-183 -77.5z" />
    <glyph glyph-name="k" unicode="k" horiz-adv-x="1013" 
d="M1044 0h-237l-342 535l-152 -146v-389h-200v1464h200v-862l457 442h231l-401 -382z" />
    <glyph glyph-name="l" unicode="l" horiz-adv-x="425" 
d="M313 0h-200v1464h200v-1464z" />
    <glyph glyph-name="m" unicode="m" horiz-adv-x="1673" 
d="M1249 1075q157 0 237.5 -90.5t80.5 -259.5v-725h-201v670q0 117 -37.5 175t-144.5 58q-112 0 -178 -71.5t-66 -190.5v-641h-201v670q0 117 -37.5 175t-144.5 58q-112 0 -178 -71.5t-66 -190.5v-641h-200v1044h200v-131h4q111 162 310 162q212 0 276 -182h4
q138 182 342 182z" />
    <glyph glyph-name="n" unicode="n" horiz-adv-x="1114" 
d="M662 1075q153 0 250.5 -89t97.5 -261v-725h-201v670q0 110 -51.5 171.5t-161.5 61.5q-129 0 -206 -71.5t-77 -190.5v-641h-200v1044h200v-131h4q48 69 134.5 115.5t210.5 46.5z" />
    <glyph glyph-name="o" unicode="o" horiz-adv-x="1159" 
d="M580 -31q-242 0 -382.5 152t-140.5 401q0 248 141 401.5t384 153.5q240 0 380 -152.5t140 -400.5q0 -249 -140.5 -402t-381.5 -153zM582 135q153 0 232 107.5t79 279.5q0 173 -79 280t-232 107q-156 0 -236 -107t-80 -280q0 -172 80 -279.5t236 -107.5z" />
    <glyph glyph-name="p" unicode="p" horiz-adv-x="1167" 
d="M639 1075q204 0 336.5 -150t132.5 -403t-132.5 -402t-336.5 -149q-215 0 -322 158h-4v-491h-200v1406h200v-122h4q118 153 322 153zM606 137q95 0 162 54.5t98 139.5t31 191t-31 191t-98 139.5t-162 54.5q-135 0 -213 -103t-78 -282q0 -177 78 -281t213 -104z" />
    <glyph glyph-name="q" unicode="q" horiz-adv-x="1165" 
d="M854 918v126h201v-1406h-201v485h-4q-117 -152 -322 -152q-204 0 -336.5 149t-132.5 402t132.5 403t336.5 150q213 0 322 -157h4zM561 137q135 0 213 104t78 281q0 179 -78 282t-213 103q-95 0 -162.5 -54.5t-99 -139.5t-31.5 -191t31.5 -191t99 -139.5t162.5 -54.5z" />
    <glyph glyph-name="r" unicode="r" horiz-adv-x="712" 
d="M598 1069q50 0 96 -6v-193q-44 7 -67 7q-137 0 -225.5 -93.5t-88.5 -242.5v-541h-200v1044h200v-198h4q94 223 281 223z" />
    <glyph glyph-name="s" unicode="s" horiz-adv-x="999" 
d="M524 -29q-229 0 -352.5 105t-128.5 272h203q7 -99 72.5 -157t203.5 -58q121 0 172 44t51 110q0 19 -4.5 36t-10.5 29.5t-19 24t-23.5 19.5t-29.5 16t-32 13t-36.5 10.5t-37.5 8.5t-41 8.5t-40 8.5q-50 12 -80 19.5t-76.5 23t-75 30.5t-62 39t-52.5 51.5t-32 66t-13 83.5
q0 137 105.5 219t291.5 82q204 0 315.5 -94.5t122.5 -239.5h-202q-6 34 -18.5 61t-37 54t-69.5 42t-107 15q-98 0 -145 -35t-47 -96q0 -20 6 -36.5t14 -28.5t25.5 -22.5t30.5 -16.5t40.5 -13.5t44 -11t51 -11t52.5 -11.5q51 -12 84 -20.5t79.5 -24.5t76.5 -32t63.5 -41.5
t52.5 -55t32 -70.5t13 -90q0 -153 -113 -239.5t-317 -86.5z" />
    <glyph glyph-name="t" unicode="t" horiz-adv-x="636" 
d="M498 154q39 0 86 8v-162q-61 -12 -127 -12q-139 0 -208 67.5t-69 239.5v584h-151v165h151v336h201v-336h201v-165h-201v-590q0 -81 25 -108t92 -27z" />
    <glyph glyph-name="u" unicode="u" horiz-adv-x="1114" 
d="M801 403v641h200v-1044h-200v131h-4q-47 -69 -133 -114.5t-211 -45.5q-153 0 -251 89.5t-98 261.5v722h201v-667q0 -111 51.5 -173.5t161.5 -62.5q129 0 206 71.5t77 190.5z" />
    <glyph glyph-name="v" unicode="v" horiz-adv-x="999" 
d="M612 0h-225l-373 1044h215l275 -837h2l270 837h209z" />
    <glyph glyph-name="w" unicode="w" horiz-adv-x="1552" 
d="M549 0h-207l-324 1044h218l221 -808h4l217 808h203l217 -808h4l223 808h209l-324 -1044h-206l-226 805h-4z" />
    <glyph glyph-name="x" unicode="x" horiz-adv-x="997" 
d="M217 0h-233l393 535l-359 509h230l250 -372h4l246 372h229l-359 -509l398 -535h-236l-282 399h-4z" />
    <glyph glyph-name="y" unicode="y" horiz-adv-x="1034" 
d="M248 -367q-50 0 -129 15v164q61 -7 86 -7q71 0 129 46.5t86 158.5l-422 1034h219l305 -798h4l287 798h211l-414 -1069q-74 -190 -156 -266t-206 -76z" />
    <glyph glyph-name="z" unicode="z" horiz-adv-x="946" 
d="M905 0h-866v150l571 724v5h-534v165h807v-129l-586 -745v-4h608v-166z" />
    <glyph glyph-name="braceleft" unicode="{" horiz-adv-x="638" 
d="M592 -250h-43q-81 0 -136.5 9t-103.5 34.5t-76 71t-43.5 117.5t-15.5 174v221q0 87 -26.5 133.5t-98.5 46.5v191q72 -1 98.5 44.5t26.5 133.5v229q0 102 15.5 173t43 115t76.5 68t103.5 32.5t136.5 8.5h43v-190h-43q-76 0 -115 -42.5t-39 -148.5v-299q0 -84 -32.5 -135
t-94.5 -84v-4q63 -33 95 -84.5t32 -136.5v-289q0 -112 38.5 -155t115.5 -43h43v-191z" />
    <glyph glyph-name="bar" unicode="|" horiz-adv-x="452" 
d="M307 -266h-162v1794h162v-1794z" />
    <glyph glyph-name="braceright" unicode="}" horiz-adv-x="638" 
d="M90 -250h-43v191h43q76 0 115 42t39 148v301q0 83 32 134.5t93 84.5v4q-61 33 -93 85t-32 137v286q0 112 -39 155.5t-115 43.5h-43v190h43q81 0 136.5 -9t103.5 -34.5t76 -70.5t43.5 -117t15.5 -174v-219q0 -87 26 -133.5t97 -46.5v-191q-71 1 -97 -44.5t-26 -133.5v-232
q0 -102 -15.5 -173t-43 -115t-76.5 -68t-103.5 -32.5t-136.5 -8.5z" />
    <glyph glyph-name="asciitilde" unicode="~" horiz-adv-x="905" 
d="M264 539h-158q0 123 51.5 195.5t145.5 72.5q54 0 104 -22.5t89.5 -45t68.5 -22.5q43 0 61.5 27.5t18.5 62.5h156q0 -123 -51.5 -195.5t-143.5 -72.5q-54 0 -104 22t-90.5 44t-69.5 22q-41 0 -59.5 -27t-18.5 -61z" />
    <glyph glyph-name="uni00A0" unicode="&#xa0;" horiz-adv-x="428" 
 />
    <glyph glyph-name="exclamdown" unicode="&#xa1;" horiz-adv-x="454" 
d="M338 975h-223v223h223v-223zM338 -266h-221v397l51 668h117l53 -668v-397z" />
    <glyph glyph-name="cent" unicode="&#xa2;" horiz-adv-x="1155" 
d="M668 1120v-764q52 9 91 34t61.5 60.5t34.5 73t15 80.5h207q-9 -168 -121 -282.5t-288 -133.5v-178h-127v180q-204 23 -325.5 172.5t-121.5 376.5q0 228 121.5 377.5t325.5 171.5v158h127v-158q172 -19 282 -129.5t127 -275.5h-207q-3 38 -15 73.5t-35 69.5t-62 59t-90 35
zM303 739q0 -145 58.5 -250.5t179.5 -130.5v760q-121 -25 -179.5 -130t-58.5 -249z" />
    <glyph glyph-name="sterling" unicode="&#xa3;" horiz-adv-x="1200" 
d="M1059 268l90 -174q-78 -61 -142 -92t-153 -31q-64 0 -124.5 19t-100 42.5t-91 42.5t-98.5 19q-61 0 -116 -21t-136 -73l-110 162q86 56 136 159t50 230v8h-166v168h119q-2 5 -13.5 29.5t-15 32.5t-13.5 31t-13.5 35t-10 35t-9 41t-5 41.5t-2.5 47.5q0 54 15 109t51 110.5
t89.5 97.5t137.5 68.5t188 26.5q127 0 222.5 -36.5t152.5 -103.5t85 -154.5t28 -195.5h-221q0 299 -265 299q-126 0 -194 -65.5t-68 -174.5q0 -39 9.5 -80t18.5 -63.5t30.5 -69.5t27.5 -61h322v-168h-279v-10q0 -105 -41.5 -192.5t-115.5 -145.5l2 -4q3 2 27.5 14.5t35.5 17
t34 13t45.5 11.5t47.5 3q59 0 113 -21.5t103.5 -43t99.5 -21.5q65 0 114 21.5t109 66.5z" />
    <glyph glyph-name="currency" unicode="&#xa4;" horiz-adv-x="1091" 
d="M948 707q0 -131 -63 -230l129 -129l-107 -108l-129 129q-104 -72 -231 -72q-130 0 -234 72l-129 -129l-106 106l129 129q-64 103 -64 232q0 133 66 231l-131 131l106 107l129 -129q104 69 234 69q127 0 231 -69l127 127l109 -107l-129 -129q63 -99 63 -231zM326 707
q0 -124 60 -190t161 -66q100 0 159.5 66t59.5 190t-59.5 191t-159.5 67q-101 0 -161 -67t-60 -191z" />
    <glyph glyph-name="yen" unicode="&#xa5;" horiz-adv-x="1249" 
d="M961 1405h241l-436 -780h324v-125h-355v-119h355v-125h-355v-256h-221v256h-354v125h354v119h-354v125h323l-436 780h242l334 -649h4z" />
    <glyph glyph-name="brokenbar" unicode="&#xa6;" horiz-adv-x="452" 
d="M307 786h-162v742h162v-742zM307 -266h-162v768h162v-768z" />
    <glyph glyph-name="section" unicode="&#xa7;" horiz-adv-x="1239" 
d="M1151 451q0 -105 -55 -175t-154 -100q86 -92 86 -225q0 -146 -103 -239t-300 -93q-105 0 -185.5 28t-129.5 78t-74.5 113.5t-28.5 138.5h201q4 -196 217 -196q202 0 202 149q0 19 -4 37t-8 32t-16.5 29.5t-18.5 25t-25.5 24.5t-26.5 21t-32.5 21.5t-32 19.5t-36.5 20.5
t-35 19.5l-107 62q-21 12 -63 35.5t-62.5 35t-56 32.5t-53.5 34.5t-45.5 35t-41.5 38t-31.5 40t-25.5 46.5t-14 50.5t-6 57.5q0 105 56 175t155 100q-88 95 -88 225q0 147 104 239.5t301 92.5q105 0 185.5 -28t129.5 -78.5t74.5 -113t28.5 -137.5h-201q-3 33 -7 54t-17.5 51
t-35 47t-62 30t-95.5 13q-202 0 -202 -150q0 -23 3.5 -43t13.5 -38l17.5 -31.5t26.5 -29.5t28 -24.5t35.5 -24t35.5 -20.5t41 -22t40 -21l109 -57q173 -94 228 -133q126 -89 152 -198q9 -35 9 -74zM803 287q75 7 111 44t36 89q0 40 -20.5 75t-66 70.5t-91.5 63.5t-123 69
l-125 68l-82 45q-78 -6 -116.5 -43.5t-38.5 -89.5q0 -27 8 -50.5t30.5 -47.5t43 -42t63.5 -44.5t74 -44t92 -50.5l125 -67q32 -17 80 -45z" />
    <glyph glyph-name="dieresis" unicode="&#xa8;" horiz-adv-x="755" 
d="M313 1231h-227v219h227v-219zM655 1231h-225v219h225v-219z" />
    <glyph glyph-name="copyright" unicode="&#xa9;" horiz-adv-x="1726" 
d="M864 -29q-352 0 -560 205t-208 555q0 351 208 556.5t560 205.5t558 -205t206 -557q0 -350 -206 -555t-558 -205zM864 104q280 0 443 168.5t163 458.5t-163 459.5t-443 169.5q-281 0 -444.5 -169.5t-163.5 -459.5t163.5 -458.5t444.5 -168.5zM881 272q-203 0 -320 126.5
t-117 332.5q0 205 112 333t308 128q172 0 279 -95t123 -239h-172q-3 19 -9.5 39t-23.5 45.5t-40 45t-62.5 33t-88.5 13.5q-247 0 -247 -303q0 -64 12.5 -116t39.5 -95t76.5 -66.5t118.5 -23.5q61 0 106 18.5t68.5 48.5t34.5 57t15 54h172q-9 -145 -112.5 -240.5
t-272.5 -95.5z" />
    <glyph glyph-name="ordfeminine" unicode="&#xaa;" horiz-adv-x="905" 
d="M324 612q-120 0 -191.5 66t-71.5 176q0 62 24.5 107.5t72.5 75t102.5 47.5t132.5 32q115 23 148 40q56 29 57 87q0 44 -34 71t-111 27q-88 0 -127.5 -37t-44.5 -112h-185q5 127 96.5 207t270.5 80q313 0 313 -295v-363q0 -38 8.5 -55.5t32.5 -17.5h21v-109
q-55 -14 -99 -14q-67 0 -99 30t-40 93h-6q-40 -61 -110.5 -98.5t-159.5 -37.5zM385 760q95 0 154 53.5t59 144.5v103q-33 -31 -168 -60q-176 -37 -176 -137q0 -104 131 -104z" />
    <glyph glyph-name="guillemotleft" unicode="&#xab;" horiz-adv-x="960" 
d="M492 297v-213l-404 328v223l404 328v-215l-295 -224v-4zM860 297v-213l-403 328v223l403 328v-215l-295 -224v-4z" />
    <glyph glyph-name="logicalnot" unicode="&#xac;" horiz-adv-x="1054" 
d="M934 291h-217v348h-637v190h854v-538z" />
    <glyph glyph-name="uni00AD" unicode="&#xad;" horiz-adv-x="720" 
d="M635 426h-549v190h549v-190z" />
    <glyph glyph-name="registered" unicode="&#xae;" horiz-adv-x="1167" 
d="M584 506q-206 0 -347 141.5t-141 353.5t141.5 354t346.5 142t346 -142t141 -354t-141 -353.5t-346 -141.5zM584 590q169 0 280 116t111 295t-111 295.5t-280 116.5t-280 -116.5t-111 -295.5t111 -295t280 -116zM514 731h-135v545h227q95 0 145 -41.5t50 -118.5
q0 -55 -30.5 -90t-84.5 -47v-2q47 -8 73 -46t30.5 -79t9 -76.5t14.5 -38.5v-6h-139q-8 7 -11 40l-6 66t-25.5 60t-66.5 27h-51v-193zM514 1032h55q103 0 103 72q0 41 -27.5 55.5t-75.5 14.5h-55v-142z" />
    <glyph glyph-name="macron" unicode="&#xaf;" horiz-adv-x="704" 
d="M623 1231h-541v158h541v-158z" />
    <glyph glyph-name="degree" unicode="&#xb0;" horiz-adv-x="786" 
d="M393 877q-77 0 -139 27.5t-100 72.5t-58 99t-20 110q0 55 20 108.5t58 98.5t100 72.5t139 27.5q76 0 138 -27.5t100 -72.5t58 -98.5t20 -108.5q0 -56 -20 -110t-58 -99t-100 -72.5t-138 -27.5zM393 1008q77 0 124.5 49.5t47.5 128.5q0 78 -48 127t-124 49
q-77 0 -125.5 -49t-48.5 -127q0 -79 48.5 -128.5t125.5 -49.5z" />
    <glyph glyph-name="plusminus" unicode="&#xb1;" horiz-adv-x="1140" 
d="M666 242h-191v389h-377v190h377v389h191v-389h376v-190h-376v-389zM1042 -12h-944v190h944v-190z" />
    <glyph glyph-name="uni00B2" unicode="&#xb2;" horiz-adv-x="729" 
d="M666 743h-625q0 74 23.5 131t63.5 99.5t112 95.5q23 17 59.5 41.5t58.5 39.5t49 37.5t42 42.5t25.5 46.5t10.5 56.5q0 51 -27 83t-85 32q-140 0 -140 -174h-176q0 143 82 232t240 89q133 0 212 -65.5t79 -183.5q0 -46 -14 -88t-32 -70.5t-54 -62.5t-59.5 -51.5
t-68.5 -49.5q-43 -30 -61.5 -44t-44.5 -39t-39 -48v-2h369v-148z" />
    <glyph glyph-name="uni00B3" unicode="&#xb3;" horiz-adv-x="763" 
d="M393 739q-168 0 -259 81t-91 229h178q0 -80 37 -121t123 -41q141 0 141 114q0 121 -153 121h-56v131h52q133 0 133 103q0 106 -117 106q-137 0 -137 -127h-176q0 122 85 198.5t238 76.5q122 0 206.5 -63t84.5 -169q0 -120 -123 -180v-2q150 -47 150 -203
q0 -120 -86.5 -187t-229.5 -67z" />
    <glyph glyph-name="acute" unicode="&#xb4;" horiz-adv-x="485" 
d="M225 1202h-159l120 283h236z" />
    <glyph glyph-name="uni00B5" unicode="&#xb5;" horiz-adv-x="1163" 
d="M829 403v641h201v-1044h-201v131h-4q-43 -68 -123 -113t-184 -45q-110 0 -184 56v-391h-201v1406h201v-667q0 -236 217 -236q125 0 201.5 72t76.5 190z" />
    <glyph glyph-name="paragraph" unicode="&#xb6;" horiz-adv-x="1148" 
d="M686 0h-156v686h-94q-195 0 -297 98.5t-102 284.5q0 187 102.5 291t296.5 104h561v-1464h-157v1296h-154v-1296z" />
    <glyph glyph-name="periodcentered" unicode="&#xb7;" horiz-adv-x="425" 
d="M324 401h-222v222h222v-222z" />
    <glyph glyph-name="cedilla" unicode="&#xb8;" horiz-adv-x="610" 
d="M309 -406q-120 0 -221 64l47 57q75 -30 139 -30q49 0 75 19t26 52q0 62 -78 62q-45 0 -82 -15l-31 45l127 152h113l-92 -109v-4q48 6 92 -3.5t77.5 -43t33.5 -86.5q0 -79 -65.5 -119.5t-160.5 -40.5z" />
    <glyph glyph-name="uni00B9" unicode="&#xb9;" horiz-adv-x="481" 
d="M203 745v574q-41 -29 -176 -29v142q99 2 153.5 38t55.5 107h151v-832h-184z" />
    <glyph glyph-name="ordmasculine" unicode="&#xba;" horiz-adv-x="937" 
d="M469 612q-190 0 -302 120.5t-112 314.5q0 193 112.5 312.5t303.5 119.5q190 0 301 -119.5t111 -312.5q0 -194 -111.5 -314.5t-302.5 -120.5zM469 764q112 0 168.5 77.5t56.5 205.5q0 126 -57 203t-168 77q-112 0 -168.5 -76.5t-56.5 -203.5q0 -128 56.5 -205.5
t168.5 -77.5z" />
    <glyph glyph-name="guillemotright" unicode="&#xbb;" horiz-adv-x="960" 
d="M504 412l-402 -328v215l293 223v4l-293 222v215l402 -328v-223zM872 412l-401 -328v215l293 223v4l-293 222v215l401 -328v-223z" />
    <glyph glyph-name="onequarter" unicode="&#xbc;" horiz-adv-x="1550" 
d="M209 633v573q-39 -28 -176 -28v141q99 2 153.5 38t55.5 107h151v-831h-184zM350 0h-211l928 1464h211zM1399 0h-180v180h-383v174l383 477h180v-503h121v-148h-121v-180zM1219 627l-240 -299h240v299z" />
    <glyph glyph-name="onehalf" unicode="&#xbd;" horiz-adv-x="1650" 
d="M211 633v573q-37 -28 -176 -28v141q206 3 209 145h153v-831h-186zM356 0h-211l928 1464h211zM1581 0h-625q0 74 23.5 131t63.5 99.5t112 95.5q24 17 70.5 48t70 49t52 45t41 57t12.5 65q0 51 -27.5 83t-85.5 32q-139 0 -139 -175h-176q0 144 81.5 233t239.5 89
q133 0 212 -66t79 -184q0 -46 -14 -88t-32 -70.5t-53.5 -62t-59 -51t-68.5 -49.5t-62 -44.5t-44 -38t-40 -48.5v-3h369v-147z" />
    <glyph glyph-name="threequarters" unicode="&#xbe;" horiz-adv-x="1861" 
d="M410 616q-168 0 -259.5 81t-91.5 229h179q0 -80 37 -121t124 -41q140 0 140 115q0 120 -152 120h-55v129h51q131 0 131 105q0 50 -29.5 78t-87.5 28q-68 0 -102.5 -33.5t-34.5 -93.5h-176q0 122 85.5 198.5t238.5 76.5q122 0 206 -63t84 -169q0 -123 -123 -180v-2
q152 -47 152 -203q0 -120 -87 -187t-230 -67zM651 0h-211l928 1464h211zM1700 0h-180v180h-383v174l383 477h180v-503h121v-148h-121v-180zM1520 627l-242 -299h242v299z" />
    <glyph glyph-name="questiondown" unicode="&#xbf;" horiz-adv-x="1028" 
d="M676 975h-223v223h223v-223zM494 -297q-205 0 -331 107.5t-126 279.5q0 49 12 92t28.5 74t48.5 64t58 54t70 54q91 67 112 88q77 73 95 188q6 42 6 95h205q0 -65 -7.5 -118t-25 -95.5t-34.5 -73.5t-49 -63t-54.5 -51.5t-63.5 -51.5q-93 -72 -118 -99q-62 -66 -62 -157
t61 -143.5t173 -52.5q129 0 205.5 76t76.5 241h221q0 -148 -55 -261t-169.5 -180t-276.5 -67z" />
    <glyph glyph-name="Agrave" unicode="&#xc0;" horiz-adv-x="1351" 
d="M745 1622h-157l-172 283h225zM246 0h-238l545 1464h244l549 -1464h-246l-121 352h-612zM672 1255l-238 -712h481l-239 712h-4z" />
    <glyph glyph-name="Aacute" unicode="&#xc1;" horiz-adv-x="1351" 
d="M737 1622h-159l120 283h236zM246 0h-238l545 1464h244l549 -1464h-246l-121 352h-612zM672 1255l-238 -712h481l-239 712h-4z" />
    <glyph glyph-name="Acircumflex" unicode="&#xc2;" horiz-adv-x="1351" 
d="M561 1622h-190l194 283h217l195 -283h-193l-108 182h-4zM246 0h-238l545 1464h244l549 -1464h-246l-121 352h-612zM672 1255l-238 -712h481l-239 712h-4z" />
    <glyph glyph-name="Atilde" unicode="&#xc3;" horiz-adv-x="1351" 
d="M504 1634h-135q0 109 44.5 163t112.5 54q57 0 145 -37.5t113 -37.5q52 0 52 71h135q0 -111 -44.5 -164t-113.5 -53q-56 0 -144 38t-112 38q-53 0 -53 -72zM246 0h-238l545 1464h244l549 -1464h-246l-121 352h-612zM672 1255l-238 -712h481l-239 712h-4z" />
    <glyph glyph-name="Adieresis" unicode="&#xc4;" horiz-adv-x="1351" 
d="M616 1651h-227v217h227v-217zM961 1651h-228v217h228v-217zM246 0h-238l545 1464h244l549 -1464h-246l-121 352h-612zM672 1255l-238 -712h481l-239 712h-4z" />
    <glyph glyph-name="Aring" unicode="&#xc5;" horiz-adv-x="1351" 
d="M672 1556q-81 0 -135 52.5t-54 136.5q0 83 54 135.5t135 52.5q84 0 137 -52t53 -136t-53 -136.5t-137 -52.5zM672 1647q43 0 69.5 27t26.5 71q0 43 -26.5 70.5t-69.5 27.5q-40 0 -66 -27.5t-26 -70.5q0 -44 26 -71t66 -27zM246 0h-238l545 1464h244l549 -1464h-246
l-121 352h-612zM672 1255l-238 -712h481l-239 712h-4z" />
    <glyph glyph-name="AE" unicode="&#xc6;" horiz-adv-x="2007" 
d="M1110 659v-464h832v-195h-1057v352h-525l-120 -352h-232l543 1464h1368v-194h-809v-416h711v-195h-711zM428 543h455v721h-211z" />
    <glyph glyph-name="Ccedilla" unicode="&#xc7;" horiz-adv-x="1445" 
d="M756 166q82 0 148.5 21t110 56t74 83.5t45.5 99t19 106.5h236q-24 -239 -178 -392.5t-404 -166.5l-70 -82v-4q48 6 92 -3.5t77.5 -43t33.5 -86.5q0 -54 -33 -91t-82.5 -53t-109.5 -16q-120 0 -221 64l47 57q75 -30 139 -30q49 0 74.5 19t25.5 52q0 62 -78 62
q-44 0 -81 -15l-31 45l104 125q-187 15 -328 116t-216.5 267.5t-75.5 374.5q0 220 84 393t241 271t361 98q134 0 247.5 -41t192 -112.5t127.5 -166.5t62 -206h-236q-9 48 -24.5 90t-46.5 88t-72.5 78.5t-107 53.5t-146.5 21q-117 0 -205.5 -46.5t-140 -127.5t-76.5 -179
t-25 -212q0 -91 15 -172t49.5 -154t85 -126t127 -84t170.5 -31z" />
    <glyph glyph-name="Egrave" unicode="&#xc8;" horiz-adv-x="1267" 
d="M739 1622h-157l-172 283h225zM1202 0h-1057v1464h1037v-194h-811v-416h710v-195h-710v-464h831v-195z" />
    <glyph glyph-name="Eacute" unicode="&#xc9;" horiz-adv-x="1267" 
d="M729 1622h-160l121 283h236zM1202 0h-1057v1464h1037v-194h-811v-416h710v-195h-710v-464h831v-195z" />
    <glyph glyph-name="Ecircumflex" unicode="&#xca;" horiz-adv-x="1267" 
d="M555 1622h-190l194 283h217l195 -283h-193l-108 182h-4zM1202 0h-1057v1464h1037v-194h-811v-416h710v-195h-710v-464h831v-195z" />
    <glyph glyph-name="Edieresis" unicode="&#xcb;" horiz-adv-x="1267" 
d="M608 1651h-227v217h227v-217zM952 1651h-227v217h227v-217zM1202 0h-1057v1464h1037v-194h-811v-416h710v-195h-710v-464h831v-195z" />
    <glyph glyph-name="Igrave" unicode="&#xcc;" horiz-adv-x="516" 
d="M330 1622h-158l-172 283h225zM371 0h-226v1464h226v-1464z" />
    <glyph glyph-name="Iacute" unicode="&#xcd;" horiz-adv-x="516" 
d="M322 1622h-160l121 283h235zM371 0h-226v1464h226v-1464z" />
    <glyph glyph-name="Icircumflex" unicode="&#xce;" horiz-adv-x="516" 
d="M145 1622h-190l195 283h217l194 -283h-192l-109 182h-4zM371 0h-226v1464h226v-1464z" />
    <glyph glyph-name="Idieresis" unicode="&#xcf;" horiz-adv-x="516" 
d="M199 1651h-228v217h228v-217zM543 1651h-228v217h228v-217zM371 0h-226v1464h226v-1464z" />
    <glyph glyph-name="Eth" unicode="&#xd0;" horiz-adv-x="1482" 
d="M195 1464h557q307 0 479 -191t172 -542t-170 -541t-477 -190h-561v682h-170v152h170v630zM420 195h321q428 0 428 536q0 539 -428 539h-321v-436h395v-152h-395v-487z" />
    <glyph glyph-name="Ntilde" unicode="&#xd1;" horiz-adv-x="1460" 
d="M561 1634h-135q0 109 45 163t113 54q57 0 145 -37.5t113 -37.5q51 0 51 71h135q0 -111 -44.5 -164t-113.5 -53q-56 0 -144 38t-112 38q-53 0 -53 -72zM371 0h-226v1464h258l680 -1126h4v1126h228v-1464h-258l-682 1126h-4v-1126z" />
    <glyph glyph-name="Ograve" unicode="&#xd2;" horiz-adv-x="1585" 
d="M864 1622h-157l-172 283h225zM793 -29q-215 0 -379.5 98.5t-252 271.5t-87.5 392t87.5 391.5t252 270.5t379.5 98t379 -98t251.5 -270.5t87.5 -391.5q0 -164 -51 -304.5t-143 -241.5t-227.5 -158.5t-296.5 -57.5zM793 166q101 0 183 30t137 82.5t92.5 125t54 154.5
t16.5 175q0 117 -27.5 216t-83.5 178.5t-151.5 125t-220.5 45.5t-220.5 -45.5t-152 -125t-84 -178.5t-27.5 -216q0 -93 17 -175t54 -154.5t92.5 -125t137.5 -82.5t183 -30z" />
    <glyph glyph-name="Oacute" unicode="&#xd3;" horiz-adv-x="1585" 
d="M856 1622h-160l121 283h236zM793 -29q-215 0 -379.5 98.5t-252 271.5t-87.5 392t87.5 391.5t252 270.5t379.5 98t379 -98t251.5 -270.5t87.5 -391.5q0 -164 -51 -304.5t-143 -241.5t-227.5 -158.5t-296.5 -57.5zM793 166q101 0 183 30t137 82.5t92.5 125t54 154.5
t16.5 175q0 117 -27.5 216t-83.5 178.5t-151.5 125t-220.5 45.5t-220.5 -45.5t-152 -125t-84 -178.5t-27.5 -216q0 -93 17 -175t54 -154.5t92.5 -125t137.5 -82.5t183 -30z" />
    <glyph glyph-name="Ocircumflex" unicode="&#xd4;" horiz-adv-x="1585" 
d="M680 1622h-191l195 283h217l195 -283h-193l-108 182h-4zM793 -29q-215 0 -379.5 98.5t-252 271.5t-87.5 392t87.5 391.5t252 270.5t379.5 98t379 -98t251.5 -270.5t87.5 -391.5q0 -164 -51 -304.5t-143 -241.5t-227.5 -158.5t-296.5 -57.5zM793 166q101 0 183 30
t137 82.5t92.5 125t54 154.5t16.5 175q0 117 -27.5 216t-83.5 178.5t-151.5 125t-220.5 45.5t-220.5 -45.5t-152 -125t-84 -178.5t-27.5 -216q0 -93 17 -175t54 -154.5t92.5 -125t137.5 -82.5t183 -30z" />
    <glyph glyph-name="Otilde" unicode="&#xd5;" horiz-adv-x="1585" 
d="M623 1634h-136q0 109 45 163t113 54q57 0 145 -37.5t113 -37.5q51 0 51 71h136q0 -111 -44.5 -164t-113.5 -53q-56 0 -144 38t-112 38q-53 0 -53 -72zM793 -29q-215 0 -379.5 98.5t-252 271.5t-87.5 392t87.5 391.5t252 270.5t379.5 98t379 -98t251.5 -270.5t87.5 -391.5
q0 -164 -51 -304.5t-143 -241.5t-227.5 -158.5t-296.5 -57.5zM793 166q101 0 183 30t137 82.5t92.5 125t54 154.5t16.5 175q0 117 -27.5 216t-83.5 178.5t-151.5 125t-220.5 45.5t-220.5 -45.5t-152 -125t-84 -178.5t-27.5 -216q0 -93 17 -175t54 -154.5t92.5 -125
t137.5 -82.5t183 -30z" />
    <glyph glyph-name="Odieresis" unicode="&#xd6;" horiz-adv-x="1585" 
d="M733 1651h-227v217h227v-217zM1077 1651h-227v217h227v-217zM793 -29q-215 0 -379.5 98.5t-252 271.5t-87.5 392t87.5 391.5t252 270.5t379.5 98t379 -98t251.5 -270.5t87.5 -391.5q0 -164 -51 -304.5t-143 -241.5t-227.5 -158.5t-296.5 -57.5zM793 166q101 0 183 30
t137 82.5t92.5 125t54 154.5t16.5 175q0 117 -27.5 216t-83.5 178.5t-151.5 125t-220.5 45.5t-220.5 -45.5t-152 -125t-84 -178.5t-27.5 -216q0 -93 17 -175t54 -154.5t92.5 -125t137.5 -82.5t183 -30z" />
    <glyph glyph-name="multiply" unicode="&#xd7;" horiz-adv-x="1140" 
d="M571 532l-307 -307l-135 137l305 306l-305 305l135 135l307 -305l306 305l135 -135l-305 -305l305 -306l-135 -137z" />
    <glyph glyph-name="Oslash" unicode="&#xd8;" horiz-adv-x="1595" 
d="M1444 1458l78 -74l-158 -157q154 -203 154 -494q0 -219 -88 -392t-252.5 -271.5t-378.5 -98.5q-304 0 -498 191l-154 -154l-73 76l155 158q-149 200 -149 491q0 219 87.5 391.5t252 270.5t379.5 98q301 0 493 -186zM315 733q0 -196 72 -334l758 760q-126 139 -346 139
q-125 0 -220.5 -45.5t-152 -125t-84 -178.5t-27.5 -216zM1282 733q0 201 -76 336l-757 -760q127 -143 350 -143q100 0 182 30t137 82.5t92.5 125t54.5 155t17 174.5z" />
    <glyph glyph-name="Ugrave" unicode="&#xd9;" horiz-adv-x="1415" 
d="M778 1622h-157l-172 283h225zM707 -29q-290 0 -431 140t-141 387v966h225v-966q0 -169 86.5 -250.5t260.5 -81.5q175 0 260.5 81t85.5 251v966h227v-966q0 -247 -141 -387t-432 -140z" />
    <glyph glyph-name="Uacute" unicode="&#xda;" horiz-adv-x="1415" 
d="M770 1622h-160l121 283h236zM707 -29q-290 0 -431 140t-141 387v966h225v-966q0 -169 86.5 -250.5t260.5 -81.5q175 0 260.5 81t85.5 251v966h227v-966q0 -247 -141 -387t-432 -140z" />
    <glyph glyph-name="Ucircumflex" unicode="&#xdb;" horiz-adv-x="1415" 
d="M594 1622h-191l195 283h217l195 -283h-193l-108 182h-4zM707 -29q-290 0 -431 140t-141 387v966h225v-966q0 -169 86.5 -250.5t260.5 -81.5q175 0 260.5 81t85.5 251v966h227v-966q0 -247 -141 -387t-432 -140z" />
    <glyph glyph-name="Udieresis" unicode="&#xdc;" horiz-adv-x="1415" 
d="M649 1651h-227v217h227v-217zM993 1651h-227v217h227v-217zM707 -29q-290 0 -431 140t-141 387v966h225v-966q0 -169 86.5 -250.5t260.5 -81.5q175 0 260.5 81t85.5 251v966h227v-966q0 -247 -141 -387t-432 -140z" />
    <glyph glyph-name="Yacute" unicode="&#xdd;" horiz-adv-x="1304" 
d="M717 1622h-160l121 283h235zM766 0h-227v586l-525 878h244l393 -700h4l394 700h241l-524 -878v-586z" />
    <glyph glyph-name="Thorn" unicode="&#xde;" horiz-adv-x="1277" 
d="M371 0h-226v1464h226v-235h385q219 0 349 -108t130 -328q0 -112 -35.5 -197t-100.5 -137t-151 -77.5t-192 -25.5h-385v-356zM371 553h383q129 0 192.5 58.5t63.5 181.5t-63.5 181t-192.5 58h-383v-479z" />
    <glyph glyph-name="germandbls" unicode="&#xdf;" horiz-adv-x="1091" 
d="M627 -29q-89 0 -195 29v166q80 -27 146 -27q120 0 183.5 78t63.5 203q0 153 -90.5 232t-228.5 79h-57v158h51q68 0 124.5 23.5t95 77.5t38.5 130q0 89 -51 148t-162 59q-127 0 -179.5 -79.5t-52.5 -223.5v-1024h-200v1051q0 209 114 325.5t318 116.5q194 0 309 -100.5
t115 -264.5q0 -217 -230 -315v-4q139 -47 217 -149.5t78 -266.5q0 -193 -109 -307.5t-298 -114.5z" />
    <glyph glyph-name="agrave" unicode="&#xe0;" horiz-adv-x="1087" 
d="M633 1202h-158l-172 283h225zM401 -29q-156 0 -249 82.5t-93 216.5q0 68 21.5 121.5t57 89.5t93.5 64t119 45t146 33q52 10 78 15.5t62.5 15t54 19.5t36.5 24.5t26 34t7 44.5q0 139 -199 139q-133 0 -186.5 -44.5t-61.5 -151.5h-204q8 162 120.5 260t339.5 98
q84 0 151.5 -19t122 -59.5t84 -112t29.5 -169.5v-479q0 -60 11 -87.5t39 -27.5q12 0 24 2v-123q-52 -12 -102 -12q-78 0 -117.5 35t-48.5 122h-4q-110 -176 -357 -176zM446 133q140 0 227 71.5t87 203.5v149q-36 -34 -230 -76q-141 -28 -201.5 -72t-60.5 -124
q0 -152 178 -152z" />
    <glyph glyph-name="aacute" unicode="&#xe1;" horiz-adv-x="1087" 
d="M623 1202h-160l121 283h235zM401 -29q-156 0 -249 82.5t-93 216.5q0 68 21.5 121.5t57 89.5t93.5 64t119 45t146 33q52 10 78 15.5t62.5 15t54 19.5t36.5 24.5t26 34t7 44.5q0 139 -199 139q-133 0 -186.5 -44.5t-61.5 -151.5h-204q8 162 120.5 260t339.5 98
q84 0 151.5 -19t122 -59.5t84 -112t29.5 -169.5v-479q0 -60 11 -87.5t39 -27.5q12 0 24 2v-123q-52 -12 -102 -12q-78 0 -117.5 35t-48.5 122h-4q-110 -176 -357 -176zM446 133q140 0 227 71.5t87 203.5v149q-36 -34 -230 -76q-141 -28 -201.5 -72t-60.5 -124
q0 -152 178 -152z" />
    <glyph glyph-name="acircumflex" unicode="&#xe2;" horiz-adv-x="1087" 
d="M446 1202h-190l195 283h217l194 -283h-192l-109 182h-4zM401 -29q-156 0 -249 82.5t-93 216.5q0 68 21.5 121.5t57 89.5t93.5 64t119 45t146 33q52 10 78 15.5t62.5 15t54 19.5t36.5 24.5t26 34t7 44.5q0 139 -199 139q-133 0 -186.5 -44.5t-61.5 -151.5h-204
q8 162 120.5 260t339.5 98q84 0 151.5 -19t122 -59.5t84 -112t29.5 -169.5v-479q0 -60 11 -87.5t39 -27.5q12 0 24 2v-123q-52 -12 -102 -12q-78 0 -117.5 35t-48.5 122h-4q-110 -176 -357 -176zM446 133q140 0 227 71.5t87 203.5v149q-36 -34 -230 -76q-141 -28 -201.5 -72
t-60.5 -124q0 -152 178 -152z" />
    <glyph glyph-name="atilde" unicode="&#xe3;" horiz-adv-x="1087" 
d="M391 1214h-135q0 109 45 163.5t113 54.5q57 0 145 -38t113 -38q51 0 51 71h135q0 -111 -44.5 -164t-113.5 -53q-56 0 -144 38t-112 38q-53 0 -53 -72zM401 -29q-156 0 -249 82.5t-93 216.5q0 68 21.5 121.5t57 89.5t93.5 64t119 45t146 33q52 10 78 15.5t62.5 15t54 19.5
t36.5 24.5t26 34t7 44.5q0 139 -199 139q-133 0 -186.5 -44.5t-61.5 -151.5h-204q8 162 120.5 260t339.5 98q84 0 151.5 -19t122 -59.5t84 -112t29.5 -169.5v-479q0 -60 11 -87.5t39 -27.5q12 0 24 2v-123q-52 -12 -102 -12q-78 0 -117.5 35t-48.5 122h-4
q-110 -176 -357 -176zM446 133q140 0 227 71.5t87 203.5v149q-36 -34 -230 -76q-141 -28 -201.5 -72t-60.5 -124q0 -152 178 -152z" />
    <glyph glyph-name="adieresis" unicode="&#xe4;" horiz-adv-x="1087" 
d="M502 1231h-228v217h228v-217zM846 1231h-228v217h228v-217zM401 -29q-156 0 -249 82.5t-93 216.5q0 68 21.5 121.5t57 89.5t93.5 64t119 45t146 33q52 10 78 15.5t62.5 15t54 19.5t36.5 24.5t26 34t7 44.5q0 139 -199 139q-133 0 -186.5 -44.5t-61.5 -151.5h-204
q8 162 120.5 260t339.5 98q84 0 151.5 -19t122 -59.5t84 -112t29.5 -169.5v-479q0 -60 11 -87.5t39 -27.5q12 0 24 2v-123q-52 -12 -102 -12q-78 0 -117.5 35t-48.5 122h-4q-110 -176 -357 -176zM446 133q140 0 227 71.5t87 203.5v149q-36 -34 -230 -76q-141 -28 -201.5 -72
t-60.5 -124q0 -152 178 -152z" />
    <glyph glyph-name="aring" unicode="&#xe5;" horiz-adv-x="1087" 
d="M557 1137q-81 0 -134.5 52t-53.5 136t53.5 136t134.5 52q84 0 137.5 -52t53.5 -136t-53.5 -136t-137.5 -52zM557 1227q43 0 69.5 27t26.5 71q0 43 -26.5 70.5t-69.5 27.5q-40 0 -66 -27.5t-26 -70.5q0 -44 26 -71t66 -27zM401 -29q-156 0 -249 82.5t-93 216.5
q0 68 21.5 121.5t57 89.5t93.5 64t119 45t146 33q52 10 78 15.5t62.5 15t54 19.5t36.5 24.5t26 34t7 44.5q0 139 -199 139q-133 0 -186.5 -44.5t-61.5 -151.5h-204q8 162 120.5 260t339.5 98q84 0 151.5 -19t122 -59.5t84 -112t29.5 -169.5v-479q0 -60 11 -87.5t39 -27.5
q12 0 24 2v-123q-52 -12 -102 -12q-78 0 -117.5 35t-48.5 122h-4q-110 -176 -357 -176zM446 133q140 0 227 71.5t87 203.5v149q-36 -34 -230 -76q-141 -28 -201.5 -72t-60.5 -124q0 -152 178 -152z" />
    <glyph glyph-name="ae" unicode="&#xe6;" horiz-adv-x="1824" 
d="M1767 545q0 -60 -2 -76h-802q2 -90 36 -164.5t106 -123t171 -48.5q65 0 117 19t83 50t48.5 60.5t25.5 59.5h205q-44 -160 -165.5 -256.5t-317.5 -96.5q-143 0 -250.5 56t-173.5 157q-73 -108 -187 -159.5t-247 -51.5q-165 0 -260 82t-95 217q0 68 21.5 121.5t57 89.5
t93.5 64t119 45t146 33q52 10 78 15.5t62.5 15t54 19.5t36.5 24.5t26 34t7 44.5q0 139 -199 139q-134 0 -187 -44t-61 -152h-204q4 78 31.5 142t80.5 113t139 76t199 27q245 0 342 -147q138 147 371 147q235 0 365 -143t130 -389zM963 627h596q0 125 -80.5 205.5
t-212.5 80.5q-126 0 -210 -78.5t-93 -207.5zM758 406v61q-2 18 -2 57v29q-34 -28 -226 -72q-141 -28 -201.5 -72t-60.5 -124q0 -152 176 -152q155 0 234.5 73.5t79.5 199.5z" />
    <glyph glyph-name="ccedilla" unicode="&#xe7;" horiz-adv-x="1087" 
d="M571 137q69 0 120.5 21.5t80.5 59.5t43.5 79t18.5 90h206q-9 -167 -120 -281t-287 -133l-70 -82v-4q48 6 92 -3.5t77.5 -43t33.5 -86.5q0 -54 -33 -91t-82.5 -53t-109.5 -16q-121 0 -222 64l48 57q75 -30 139 -30q49 0 74.5 19t25.5 52q0 62 -78 62q-44 0 -82 -15l-30 45
l102 123q-210 19 -335.5 169t-125.5 382q0 247 140.5 400t371.5 153q197 0 324.5 -114t146.5 -295h-206q-3 35 -12.5 67.5t-30 65t-49 56.5t-72.5 39t-99 15q-80 0 -141 -32t-95.5 -88t-51.5 -123t-17 -144t17 -143.5t51.5 -122t95 -87.5t141.5 -32z" />
    <glyph glyph-name="egrave" unicode="&#xe8;" horiz-adv-x="1128" 
d="M532 1489l105 -283h-158l-172 283h225zM1071 545q0 -60 -2 -76h-803q2 -90 36 -164.5t106.5 -123t171.5 -48.5q65 0 117 19t83 50t48.5 60.5t25.5 59.5h205q-44 -160 -166 -256.5t-318 -96.5q-162 0 -280 72.5t-177 197t-59 285.5q0 249 139.5 401t376.5 152
q235 0 365.5 -143t130.5 -389zM266 627h596q0 125 -80.5 205.5t-212.5 80.5q-126 0 -210 -78.5t-93 -207.5z" />
    <glyph glyph-name="eacute" unicode="&#xe9;" horiz-adv-x="1128" 
d="M590 1489h235l-196 -283h-160zM1071 545q0 -60 -2 -76h-803q2 -90 36 -164.5t106.5 -123t171.5 -48.5q65 0 117 19t83 50t48.5 60.5t25.5 59.5h205q-44 -160 -166 -256.5t-318 -96.5q-162 0 -280 72.5t-177 197t-59 285.5q0 249 139.5 401t376.5 152q235 0 365.5 -143
t130.5 -389zM266 627h596q0 125 -80.5 205.5t-212.5 80.5q-126 0 -210 -78.5t-93 -207.5z" />
    <glyph glyph-name="ecircumflex" unicode="&#xea;" horiz-adv-x="1128" 
d="M567 1389h-4l-110 -183h-191l195 283h217l194 -283h-192zM1071 545q0 -60 -2 -76h-803q2 -90 36 -164.5t106.5 -123t171.5 -48.5q65 0 117 19t83 50t48.5 60.5t25.5 59.5h205q-44 -160 -166 -256.5t-318 -96.5q-162 0 -280 72.5t-177 197t-59 285.5q0 249 139.5 401
t376.5 152q235 0 365.5 -143t130.5 -389zM266 627h596q0 125 -80.5 205.5t-212.5 80.5q-126 0 -210 -78.5t-93 -207.5z" />
    <glyph glyph-name="edieresis" unicode="&#xeb;" horiz-adv-x="1128" 
d="M279 1452h227v-217h-227v217zM623 1452h227v-217h-227v217zM1071 545q0 -60 -2 -76h-803q2 -90 36 -164.5t106.5 -123t171.5 -48.5q65 0 117 19t83 50t48.5 60.5t25.5 59.5h205q-44 -160 -166 -256.5t-318 -96.5q-162 0 -280 72.5t-177 197t-59 285.5q0 249 139.5 401
t376.5 152q235 0 365.5 -143t130.5 -389zM266 627h596q0 125 -80.5 205.5t-212.5 80.5q-126 0 -210 -78.5t-93 -207.5z" />
    <glyph glyph-name="igrave" unicode="&#xec;" horiz-adv-x="425" 
d="M285 1202h-158l-172 283h225zM313 0h-200v1044h200v-1044z" />
    <glyph glyph-name="iacute" unicode="&#xed;" horiz-adv-x="425" 
d="M276 1202h-159l121 283h235zM313 0h-200v1044h200v-1044z" />
    <glyph glyph-name="icircumflex" unicode="&#xee;" horiz-adv-x="425" 
d="M100 1202h-190l194 283h218l194 -283h-192l-109 182h-4zM313 0h-200v1044h200v-1044z" />
    <glyph glyph-name="idieresis" unicode="&#xef;" horiz-adv-x="425" 
d="M154 1231h-228v217h228v-217zM498 1231h-228v217h228v-217zM313 0h-200v1044h200v-1044z" />
    <glyph glyph-name="eth" unicode="&#xf0;" horiz-adv-x="1167" 
d="M1038 1317l-188 -51q250 -281 250 -650q0 -99 -17.5 -189.5t-58 -175.5t-100.5 -147t-151 -99.5t-204 -37.5q-242 0 -377 151.5t-135 407.5q0 126 40 231t108 174t157.5 106.5t190.5 37.5q93 0 175 -44t134 -118q-50 158 -196 304l-320 -84l-29 120l238 64
q-90 73 -213 147h266q59 -30 137 -96l263 70zM569 137q148 0 237 112t89 277t-89 275t-237 110t-229.5 -109t-81.5 -276q0 -109 34 -195.5t106 -140t171 -53.5z" />
    <glyph glyph-name="ntilde" unicode="&#xf1;" horiz-adv-x="1114" 
d="M459 1286q-53 0 -53 -72h-136q0 109 45 163.5t113 54.5q57 0 145 -38t113 -38q51 0 51 71h135q0 -111 -44 -164t-113 -53q-56 0 -144 38t-112 38zM662 1075q153 0 250.5 -89t97.5 -261v-725h-201v670q0 110 -51.5 171.5t-161.5 61.5q-129 0 -206 -71.5t-77 -190.5v-641
h-200v1044h200v-131h4q48 69 134.5 115.5t210.5 46.5z" />
    <glyph glyph-name="ograve" unicode="&#xf2;" horiz-adv-x="1159" 
d="M653 1206h-157l-172 283h225zM580 -31q-242 0 -382.5 152t-140.5 401q0 248 141 401.5t384 153.5q240 0 380 -152.5t140 -400.5q0 -249 -140.5 -402t-381.5 -153zM582 135q153 0 232 107.5t79 279.5q0 173 -79 280t-232 107q-156 0 -236 -107t-80 -280q0 -172 80 -279.5
t236 -107.5z" />
    <glyph glyph-name="oacute" unicode="&#xf3;" horiz-adv-x="1159" 
d="M643 1206h-160l121 283h236zM580 -31q-242 0 -382.5 152t-140.5 401q0 248 141 401.5t384 153.5q240 0 380 -152.5t140 -400.5q0 -249 -140.5 -402t-381.5 -153zM582 135q153 0 232 107.5t79 279.5q0 173 -79 280t-232 107q-156 0 -236 -107t-80 -280q0 -172 80 -279.5
t236 -107.5z" />
    <glyph glyph-name="ocircumflex" unicode="&#xf4;" horiz-adv-x="1159" 
d="M469 1206h-190l194 283h217l195 -283h-193l-108 183h-4zM580 -31q-242 0 -382.5 152t-140.5 401q0 248 141 401.5t384 153.5q240 0 380 -152.5t140 -400.5q0 -249 -140.5 -402t-381.5 -153zM582 135q153 0 232 107.5t79 279.5q0 173 -79 280t-232 107q-156 0 -236 -107
t-80 -280q0 -172 80 -279.5t236 -107.5z" />
    <glyph glyph-name="otilde" unicode="&#xf5;" horiz-adv-x="1159" 
d="M412 1219h-136q0 109 45 163t113 54q57 0 145 -38t113 -38q51 0 51 72h136q0 -111 -44.5 -164.5t-113.5 -53.5q-56 0 -144 38t-112 38q-53 0 -53 -71zM580 -31q-242 0 -382.5 152t-140.5 401q0 248 141 401.5t384 153.5q240 0 380 -152.5t140 -400.5q0 -249 -140.5 -402
t-381.5 -153zM582 135q153 0 232 107.5t79 279.5q0 173 -79 280t-232 107q-156 0 -236 -107t-80 -280q0 -172 80 -279.5t236 -107.5z" />
    <glyph glyph-name="odieresis" unicode="&#xf6;" horiz-adv-x="1159" 
d="M522 1235h-227v217h227v-217zM866 1235h-227v217h227v-217zM580 -31q-242 0 -382.5 152t-140.5 401q0 248 141 401.5t384 153.5q240 0 380 -152.5t140 -400.5q0 -249 -140.5 -402t-381.5 -153zM582 135q153 0 232 107.5t79 279.5q0 173 -79 280t-232 107
q-156 0 -236 -107t-80 -280q0 -172 80 -279.5t236 -107.5z" />
    <glyph glyph-name="divide" unicode="&#xf7;" horiz-adv-x="1140" 
d="M682 915h-223v222h223v-222zM1042 575h-944v189h944v-189zM682 203h-223v221h223v-221z" />
    <glyph glyph-name="oslash" unicode="&#xf8;" horiz-adv-x="1177" 
d="M1057 1067l73 -76l-116 -119q98 -143 98 -348q0 -249 -140.5 -402t-381.5 -153q-217 0 -354 125l-117 -117l-72 76l119 119q-98 146 -98 350q0 248 141 401.5t383 153.5q216 0 350 -125zM276 522q0 -113 35 -203l498 500q-81 90 -219 90q-155 0 -234.5 -107t-79.5 -280z
M903 522q0 118 -37 205l-497 -500q82 -92 221 -92q153 0 233 107.5t80 279.5z" />
    <glyph glyph-name="ugrave" unicode="&#xf9;" horiz-adv-x="1114" 
d="M504 1485l104 -283h-157l-172 283h225zM801 403v641h200v-1044h-200v131h-4q-47 -69 -133 -114.5t-211 -45.5q-153 0 -251 89.5t-98 261.5v722h201v-667q0 -111 51.5 -173.5t161.5 -62.5q129 0 206 71.5t77 190.5z" />
    <glyph glyph-name="uacute" unicode="&#xfa;" horiz-adv-x="1114" 
d="M561 1485h236l-197 -283h-160zM801 403v641h200v-1044h-200v131h-4q-47 -69 -133 -114.5t-211 -45.5q-153 0 -251 89.5t-98 261.5v722h201v-667q0 -111 51.5 -173.5t161.5 -62.5q129 0 206 71.5t77 190.5z" />
    <glyph glyph-name="ucircumflex" unicode="&#xfb;" horiz-adv-x="1114" 
d="M539 1384h-4l-111 -182h-191l195 283h217l195 -283h-193zM801 403v641h200v-1044h-200v131h-4q-47 -69 -133 -114.5t-211 -45.5q-153 0 -251 89.5t-98 261.5v722h201v-667q0 -111 51.5 -173.5t161.5 -62.5q129 0 206 71.5t77 190.5z" />
    <glyph glyph-name="udieresis" unicode="&#xfc;" horiz-adv-x="1114" 
d="M250 1448h227v-217h-227v217zM594 1448h227v-217h-227v217zM801 403v641h200v-1044h-200v131h-4q-47 -69 -133 -114.5t-211 -45.5q-153 0 -251 89.5t-98 261.5v722h201v-667q0 -111 51.5 -173.5t161.5 -62.5q129 0 206 71.5t77 190.5z" />
    <glyph glyph-name="yacute" unicode="&#xfd;" horiz-adv-x="1034" 
d="M575 1202h-159l121 283h235zM248 -367q-50 0 -129 15v164q61 -7 86 -7q71 0 129 46.5t86 158.5l-422 1034h219l305 -798h4l287 798h211l-414 -1069q-74 -190 -156 -266t-206 -76z" />
    <glyph glyph-name="thorn" unicode="&#xfe;" horiz-adv-x="1167" 
d="M639 1075q204 0 336.5 -150t132.5 -403t-132.5 -402t-336.5 -149q-215 0 -322 158h-4v-491h-200v1826h200v-542h4q118 153 322 153zM606 137q95 0 162 54.5t98 139.5t31 191t-31 191t-98 139.5t-162 54.5q-135 0 -213 -103t-78 -282q0 -177 78 -281t213 -104z" />
    <glyph glyph-name="ydieresis" unicode="&#xff;" horiz-adv-x="1034" 
d="M453 1231h-228v217h228v-217zM797 1231h-228v217h228v-217zM248 -367q-50 0 -129 15v164q61 -7 86 -7q71 0 129 46.5t86 158.5l-422 1034h219l305 -798h4l287 798h211l-414 -1069q-74 -190 -156 -266t-206 -76z" />
    <glyph glyph-name="Amacron" unicode="&#x100;" horiz-adv-x="1351" 
d="M944 1651h-541v157h541v-157zM246 0h-238l545 1464h244l549 -1464h-246l-121 352h-612zM672 1255l-238 -712h481l-239 712h-4z" />
    <glyph glyph-name="amacron" unicode="&#x101;" horiz-adv-x="1087" 
d="M829 1231h-540v158h540v-158zM401 -29q-156 0 -249 82.5t-93 216.5q0 68 21.5 121.5t57 89.5t93.5 64t119 45t146 33q52 10 78 15.5t62.5 15t54 19.5t36.5 24.5t26 34t7 44.5q0 139 -199 139q-133 0 -186.5 -44.5t-61.5 -151.5h-204q8 162 120.5 260t339.5 98
q84 0 151.5 -19t122 -59.5t84 -112t29.5 -169.5v-479q0 -60 11 -87.5t39 -27.5q12 0 24 2v-123q-52 -12 -102 -12q-78 0 -117.5 35t-48.5 122h-4q-110 -176 -357 -176zM446 133q140 0 227 71.5t87 203.5v149q-36 -34 -230 -76q-141 -28 -201.5 -72t-60.5 -124
q0 -152 178 -152z" />
    <glyph glyph-name="Abreve" unicode="&#x102;" horiz-adv-x="1351" 
d="M676 1602q-121 0 -197 72.5t-80 209.5h138q4 -73 38.5 -107t100.5 -34t99.5 34t37.5 107h137q-6 -134 -80 -208t-194 -74zM246 0h-238l545 1464h244l549 -1464h-246l-121 352h-612zM672 1255l-238 -712h481l-239 712h-4z" />
    <glyph glyph-name="abreve" unicode="&#x103;" horiz-adv-x="1087" 
d="M561 1182q-121 0 -196.5 72.5t-79.5 209.5h137q4 -73 38 -107t101 -34q66 0 99.5 34t37.5 107h138q-6 -134 -80 -208t-195 -74zM401 -29q-156 0 -249 82.5t-93 216.5q0 68 21.5 121.5t57 89.5t93.5 64t119 45t146 33q52 10 78 15.5t62.5 15t54 19.5t36.5 24.5t26 34
t7 44.5q0 139 -199 139q-133 0 -186.5 -44.5t-61.5 -151.5h-204q8 162 120.5 260t339.5 98q84 0 151.5 -19t122 -59.5t84 -112t29.5 -169.5v-479q0 -60 11 -87.5t39 -27.5q12 0 24 2v-123q-52 -12 -102 -12q-78 0 -117.5 35t-48.5 122h-4q-110 -176 -357 -176zM446 133
q140 0 227 71.5t87 203.5v149q-36 -34 -230 -76q-141 -28 -201.5 -72t-60.5 -124q0 -152 178 -152z" />
    <glyph glyph-name="Aogonek" unicode="&#x104;" horiz-adv-x="1351" 
d="M1163 -164q0 -28 21 -43.5t53 -15.5q44 0 96 18v-137q-68 -20 -141 -20q-95 0 -146 41.5t-51 113.5q0 66 46 121.5t108 85.5h-49l-121 352h-612l-121 -352h-238l545 1464h244l549 -1464h-56q-127 -100 -127 -164zM672 1255l-238 -712h481l-239 712h-4z" />
    <glyph glyph-name="aogonek" unicode="&#x105;" horiz-adv-x="1087" 
d="M977 -221q44 0 96 18v-137q-68 -20 -141 -20q-95 0 -146 41.5t-51 113.5q0 63 40.5 115.5t98.5 83.5q-51 11 -78 46.5t-34 106.5h-4q-110 -176 -357 -176q-156 0 -249 82.5t-93 216.5q0 68 21.5 121.5t57 89.5t93.5 64t119 45t146 33q52 10 78 15.5t62.5 15t54 19.5
t36.5 24.5t26 34t7 44.5q0 139 -199 139q-133 0 -186.5 -44.5t-61.5 -151.5h-204q8 162 120.5 260t339.5 98q84 0 151.5 -19t122 -59.5t84 -112t29.5 -169.5v-479q0 -60 11 -87.5t39 -27.5q12 0 24 2v-123q-127 -100 -127 -164q0 -28 21 -43.5t53 -15.5zM760 408v149
q-36 -34 -230 -76q-141 -28 -201.5 -72t-60.5 -124q0 -152 178 -152q140 0 227 71.5t87 203.5z" />
    <glyph glyph-name="Cacute" unicode="&#x106;" horiz-adv-x="1445" 
d="M823 1622h-159l120 283h236zM758 -29q-204 0 -360.5 98t-240 270.5t-83.5 391.5q0 220 84 393t241 271t361 98q134 0 247.5 -41t192 -112.5t127.5 -166.5t62 -206h-236q-9 48 -24.5 90t-46.5 88t-72.5 78.5t-107 53.5t-146.5 21q-117 0 -205.5 -46.5t-140 -127.5
t-76.5 -179t-25 -212q0 -91 15 -172t49.5 -154t85 -126t127 -84t170.5 -31q82 0 148.5 21t110 56t74 83.5t45.5 99t19 106.5h236q-12 -122 -61 -225t-128 -177.5t-192.5 -116.5t-249.5 -42z" />
    <glyph glyph-name="cacute" unicode="&#x107;" horiz-adv-x="1087" 
d="M633 1202h-160l121 283h235zM571 -31q-232 0 -373 153t-141 400t140.5 400t371.5 153q197 0 324.5 -114t146.5 -295h-206q-3 35 -12.5 67.5t-30 65t-49 56.5t-72.5 39t-99 15q-80 0 -141 -32t-95.5 -88t-51.5 -123t-17 -144t17 -143.5t51.5 -122t95 -87.5t141.5 -32
q69 0 120.5 21.5t80.5 59.5t43.5 79t18.5 90h206q-11 -182 -140.5 -300t-328.5 -118z" />
    <glyph glyph-name="Ccircumflex" unicode="&#x108;" horiz-adv-x="1445" 
d="M647 1622h-190l194 283h217l195 -283h-193l-108 182h-4zM758 -29q-204 0 -360.5 98t-240 270.5t-83.5 391.5q0 220 84 393t241 271t361 98q134 0 247.5 -41t192 -112.5t127.5 -166.5t62 -206h-236q-9 48 -24.5 90t-46.5 88t-72.5 78.5t-107 53.5t-146.5 21
q-117 0 -205.5 -46.5t-140 -127.5t-76.5 -179t-25 -212q0 -91 15 -172t49.5 -154t85 -126t127 -84t170.5 -31q82 0 148.5 21t110 56t74 83.5t45.5 99t19 106.5h236q-12 -122 -61 -225t-128 -177.5t-192.5 -116.5t-249.5 -42z" />
    <glyph glyph-name="ccircumflex" unicode="&#x109;" horiz-adv-x="1087" 
d="M457 1202h-191l195 283h217l194 -283h-192l-109 182h-4zM571 -31q-232 0 -373 153t-141 400t140.5 400t371.5 153q197 0 324.5 -114t146.5 -295h-206q-3 35 -12.5 67.5t-30 65t-49 56.5t-72.5 39t-99 15q-80 0 -141 -32t-95.5 -88t-51.5 -123t-17 -144t17 -143.5
t51.5 -122t95 -87.5t141.5 -32q69 0 120.5 21.5t80.5 59.5t43.5 79t18.5 90h206q-11 -182 -140.5 -300t-328.5 -118z" />
    <glyph glyph-name="Cdotaccent" unicode="&#x10a;" horiz-adv-x="1445" 
d="M874 1651h-227v217h227v-217zM758 -29q-204 0 -360.5 98t-240 270.5t-83.5 391.5q0 220 84 393t241 271t361 98q134 0 247.5 -41t192 -112.5t127.5 -166.5t62 -206h-236q-9 48 -24.5 90t-46.5 88t-72.5 78.5t-107 53.5t-146.5 21q-117 0 -205.5 -46.5t-140 -127.5
t-76.5 -179t-25 -212q0 -91 15 -172t49.5 -154t85 -126t127 -84t170.5 -31q82 0 148.5 21t110 56t74 83.5t45.5 99t19 106.5h236q-12 -122 -61 -225t-128 -177.5t-192.5 -116.5t-249.5 -42z" />
    <glyph glyph-name="cdotaccent" unicode="&#x10b;" horiz-adv-x="1087" 
d="M684 1231h-227v217h227v-217zM571 -31q-232 0 -373 153t-141 400t140.5 400t371.5 153q197 0 324.5 -114t146.5 -295h-206q-3 35 -12.5 67.5t-30 65t-49 56.5t-72.5 39t-99 15q-80 0 -141 -32t-95.5 -88t-51.5 -123t-17 -144t17 -143.5t51.5 -122t95 -87.5t141.5 -32
q69 0 120.5 21.5t80.5 59.5t43.5 79t18.5 90h206q-11 -182 -140.5 -300t-328.5 -118z" />
    <glyph glyph-name="Ccaron" unicode="&#x10c;" horiz-adv-x="1445" 
d="M868 1622h-217l-194 283h190l111 -183h4l108 183h193zM758 -29q-204 0 -360.5 98t-240 270.5t-83.5 391.5q0 220 84 393t241 271t361 98q134 0 247.5 -41t192 -112.5t127.5 -166.5t62 -206h-236q-9 48 -24.5 90t-46.5 88t-72.5 78.5t-107 53.5t-146.5 21
q-117 0 -205.5 -46.5t-140 -127.5t-76.5 -179t-25 -212q0 -91 15 -172t49.5 -154t85 -126t127 -84t170.5 -31q82 0 148.5 21t110 56t74 83.5t45.5 99t19 106.5h236q-12 -122 -61 -225t-128 -177.5t-192.5 -116.5t-249.5 -42z" />
    <glyph glyph-name="ccaron" unicode="&#x10d;" horiz-adv-x="1087" 
d="M678 1202h-217l-195 283h191l110 -182h4l109 182h192zM571 -31q-232 0 -373 153t-141 400t140.5 400t371.5 153q197 0 324.5 -114t146.5 -295h-206q-3 35 -12.5 67.5t-30 65t-49 56.5t-72.5 39t-99 15q-80 0 -141 -32t-95.5 -88t-51.5 -123t-17 -144t17 -143.5t51.5 -122
t95 -87.5t141.5 -32q69 0 120.5 21.5t80.5 59.5t43.5 79t18.5 90h206q-11 -182 -140.5 -300t-328.5 -118z" />
    <glyph glyph-name="Dcaron" unicode="&#x10e;" horiz-adv-x="1431" 
d="M694 1622h-217l-194 283h190l111 -183h4l108 183h193zM707 0h-562v1464h557q307 0 479.5 -191t172.5 -542t-170 -541t-477 -190zM371 195h321q428 0 428 536q0 539 -428 539h-321v-1075z" />
    <glyph glyph-name="dcaron" unicode="&#x10f;" horiz-adv-x="1226" 
d="M850 918h4v546h201v-1464h-201v123h-4q-117 -152 -322 -152q-204 0 -336.5 149t-132.5 402t132.5 403t336.5 150q213 0 322 -157zM1135 1065l47 399h227l-125 -399h-149zM561 137q135 0 213 104t78 281q0 179 -78 282t-213 103q-95 0 -162.5 -54.5t-99 -139.5t-31.5 -191
t31.5 -191t99 -139.5t162.5 -54.5z" />
    <glyph glyph-name="Dcroat" unicode="&#x110;" horiz-adv-x="1482" 
d="M195 1464h557q307 0 479 -191t172 -542t-170 -541t-477 -190h-561v682h-170v152h170v630zM420 195h321q428 0 428 536q0 539 -428 539h-321v-436h395v-152h-395v-487z" />
    <glyph glyph-name="dcroat" unicode="&#x111;" horiz-adv-x="1167" 
d="M1055 1333h141v-137h-141v-1196h-201v123h-4q-117 -152 -322 -152q-204 0 -336.5 149t-132.5 402t132.5 403t336.5 150q213 0 322 -157h4v278h-293v137h293v131h201v-131zM561 137q135 0 213 104t78 281q0 179 -78 282t-213 103q-95 0 -162.5 -54.5t-99 -139.5
t-31.5 -191t31.5 -191t99 -139.5t162.5 -54.5z" />
    <glyph glyph-name="Emacron" unicode="&#x112;" horiz-adv-x="1267" 
d="M936 1651h-541v157h541v-157zM1202 0h-1057v1464h1037v-194h-811v-416h710v-195h-710v-464h831v-195z" />
    <glyph glyph-name="emacron" unicode="&#x113;" horiz-adv-x="1128" 
d="M295 1393h541v-158h-541v158zM1071 545q0 -60 -2 -76h-803q2 -90 36 -164.5t106.5 -123t171.5 -48.5q65 0 117 19t83 50t48.5 60.5t25.5 59.5h205q-44 -160 -166 -256.5t-318 -96.5q-162 0 -280 72.5t-177 197t-59 285.5q0 249 139.5 401t376.5 152q235 0 365.5 -143
t130.5 -389zM266 627h596q0 125 -80.5 205.5t-212.5 80.5q-126 0 -210 -78.5t-93 -207.5z" />
    <glyph glyph-name="Edotaccent" unicode="&#x116;" horiz-adv-x="1267" 
d="M780 1651h-227v217h227v-217zM1202 0h-1057v1464h1037v-194h-811v-416h710v-195h-710v-464h831v-195z" />
    <glyph glyph-name="edotaccent" unicode="&#x117;" horiz-adv-x="1128" 
d="M453 1452h227v-217h-227v217zM1071 545q0 -60 -2 -76h-803q2 -90 36 -164.5t106.5 -123t171.5 -48.5q65 0 117 19t83 50t48.5 60.5t25.5 59.5h205q-44 -160 -166 -256.5t-318 -96.5q-162 0 -280 72.5t-177 197t-59 285.5q0 249 139.5 401t376.5 152q235 0 365.5 -143
t130.5 -389zM266 627h596q0 125 -80.5 205.5t-212.5 80.5q-126 0 -210 -78.5t-93 -207.5z" />
    <glyph glyph-name="Eogonek" unicode="&#x118;" horiz-adv-x="1267" 
d="M1122 -223q45 0 97 18v-137q-68 -20 -142 -20q-95 0 -145.5 41.5t-50.5 113.5q0 67 45.5 122t107.5 85h-889v1464h1037v-194h-811v-416h710v-195h-710v-464h831v-195h-26q-127 -100 -127 -164q0 -28 20.5 -43.5t52.5 -15.5z" />
    <glyph glyph-name="eogonek" unicode="&#x119;" horiz-adv-x="1128" 
d="M1071 545q0 -60 -2 -76h-803q2 -90 36 -164.5t106.5 -123t171.5 -48.5q65 0 117 19t83 50t48.5 60.5t25.5 59.5h205q-34 -124 -116 -212t-210 -122q-112 -89 -112 -152q0 -28 20.5 -43.5t52.5 -15.5q45 0 97 18v-137q-68 -20 -142 -20q-95 0 -145.5 41.5t-50.5 113.5
q0 97 102 176q-156 5 -269.5 78.5t-170 196t-56.5 280.5q0 249 139.5 401t376.5 152q235 0 365.5 -143t130.5 -389zM266 627h596q0 125 -80.5 205.5t-212.5 80.5q-126 0 -210 -78.5t-93 -207.5z" />
    <glyph glyph-name="Ecaron" unicode="&#x11a;" horiz-adv-x="1267" 
d="M776 1622h-217l-194 283h190l111 -183h4l108 183h193zM1202 0h-1057v1464h1037v-194h-811v-416h710v-195h-710v-464h831v-195z" />
    <glyph glyph-name="ecaron" unicode="&#x11b;" horiz-adv-x="1128" 
d="M868 1489l-194 -283h-217l-195 283h191l110 -182h4l109 182h192zM1071 545q0 -60 -2 -76h-803q2 -90 36 -164.5t106.5 -123t171.5 -48.5q65 0 117 19t83 50t48.5 60.5t25.5 59.5h205q-44 -160 -166 -256.5t-318 -96.5q-162 0 -280 72.5t-177 197t-59 285.5
q0 249 139.5 401t376.5 152q235 0 365.5 -143t130.5 -389zM266 627h596q0 125 -80.5 205.5t-212.5 80.5q-126 0 -210 -78.5t-93 -207.5z" />
    <glyph glyph-name="Gcircumflex" unicode="&#x11c;" horiz-adv-x="1509" 
d="M641 1622h-190l194 283h217l195 -283h-193l-108 182h-4zM735 -29q-155 0 -280.5 57t-208 158.5t-126.5 241t-44 305.5q0 219 83.5 391.5t240.5 270.5t362 98q273 0 431.5 -130.5t195.5 -350.5h-236q-29 139 -130 212.5t-263 73.5q-117 0 -206 -49t-140.5 -131.5t-77 -180
t-25.5 -204.5q0 -88 12 -165.5t43.5 -153t79.5 -129t125.5 -86.5t176.5 -33q120 0 219 51.5t157.5 146.5t59.5 214h-432v188h661v-766h-156l-55 203h-4q-79 -116 -189.5 -174t-273.5 -58z" />
    <glyph glyph-name="gcircumflex" unicode="&#x11d;" horiz-adv-x="1161" 
d="M555 1384h-4l-111 -182h-190l194 283h218l194 -283h-192zM850 922v122h201v-962q0 -230 -129 -343.5t-361 -113.5q-215 0 -334 91.5t-135 240.5h209q36 -168 260 -168q145 0 217 68t72 213v141h-4q-107 -158 -322 -158q-203 0 -332 134t-129 376q0 123 35.5 221t98 161.5
t146 96.5t181.5 33q204 0 322 -153h4zM561 219q137 0 212 88t75 256q0 169 -75 256.5t-212 87.5q-142 0 -215.5 -94.5t-73.5 -249.5t73.5 -249.5t215.5 -94.5z" />
    <glyph glyph-name="Gbreve" unicode="&#x11e;" horiz-adv-x="1509" 
d="M756 1602q-121 0 -197 72.5t-80 209.5h137q4 -73 38.5 -107t101.5 -34q66 0 99.5 34t37.5 107h137q-6 -134 -80 -208t-194 -74zM735 -29q-155 0 -280.5 57t-208 158.5t-126.5 241t-44 305.5q0 219 83.5 391.5t240.5 270.5t362 98q273 0 431.5 -130.5t195.5 -350.5h-236
q-29 139 -130 212.5t-263 73.5q-117 0 -206 -49t-140.5 -131.5t-77 -180t-25.5 -204.5q0 -88 12 -165.5t43.5 -153t79.5 -129t125.5 -86.5t176.5 -33q120 0 219 51.5t157.5 146.5t59.5 214h-432v188h661v-766h-156l-55 203h-4q-79 -116 -189.5 -174t-273.5 -58z" />
    <glyph glyph-name="gbreve" unicode="&#x11f;" horiz-adv-x="1161" 
d="M553 1182q-121 0 -197 72.5t-80 209.5h138q4 -73 38 -107t101 -34q66 0 99.5 34t37.5 107h137q-6 -134 -79.5 -208t-194.5 -74zM850 922v122h201v-962q0 -230 -129 -343.5t-361 -113.5q-215 0 -334 91.5t-135 240.5h209q36 -168 260 -168q145 0 217 68t72 213v141h-4
q-107 -158 -322 -158q-203 0 -332 134t-129 376q0 123 35.5 221t98 161.5t146 96.5t181.5 33q204 0 322 -153h4zM561 219q137 0 212 88t75 256q0 169 -75 256.5t-212 87.5q-142 0 -215.5 -94.5t-73.5 -249.5t73.5 -249.5t215.5 -94.5z" />
    <glyph glyph-name="Gdotaccent" unicode="&#x120;" horiz-adv-x="1509" 
d="M868 1651h-227v217h227v-217zM735 -29q-155 0 -280.5 57t-208 158.5t-126.5 241t-44 305.5q0 219 83.5 391.5t240.5 270.5t362 98q273 0 431.5 -130.5t195.5 -350.5h-236q-29 139 -130 212.5t-263 73.5q-117 0 -206 -49t-140.5 -131.5t-77 -180t-25.5 -204.5
q0 -88 12 -165.5t43.5 -153t79.5 -129t125.5 -86.5t176.5 -33q120 0 219 51.5t157.5 146.5t59.5 214h-432v188h661v-766h-156l-55 203h-4q-79 -116 -189.5 -174t-273.5 -58z" />
    <glyph glyph-name="gdotaccent" unicode="&#x121;" horiz-adv-x="1161" 
d="M440 1448h228v-217h-228v217zM850 922v122h201v-962q0 -230 -129 -343.5t-361 -113.5q-215 0 -334 91.5t-135 240.5h209q36 -168 260 -168q145 0 217 68t72 213v141h-4q-107 -158 -322 -158q-203 0 -332 134t-129 376q0 123 35.5 221t98 161.5t146 96.5t181.5 33
q204 0 322 -153h4zM561 219q137 0 212 88t75 256q0 169 -75 256.5t-212 87.5q-142 0 -215.5 -94.5t-73.5 -249.5t73.5 -249.5t215.5 -94.5z" />
    <glyph glyph-name="uni0122" unicode="&#x122;" horiz-adv-x="1509" 
d="M752 578v188h661v-766h-156l-55 203h-4q-79 -116 -189.5 -174t-273.5 -58q-155 0 -280.5 57t-208 158.5t-126.5 241t-44 305.5q0 219 83.5 391.5t240.5 270.5t362 98q273 0 431.5 -130.5t195.5 -350.5h-236q-29 139 -130 212.5t-263 73.5q-117 0 -206 -49t-140.5 -131.5
t-77 -180t-25.5 -204.5q0 -88 12 -165.5t43.5 -153t79.5 -129t125.5 -86.5t176.5 -33q120 0 219 51.5t157.5 146.5t59.5 214h-432zM768 -270h-106v170h223v-170q0 -169 -223 -217v86q57 14 81.5 42.5t24.5 88.5z" />
    <glyph glyph-name="uni0123" unicode="&#x123;" horiz-adv-x="1161" 
d="M565 1389h107v-187h-223v187q0 187 223 237v-96q-59 -14 -83.5 -44.5t-23.5 -96.5zM850 922v122h201v-962q0 -230 -129 -343.5t-361 -113.5q-215 0 -334 91.5t-135 240.5h209q36 -168 260 -168q145 0 217 68t72 213v141h-4q-107 -158 -322 -158q-203 0 -332 134t-129 376
q0 123 35.5 221t98 161.5t146 96.5t181.5 33q204 0 322 -153h4zM561 219q137 0 212 88t75 256q0 169 -75 256.5t-212 87.5q-142 0 -215.5 -94.5t-73.5 -249.5t73.5 -249.5t215.5 -94.5z" />
    <glyph glyph-name="Hcircumflex" unicode="&#x124;" horiz-adv-x="1460" 
d="M618 1622h-190l195 283h217l194 -283h-192l-109 182h-4zM371 0h-226v1464h226v-612h719v612h227v-1464h-227v657h-719v-657z" />
    <glyph glyph-name="hcircumflex" unicode="&#x125;" horiz-adv-x="1114" 
d="M324 1534l-109 182h-4l-111 -182h-190l194 283h218l194 -283h-192zM662 1075q153 0 250.5 -89t97.5 -261v-725h-201v670q0 110 -51.5 171.5t-161.5 61.5q-129 0 -206 -71.5t-77 -190.5v-641h-200v1464h200v-551h4q48 69 134.5 115.5t210.5 46.5z" />
    <glyph glyph-name="Hbar" unicode="&#x126;" horiz-adv-x="1515" 
d="M1356 1245h119v-153h-119v-1092h-228v657h-716v-657h-228v1092h-151v153h151v219h228v-219h716v219h228v-219zM412 852h716v240h-716v-240z" />
    <glyph glyph-name="hbar" unicode="&#x127;" horiz-adv-x="1114" 
d="M662 1075q153 0 250.5 -89t97.5 -261v-725h-201v670q0 110 -51.5 171.5t-161.5 61.5q-129 0 -206 -71.5t-77 -190.5v-641h-200v1196h-123v137h123v131h200v-131h322v-137h-322v-283h4q48 69 134.5 115.5t210.5 46.5z" />
    <glyph glyph-name="Itilde" unicode="&#x128;" horiz-adv-x="516" 
d="M88 1634h-135q0 109 45 163t113 54q57 0 145 -37.5t113 -37.5q51 0 51 71h135q0 -111 -44.5 -164t-113.5 -53q-56 0 -144 38t-112 38q-53 0 -53 -72zM371 0h-226v1464h226v-1464z" />
    <glyph glyph-name="itilde" unicode="&#x129;" horiz-adv-x="425" 
d="M43 1214h-135q0 109 45 163.5t113 54.5q57 0 145 -38t113 -38q51 0 51 71h135q0 -111 -44.5 -164t-113.5 -53q-56 0 -144 38t-112 38q-53 0 -53 -72zM313 0h-200v1044h200v-1044z" />
    <glyph glyph-name="Imacron" unicode="&#x12a;" horiz-adv-x="516" 
d="M528 1651h-540v157h540v-157zM371 0h-226v1464h226v-1464z" />
    <glyph glyph-name="imacron" unicode="&#x12b;" horiz-adv-x="425" 
d="M483 1231h-540v158h540v-158zM313 0h-200v1044h200v-1044z" />
    <glyph glyph-name="Iogonek" unicode="&#x12e;" horiz-adv-x="516" 
d="M291 -223q44 0 96 18v-137q-68 -20 -141 -20q-95 0 -146 41.5t-51 113.5q0 66 46 121.5t108 85.5h-58v1464h226v-1464h-27q-127 -100 -127 -164q0 -28 21 -43.5t53 -15.5z" />
    <glyph glyph-name="iogonek" unicode="&#x12f;" horiz-adv-x="425" 
d="M100 1448h228v-217h-228v217zM233 -223q45 0 97 18v-137q-68 -20 -142 -20q-95 0 -145.5 41.5t-50.5 113.5q0 67 45.5 122t107.5 85h-32v1044h200v-1044h-26q-127 -100 -127 -164q0 -28 20.5 -43.5t52.5 -15.5z" />
    <glyph glyph-name="Idotaccent" unicode="&#x130;" horiz-adv-x="516" 
d="M375 1651h-234v217h234v-217zM371 0h-226v1464h226v-1464z" />
    <glyph glyph-name="dotlessi" unicode="&#x131;" horiz-adv-x="425" 
d="M313 0h-200v1044h200v-1044z" />
    <glyph glyph-name="Jcircumflex" unicode="&#x134;" horiz-adv-x="1060" 
d="M698 1622h-190l194 283h218l194 -283h-192l-109 182h-4zM479 -29q-101 0 -178.5 27t-126.5 72t-80.5 109t-44 131.5t-12.5 146.5v59h217v-59q0 -56 4.5 -95.5t18 -79t37 -63.5t64.5 -38.5t97 -14.5q69 0 114.5 21t68.5 62.5t31.5 90t8.5 117.5v1007h226v-1007
q0 -78 -12.5 -146t-44.5 -132t-81.5 -109t-127.5 -72t-179 -27z" />
    <glyph glyph-name="jcircumflex" unicode="&#x135;" horiz-adv-x="425" 
d="M100 1202h-190l194 283h218l194 -283h-192l-109 182h-4zM63 -371q-41 0 -124 13v165q49 -6 79 -6q49 0 72 33.5t23 118.5v1091h200v-1099q0 -161 -67 -238.5t-183 -77.5z" />
    <glyph glyph-name="uni0136" unicode="&#x136;" horiz-adv-x="1333" 
d="M1317 1464l-574 -610l621 -854h-264l-496 705l-233 -248v-457h-226v1464h226v-741l694 741h252zM711 -270h-107v170h223v-170q0 -169 -223 -217v86q57 14 82 42.5t25 88.5z" />
    <glyph glyph-name="uni0137" unicode="&#x137;" horiz-adv-x="1013" 
d="M1001 1044l-401 -382l444 -662h-237l-342 535l-152 -146v-389h-200v1464h200v-862l457 442h231zM559 -270h-106v170h223v-170q0 -169 -223 -217v86q57 14 81.5 42.5t24.5 88.5z" />
    <glyph glyph-name="kgreenlandic" unicode="&#x138;" horiz-adv-x="1024" 
d="M1044 0h-237l-332 518l-162 -151v-367h-200v1044h200v-460l484 460h235l-422 -397z" />
    <glyph glyph-name="Lacute" unicode="&#x139;" horiz-adv-x="1142" 
d="M324 1622h-160l121 283h235zM1112 0h-967v1464h226v-1269h741v-195z" />
    <glyph glyph-name="lacute" unicode="&#x13a;" horiz-adv-x="425" 
d="M276 1534h-159l121 283h235zM313 0h-200v1464h200v-1464z" />
    <glyph glyph-name="uni013B" unicode="&#x13b;" horiz-adv-x="1142" 
d="M371 1464v-1269h741v-195h-967v1464h226zM625 -270h-107v170h223v-170q0 -169 -223 -217v86q57 14 82 42.5t25 88.5z" />
    <glyph glyph-name="uni013C" unicode="&#x13c;" horiz-adv-x="425" 
d="M113 1464h200v-1464h-200v1464zM102 -270v170h224v-170q0 -169 -224 -217v86q57 14 82 42.5t25 88.5h-107z" />
    <glyph glyph-name="Lcaron" unicode="&#x13d;" horiz-adv-x="1142" 
d="M1112 0h-967v1464h226v-1269h741v-195zM752 1065h-150l47 399h230z" />
    <glyph glyph-name="lcaron" unicode="&#x13e;" horiz-adv-x="485" 
d="M526 1069h-149l47 399h229zM313 0h-200v1464h200v-1464z" />
    <glyph glyph-name="Lslash" unicode="&#x141;" horiz-adv-x="1220" 
d="M449 668v-473h741v-195h-969v502l-164 -121v178l164 121v784h228v-618l327 239v-176z" />
    <glyph glyph-name="lslash" unicode="&#x142;" horiz-adv-x="583" 
d="M393 942l146 105v-177l-146 -104v-766h-200v621l-146 -105v176l146 105v667h200v-522z" />
    <glyph glyph-name="Nacute" unicode="&#x143;" horiz-adv-x="1460" 
d="M795 1622h-160l121 283h235zM371 0h-226v1464h258l680 -1126h4v1126h228v-1464h-258l-682 1126h-4v-1126z" />
    <glyph glyph-name="nacute" unicode="&#x144;" horiz-adv-x="1114" 
d="M600 1485h236l-197 -283h-160zM662 1075q153 0 250.5 -89t97.5 -261v-725h-201v670q0 110 -51.5 171.5t-161.5 61.5q-129 0 -206 -71.5t-77 -190.5v-641h-200v1044h200v-131h4q48 69 134.5 115.5t210.5 46.5z" />
    <glyph glyph-name="uni0145" unicode="&#x145;" horiz-adv-x="1460" 
d="M1087 338v1126h228v-1464h-258l-682 1126h-4v-1126h-226v1464h258l680 -1126h4zM727 -270h-106v170h223v-170q0 -169 -223 -217v86q57 14 81.5 42.5t24.5 88.5z" />
    <glyph glyph-name="uni0146" unicode="&#x146;" horiz-adv-x="1114" 
d="M662 1075q153 0 250.5 -89t97.5 -261v-725h-201v670q0 110 -51.5 171.5t-161.5 61.5q-129 0 -206 -71.5t-77 -190.5v-641h-200v1044h200v-131h4q48 69 134.5 115.5t210.5 46.5zM557 -270h-106v170h223v-170q0 -169 -223 -217v86q57 14 81.5 42.5t24.5 88.5z" />
    <glyph glyph-name="Ncaron" unicode="&#x147;" horiz-adv-x="1460" 
d="M840 1622h-217l-195 283h190l111 -183h4l109 183h192zM371 0h-226v1464h258l680 -1126h4v1126h228v-1464h-258l-682 1126h-4v-1126z" />
    <glyph glyph-name="ncaron" unicode="&#x148;" horiz-adv-x="1114" 
d="M879 1485l-195 -283h-217l-195 283h191l110 -182h5l108 182h193zM662 1075q153 0 250.5 -89t97.5 -261v-725h-201v670q0 110 -51.5 171.5t-161.5 61.5q-129 0 -206 -71.5t-77 -190.5v-641h-200v1044h200v-131h4q48 69 134.5 115.5t210.5 46.5z" />
    <glyph glyph-name="Eng" unicode="&#x14a;" horiz-adv-x="1460" 
d="M942 -365q-80 0 -135 15v166q128 -11 195 24t73 129l-700 1157h-4v-1126h-226v1464h258l680 -1130h4v1130h228v-1441q0 -195 -98.5 -291.5t-274.5 -96.5z" />
    <glyph glyph-name="eng" unicode="&#x14b;" horiz-adv-x="1114" 
d="M662 1075q153 0 250.5 -89t97.5 -261v-786q0 -156 -66 -222.5t-194 -66.5q-82 0 -142 14v166q112 -6 156.5 18t44.5 109v713q0 110 -51.5 171.5t-161.5 61.5q-129 0 -206 -71.5t-77 -190.5v-641h-200v1044h200v-131h4q48 69 134.5 115.5t210.5 46.5z" />
    <glyph glyph-name="Omacron" unicode="&#x14c;" horiz-adv-x="1585" 
d="M1063 1651h-541v157h541v-157zM793 -29q-215 0 -379.5 98.5t-252 271.5t-87.5 392t87.5 391.5t252 270.5t379.5 98t379 -98t251.5 -270.5t87.5 -391.5q0 -164 -51 -304.5t-143 -241.5t-227.5 -158.5t-296.5 -57.5zM793 166q101 0 183 30t137 82.5t92.5 125t54 154.5
t16.5 175q0 117 -27.5 216t-83.5 178.5t-151.5 125t-220.5 45.5t-220.5 -45.5t-152 -125t-84 -178.5t-27.5 -216q0 -93 17 -175t54 -154.5t92.5 -125t137.5 -82.5t183 -30z" />
    <glyph glyph-name="omacron" unicode="&#x14d;" horiz-adv-x="1159" 
d="M850 1235h-541v158h541v-158zM580 -31q-242 0 -382.5 152t-140.5 401q0 248 141 401.5t384 153.5q240 0 380 -152.5t140 -400.5q0 -249 -140.5 -402t-381.5 -153zM582 135q153 0 232 107.5t79 279.5q0 173 -79 280t-232 107q-156 0 -236 -107t-80 -280q0 -172 80 -279.5
t236 -107.5z" />
    <glyph glyph-name="Ohungarumlaut" unicode="&#x150;" horiz-adv-x="1585" 
d="M705 1622h-156l125 283h223zM1012 1622h-156l133 283h223zM793 -29q-215 0 -379.5 98.5t-252 271.5t-87.5 392t87.5 391.5t252 270.5t379.5 98t379 -98t251.5 -270.5t87.5 -391.5q0 -164 -51 -304.5t-143 -241.5t-227.5 -158.5t-296.5 -57.5zM793 166q101 0 183 30
t137 82.5t92.5 125t54 154.5t16.5 175q0 117 -27.5 216t-83.5 178.5t-151.5 125t-220.5 45.5t-220.5 -45.5t-152 -125t-84 -178.5t-27.5 -216q0 -93 17 -175t54 -154.5t92.5 -125t137.5 -82.5t183 -30z" />
    <glyph glyph-name="ohungarumlaut" unicode="&#x151;" horiz-adv-x="1159" 
d="M494 1206h-156l125 283h223zM801 1206h-156l133 283h223zM580 -31q-242 0 -382.5 152t-140.5 401q0 248 141 401.5t384 153.5q240 0 380 -152.5t140 -400.5q0 -249 -140.5 -402t-381.5 -153zM582 135q153 0 232 107.5t79 279.5q0 173 -79 280t-232 107q-156 0 -236 -107
t-80 -280q0 -172 80 -279.5t236 -107.5z" />
    <glyph glyph-name="OE" unicode="&#x152;" horiz-adv-x="2279" 
d="M1382 659v-464h832v-195h-1057v270q-143 -299 -471 -299q-177 0 -316.5 98.5t-216.5 272t-77 391.5t77 391t216.5 271t316.5 98q161 0 281 -75.5t190 -221.5v268h1034v-194h-809v-416h711v-195h-711zM731 166q86 0 159.5 35.5t130 104.5t88.5 178.5t32 248.5t-32 248.5
t-88.5 177.5t-130 103.5t-159.5 35.5q-91 0 -163.5 -30t-120 -81.5t-78.5 -124.5t-44.5 -154t-13.5 -175t13.5 -175t44.5 -154.5t78.5 -125t120 -82t163.5 -30.5z" />
    <glyph glyph-name="oe" unicode="&#x153;" horiz-adv-x="1964" 
d="M1907 545q0 -60 -2 -76h-803q2 -90 36 -164.5t105.5 -123t169.5 -48.5q66 0 118 19t83.5 50t49 60.5t26.5 59.5h202q-42 -160 -163.5 -256.5t-317.5 -96.5q-137 0 -242.5 51.5t-171.5 145.5q-69 -94 -175 -145.5t-242 -51.5q-242 0 -382.5 152t-140.5 401
q0 248 141 400.5t384 152.5q136 0 242 -50.5t173 -143.5q67 94 173 145t241 51q234 0 365 -143t131 -389zM1102 627h594q0 125 -79.5 205.5t-211.5 80.5q-126 0 -210 -78.5t-93 -207.5zM582 137q153 0 232 106.5t79 278.5q0 173 -79 280t-232 107q-156 0 -236 -107t-80 -280
q0 -172 80 -278.5t236 -106.5z" />
    <glyph glyph-name="Racute" unicode="&#x154;" horiz-adv-x="1343" 
d="M711 1622h-160l121 283h235zM371 0h-226v1464h611q242 0 369.5 -109.5t127.5 -312.5q0 -137 -75.5 -233.5t-198.5 -124.5v-4q80 -15 134 -69.5t76 -125.5t34.5 -152t14 -149t10 -116t26.5 -54v-14h-242q-13 12 -17.5 51t-5.5 89.5t-3.5 110t-16.5 116t-39.5 103t-77 75
t-124.5 28.5h-377v-573zM371 768h336q155 0 237 66t82 192q0 122 -75 183t-240 61h-340v-502z" />
    <glyph glyph-name="racute" unicode="&#x155;" horiz-adv-x="712" 
d="M428 1485h236l-197 -283h-160zM598 1069q50 0 96 -6v-193q-44 7 -67 7q-137 0 -225.5 -93.5t-88.5 -242.5v-541h-200v1044h200v-198h4q94 223 281 223z" />
    <glyph glyph-name="uni0156" unicode="&#x156;" horiz-adv-x="1343" 
d="M979 684v-4q80 -15 134 -69.5t76 -125.5t34.5 -152t14 -149t10 -116t26.5 -54v-14h-242q-13 12 -17.5 51t-5.5 89.5t-3.5 110t-16.5 116t-39.5 103t-77 75t-124.5 28.5h-377v-573h-226v1464h611q242 0 369.5 -109.5t127.5 -312.5q0 -137 -75.5 -233.5t-198.5 -124.5z
M371 768h336q155 0 237 66t82 192q0 122 -75 183t-240 61h-340v-502zM688 -270h-106v170h223v-170q0 -169 -223 -217v86q57 14 81.5 42.5t24.5 88.5z" />
    <glyph glyph-name="uni0157" unicode="&#x157;" horiz-adv-x="712" 
d="M598 1069q50 0 96 -6v-193q-44 7 -67 7q-137 0 -225.5 -93.5t-88.5 -242.5v-541h-200v1044h200v-198h4q94 223 281 223zM209 -270h-107v170h224v-170q0 -169 -224 -217v86q57 14 82 42.5t25 88.5z" />
    <glyph glyph-name="Rcaron" unicode="&#x158;" horiz-adv-x="1343" 
d="M756 1622h-217l-195 283h191l110 -183h4l109 183h192zM371 0h-226v1464h611q242 0 369.5 -109.5t127.5 -312.5q0 -137 -75.5 -233.5t-198.5 -124.5v-4q80 -15 134 -69.5t76 -125.5t34.5 -152t14 -149t10 -116t26.5 -54v-14h-242q-13 12 -17.5 51t-5.5 89.5t-3.5 110
t-16.5 116t-39.5 103t-77 75t-124.5 28.5h-377v-573zM371 768h336q155 0 237 66t82 192q0 122 -75 183t-240 61h-340v-502z" />
    <glyph glyph-name="rcaron" unicode="&#x159;" horiz-adv-x="712" 
d="M707 1485l-195 -283h-217l-195 283h191l110 -182h5l108 182h193zM313 846h4q94 223 281 223q50 0 96 -6v-193q-44 7 -67 7q-137 0 -225.5 -93.5t-88.5 -242.5v-541h-200v1044h200v-198z" />
    <glyph glyph-name="Sacute" unicode="&#x15a;" horiz-adv-x="1294" 
d="M696 1622h-159l120 283h236zM696 -29q-282 0 -458.5 139.5t-188.5 383.5h234q13 -156 111.5 -243t295.5 -87q307 0 307 235q0 52 -16.5 90.5t-43.5 64t-77 46.5t-102 35.5t-133 35.5q-24 6 -37 9q-62 16 -100 27.5t-94.5 32.5t-92 41t-76.5 52t-64.5 68t-39 85.5
t-15.5 107.5q0 189 137 294t375 105q252 0 404.5 -122.5t169.5 -342.5h-234q-19 136 -100 204t-237 68q-138 0 -208.5 -49.5t-70.5 -144.5q0 -26 6 -49t14 -41t25.5 -34.5t31.5 -28t41 -23.5t45 -19.5t53 -17.5t54.5 -15t59.5 -15l12 -3q216 -55 305 -95q174 -78 223 -217
q21 -61 21 -136q0 -198 -136 -319.5t-401 -121.5z" />
    <glyph glyph-name="sacute" unicode="&#x15b;" horiz-adv-x="999" 
d="M561 1202h-160l121 283h236zM524 -29q-229 0 -352.5 105t-128.5 272h203q7 -99 72.5 -157t203.5 -58q121 0 172 44t51 110q0 19 -4.5 36t-10.5 29.5t-19 24t-23.5 19.5t-29.5 16t-32 13t-36.5 10.5t-37.5 8.5t-41 8.5t-40 8.5q-50 12 -80 19.5t-76.5 23t-75 30.5t-62 39
t-52.5 51.5t-32 66t-13 83.5q0 137 105.5 219t291.5 82q204 0 315.5 -94.5t122.5 -239.5h-202q-6 34 -18.5 61t-37 54t-69.5 42t-107 15q-98 0 -145 -35t-47 -96q0 -20 6 -36.5t14 -28.5t25.5 -22.5t30.5 -16.5t40.5 -13.5t44 -11t51 -11t52.5 -11.5q51 -12 84 -20.5
t79.5 -24.5t76.5 -32t63.5 -41.5t52.5 -55t32 -70.5t13 -90q0 -153 -113 -239.5t-317 -86.5z" />
    <glyph glyph-name="Scircumflex" unicode="&#x15c;" horiz-adv-x="1294" 
d="M520 1622h-190l194 283h217l195 -283h-193l-108 182h-4zM696 -29q-282 0 -458.5 139.5t-188.5 383.5h234q13 -156 111.5 -243t295.5 -87q307 0 307 235q0 52 -16.5 90.5t-43.5 64t-77 46.5t-102 35.5t-133 35.5q-24 6 -37 9q-62 16 -100 27.5t-94.5 32.5t-92 41t-76.5 52
t-64.5 68t-39 85.5t-15.5 107.5q0 189 137 294t375 105q252 0 404.5 -122.5t169.5 -342.5h-234q-19 136 -100 204t-237 68q-138 0 -208.5 -49.5t-70.5 -144.5q0 -26 6 -49t14 -41t25.5 -34.5t31.5 -28t41 -23.5t45 -19.5t53 -17.5t54.5 -15t59.5 -15l12 -3q216 -55 305 -95
q174 -78 223 -217q21 -61 21 -136q0 -198 -136 -319.5t-401 -121.5z" />
    <glyph glyph-name="scircumflex" unicode="&#x15d;" horiz-adv-x="999" 
d="M387 1202h-190l194 283h217l195 -283h-193l-108 182h-4zM524 -29q-229 0 -352.5 105t-128.5 272h203q7 -99 72.5 -157t203.5 -58q121 0 172 44t51 110q0 19 -4.5 36t-10.5 29.5t-19 24t-23.5 19.5t-29.5 16t-32 13t-36.5 10.5t-37.5 8.5t-41 8.5t-40 8.5q-50 12 -80 19.5
t-76.5 23t-75 30.5t-62 39t-52.5 51.5t-32 66t-13 83.5q0 137 105.5 219t291.5 82q204 0 315.5 -94.5t122.5 -239.5h-202q-6 34 -18.5 61t-37 54t-69.5 42t-107 15q-98 0 -145 -35t-47 -96q0 -20 6 -36.5t14 -28.5t25.5 -22.5t30.5 -16.5t40.5 -13.5t44 -11t51 -11
t52.5 -11.5q51 -12 84 -20.5t79.5 -24.5t76.5 -32t63.5 -41.5t52.5 -55t32 -70.5t13 -90q0 -153 -113 -239.5t-317 -86.5z" />
    <glyph glyph-name="Scedilla" unicode="&#x15e;" horiz-adv-x="1294" 
d="M762 -27l-70 -82v-4q48 6 92 -3.5t77.5 -43t33.5 -86.5q0 -54 -33 -91t-82.5 -53t-109.5 -16q-120 0 -221 64l47 57q75 -30 139 -30q49 0 74.5 19t25.5 52q0 62 -78 62q-45 0 -82 -15l-30 45l104 125q-263 11 -425.5 149t-174.5 372h234q13 -156 111.5 -243t295.5 -87
q307 0 307 235q0 52 -16.5 90.5t-43.5 64t-77 46.5t-102 35.5t-133 35.5q-24 6 -37 9q-62 16 -100 27.5t-94.5 32.5t-92 41t-76.5 52t-64.5 68t-39 85.5t-15.5 107.5q0 189 137 294t375 105q252 0 404.5 -122.5t169.5 -342.5h-234q-19 136 -100 204t-237 68
q-138 0 -208.5 -49.5t-70.5 -144.5q0 -26 6 -49t14 -41t25.5 -34.5t31.5 -28t41 -23.5t45 -19.5t53 -17.5t54.5 -15t59.5 -15l12 -3q216 -55 305 -95q174 -78 223 -217q21 -61 21 -136q0 -90 -29 -165.5t-85.5 -134.5t-147.5 -95.5t-209 -43.5z" />
    <glyph glyph-name="scedilla" unicode="&#x15f;" horiz-adv-x="999" 
d="M551 -29l-68 -80v-4q48 6 92 -3.5t77.5 -43t33.5 -86.5q0 -54 -33 -91t-82.5 -53t-109.5 -16q-120 0 -221 64l47 57q75 -30 139 -30q49 0 74.5 19t25.5 52q0 62 -77 62q-45 0 -82 -15l-31 45l106 127q-190 20 -292 120.5t-107 252.5h203q7 -99 72.5 -157t203.5 -58
q121 0 172 44t51 110q0 19 -4.5 36t-10.5 29.5t-19 24t-23.5 19.5t-29.5 16t-32 13t-36.5 10.5t-37.5 8.5t-41 8.5t-40 8.5q-50 12 -80 19.5t-76.5 23t-75 30.5t-62 39t-52.5 51.5t-32 66t-13 83.5q0 137 105.5 219t291.5 82q204 0 315.5 -94.5t122.5 -239.5h-202
q-6 34 -18.5 61t-37 54t-69.5 42t-107 15q-98 0 -145 -35t-47 -96q0 -20 6 -36.5t14 -28.5t25.5 -22.5t30.5 -16.5t40.5 -13.5t44 -11t51 -11t52.5 -11.5q51 -12 84 -20.5t79.5 -24.5t76.5 -32t63.5 -41.5t52.5 -55t32 -70.5t13 -90q0 -148 -105 -234t-298 -92z" />
    <glyph glyph-name="Scaron" unicode="&#x160;" horiz-adv-x="1294" 
d="M741 1622h-217l-194 283h190l111 -183h4l108 183h193zM696 -29q-282 0 -458.5 139.5t-188.5 383.5h234q13 -156 111.5 -243t295.5 -87q307 0 307 235q0 52 -16.5 90.5t-43.5 64t-77 46.5t-102 35.5t-133 35.5q-24 6 -37 9q-62 16 -100 27.5t-94.5 32.5t-92 41t-76.5 52
t-64.5 68t-39 85.5t-15.5 107.5q0 189 137 294t375 105q252 0 404.5 -122.5t169.5 -342.5h-234q-19 136 -100 204t-237 68q-138 0 -208.5 -49.5t-70.5 -144.5q0 -26 6 -49t14 -41t25.5 -34.5t31.5 -28t41 -23.5t45 -19.5t53 -17.5t54.5 -15t59.5 -15l12 -3q216 -55 305 -95
q174 -78 223 -217q21 -61 21 -136q0 -198 -136 -319.5t-401 -121.5z" />
    <glyph glyph-name="scaron" unicode="&#x161;" horiz-adv-x="999" 
d="M608 1202h-217l-194 283h190l111 -182h4l108 182h193zM524 -29q-229 0 -352.5 105t-128.5 272h203q7 -99 72.5 -157t203.5 -58q121 0 172 44t51 110q0 19 -4.5 36t-10.5 29.5t-19 24t-23.5 19.5t-29.5 16t-32 13t-36.5 10.5t-37.5 8.5t-41 8.5t-40 8.5q-50 12 -80 19.5
t-76.5 23t-75 30.5t-62 39t-52.5 51.5t-32 66t-13 83.5q0 137 105.5 219t291.5 82q204 0 315.5 -94.5t122.5 -239.5h-202q-6 34 -18.5 61t-37 54t-69.5 42t-107 15q-98 0 -145 -35t-47 -96q0 -20 6 -36.5t14 -28.5t25.5 -22.5t30.5 -16.5t40.5 -13.5t44 -11t51 -11
t52.5 -11.5q51 -12 84 -20.5t79.5 -24.5t76.5 -32t63.5 -41.5t52.5 -55t32 -70.5t13 -90q0 -153 -113 -239.5t-317 -86.5z" />
    <glyph glyph-name="uni0162" unicode="&#x162;" horiz-adv-x="1234" 
d="M731 0h-45l-92 -109v-4q48 6 92 -3.5t77.5 -43t33.5 -86.5q0 -79 -65.5 -119.5t-160.5 -40.5q-120 0 -221 64l47 57q75 -30 140 -30q49 0 74.5 19t25.5 52q0 62 -78 62q-45 0 -82 -15l-31 45l127 152h-69v1270h-473v194h1173v-194h-473v-1270z" />
    <glyph glyph-name="uni0163" unicode="&#x163;" horiz-adv-x="636" 
d="M397 -82v-4q48 6 92 -3.5t77.5 -43t33.5 -86.5q0 -54 -33 -91t-82.5 -53t-109.5 -16q-120 0 -221 64l47 57q77 -31 139 -31q48 0 74 19.5t26 52.5q0 61 -78 61q-46 0 -81 -14l-31 45l102 123q-85 21 -128.5 91t-43.5 206v584h-151v165h151v336h201v-336h201v-165h-201
v-590q0 -81 25 -108t92 -27q39 0 86 8v-162q-61 -12 -127 -12z" />
    <glyph glyph-name="Tcaron" unicode="&#x164;" horiz-adv-x="1234" 
d="M725 1622h-217l-195 283h191l110 -183h4l109 183h193zM731 0h-227v1270h-473v194h1173v-194h-473v-1270z" />
    <glyph glyph-name="tcaron" unicode="&#x165;" horiz-adv-x="636" 
d="M465 1143l47 321h215l-121 -321h-141zM381 879v-590q0 -81 25 -108t92 -27q39 0 86 8v-162q-61 -12 -127 -12q-139 0 -208 67.5t-69 239.5v584h-151v165h151v336h201v-336h201v-165h-201z" />
    <glyph glyph-name="Tbar" unicode="&#x166;" horiz-adv-x="1234" 
d="M1204 1464v-194h-473v-436h340v-152h-340v-682h-227v682h-287v152h287v436h-473v194h1173z" />
    <glyph glyph-name="tbar" unicode="&#x167;" horiz-adv-x="649" 
d="M504 154q39 0 86 8v-162q-61 -12 -127 -12q-139 0 -208 67.5t-69 239.5v252h-151v153h151v179h-151v165h151v336h203v-336h199v-165h-199v-179h199v-153h-199v-258q0 -81 24.5 -108t90.5 -27z" />
    <glyph glyph-name="Utilde" unicode="&#x168;" horiz-adv-x="1415" 
d="M537 1634h-136q0 109 45 163t113 54q57 0 145 -37.5t113 -37.5q51 0 51 71h136q0 -111 -44.5 -164t-113.5 -53q-56 0 -144 38t-112 38q-53 0 -53 -72zM707 -29q-290 0 -431 140t-141 387v966h225v-966q0 -169 86.5 -250.5t260.5 -81.5q175 0 260.5 81t85.5 251v966h227
v-966q0 -247 -141 -387t-432 -140z" />
    <glyph glyph-name="utilde" unicode="&#x169;" horiz-adv-x="1114" 
d="M420 1286q-53 0 -53 -72h-136q0 109 45 163.5t113 54.5q57 0 145 -38t113 -38q51 0 51 71h136q0 -111 -44.5 -164t-113.5 -53q-56 0 -144 38t-112 38zM801 403v641h200v-1044h-200v131h-4q-47 -69 -133 -114.5t-211 -45.5q-153 0 -251 89.5t-98 261.5v722h201v-667
q0 -111 51.5 -173.5t161.5 -62.5q129 0 206 71.5t77 190.5z" />
    <glyph glyph-name="Umacron" unicode="&#x16a;" horiz-adv-x="1415" 
d="M977 1651h-541v157h541v-157zM707 -29q-290 0 -431 140t-141 387v966h225v-966q0 -169 86.5 -250.5t260.5 -81.5q175 0 260.5 81t85.5 251v966h227v-966q0 -247 -141 -387t-432 -140z" />
    <glyph glyph-name="umacron" unicode="&#x16b;" horiz-adv-x="1114" 
d="M266 1389h541v-158h-541v158zM801 403v641h200v-1044h-200v131h-4q-47 -69 -133 -114.5t-211 -45.5q-153 0 -251 89.5t-98 261.5v722h201v-667q0 -111 51.5 -173.5t161.5 -62.5q129 0 206 71.5t77 190.5z" />
    <glyph glyph-name="Ubreve" unicode="&#x16c;" horiz-adv-x="1415" 
d="M709 1602q-121 0 -197 72.5t-80 209.5h137q4 -73 38.5 -107t101.5 -34q66 0 99.5 34t37.5 107h137q-6 -134 -79.5 -208t-194.5 -74zM707 -29q-290 0 -431 140t-141 387v966h225v-966q0 -169 86.5 -250.5t260.5 -81.5q175 0 260.5 81t85.5 251v966h227v-966
q0 -247 -141 -387t-432 -140z" />
    <glyph glyph-name="ubreve" unicode="&#x16d;" horiz-adv-x="1114" 
d="M539 1182q-121 0 -197 72.5t-80 209.5h137q4 -73 38.5 -107t101.5 -34q66 0 99.5 34t37.5 107h137q-6 -134 -79.5 -208t-194.5 -74zM801 403v641h200v-1044h-200v131h-4q-47 -69 -133 -114.5t-211 -45.5q-153 0 -251 89.5t-98 261.5v722h201v-667q0 -111 51.5 -173.5
t161.5 -62.5q129 0 206 71.5t77 190.5z" />
    <glyph glyph-name="Uring" unicode="&#x16e;" horiz-adv-x="1415" 
d="M705 1556q-81 0 -135 52.5t-54 136.5q0 83 54 135.5t135 52.5q84 0 137 -52t53 -136t-53 -136.5t-137 -52.5zM705 1647q43 0 69.5 27t26.5 71q0 43 -26.5 70.5t-69.5 27.5q-40 0 -66.5 -27.5t-26.5 -70.5q0 -44 26.5 -71t66.5 -27zM707 -29q-290 0 -431 140t-141 387v966
h225v-966q0 -169 86.5 -250.5t260.5 -81.5q175 0 260.5 81t85.5 251v966h227v-966q0 -247 -141 -387t-432 -140z" />
    <glyph glyph-name="uring" unicode="&#x16f;" horiz-adv-x="1114" 
d="M535 1137q-81 0 -135 52.5t-54 135.5t54 135.5t135 52.5q84 0 137 -52t53 -136t-53 -136t-137 -52zM535 1423q-40 0 -66.5 -27.5t-26.5 -70.5q0 -44 26.5 -71t66.5 -27q43 0 69.5 27t26.5 71q0 43 -26.5 70.5t-69.5 27.5zM801 403v641h200v-1044h-200v131h-4
q-47 -69 -133 -114.5t-211 -45.5q-153 0 -251 89.5t-98 261.5v722h201v-667q0 -111 51.5 -173.5t161.5 -62.5q129 0 206 71.5t77 190.5z" />
    <glyph glyph-name="Uhungarumlaut" unicode="&#x170;" horiz-adv-x="1415" 
d="M618 1622h-155l125 283h223zM926 1622h-156l133 283h223zM707 -29q-290 0 -431 140t-141 387v966h225v-966q0 -169 86.5 -250.5t260.5 -81.5q175 0 260.5 81t85.5 251v966h227v-966q0 -247 -141 -387t-432 -140z" />
    <glyph glyph-name="uhungarumlaut" unicode="&#x171;" horiz-adv-x="1114" 
d="M418 1485h223l-192 -283h-156zM956 1485l-200 -283h-156l133 283h223zM801 403v641h200v-1044h-200v131h-4q-47 -69 -133 -114.5t-211 -45.5q-153 0 -251 89.5t-98 261.5v722h201v-667q0 -111 51.5 -173.5t161.5 -62.5q129 0 206 71.5t77 190.5z" />
    <glyph glyph-name="Uogonek" unicode="&#x172;" horiz-adv-x="1415" 
d="M1053 498v966h227v-966q0 -200 -93 -331.5t-284 -174.5q-117 -96 -117 -156q0 -28 21 -43.5t53 -15.5q44 0 96 18v-137q-68 -20 -141 -20q-95 0 -146 41.5t-51 113.5q0 101 107 178h-18q-290 0 -431 140t-141 387v966h225v-966q0 -169 86.5 -250.5t260.5 -81.5
q175 0 260.5 81t85.5 251z" />
    <glyph glyph-name="uogonek" unicode="&#x173;" horiz-adv-x="1114" 
d="M1001 0h-43q-127 -100 -127 -164q0 -28 21 -43.5t53 -15.5q44 0 96 18v-137q-68 -20 -141 -20q-95 0 -145.5 41.5t-50.5 113.5q0 67 45.5 122t107.5 85h-16v131h-4q-47 -69 -133 -114.5t-211 -45.5q-153 0 -251 89.5t-98 261.5v722h201v-667q0 -111 51.5 -173.5
t161.5 -62.5q129 0 206 71.5t77 190.5v641h200v-1044z" />
    <glyph glyph-name="Wcircumflex" unicode="&#x174;" horiz-adv-x="1898" 
d="M836 1622h-191l195 283h217l194 -283h-192l-109 182h-4zM637 0h-244l-364 1464h235l258 -1153h4l303 1153h238l305 -1153h4l258 1153h236l-367 -1464h-241l-312 1178h-4z" />
    <glyph glyph-name="wcircumflex" unicode="&#x175;" horiz-adv-x="1552" 
d="M666 1202h-191l195 283h217l194 -283h-192l-109 182h-4zM549 0h-207l-324 1044h218l221 -808h4l217 808h203l217 -808h4l223 808h209l-324 -1044h-206l-226 805h-4z" />
    <glyph glyph-name="Ycircumflex" unicode="&#x176;" horiz-adv-x="1304" 
d="M543 1622h-191l195 283h217l194 -283h-192l-109 182h-4zM766 0h-227v586l-525 878h244l393 -700h4l394 700h241l-524 -878v-586z" />
    <glyph glyph-name="ycircumflex" unicode="&#x177;" horiz-adv-x="1034" 
d="M399 1202h-190l194 283h218l194 -283h-192l-109 182h-4zM248 -367q-50 0 -129 15v164q61 -7 86 -7q71 0 129 46.5t86 158.5l-422 1034h219l305 -798h4l287 798h211l-414 -1069q-74 -190 -156 -266t-206 -76z" />
    <glyph glyph-name="Ydieresis" unicode="&#x178;" horiz-adv-x="1304" 
d="M596 1651h-227v217h227v-217zM940 1651h-227v217h227v-217zM766 0h-227v586l-525 878h244l393 -700h4l394 700h241l-524 -878v-586z" />
    <glyph glyph-name="Zacute" unicode="&#x179;" horiz-adv-x="1239" 
d="M682 1622h-160l121 283h236zM1184 0h-1139v195l842 1071v4h-801v194h1077v-194l-841 -1071v-4h862v-195z" />
    <glyph glyph-name="zacute" unicode="&#x17a;" horiz-adv-x="946" 
d="M535 1202h-160l121 283h235zM905 0h-866v150l571 724v5h-534v165h807v-129l-586 -745v-4h608v-166z" />
    <glyph glyph-name="Zdotaccent" unicode="&#x17b;" horiz-adv-x="1239" 
d="M733 1651h-227v217h227v-217zM1184 0h-1139v195l842 1071v4h-801v194h1077v-194l-841 -1071v-4h862v-195z" />
    <glyph glyph-name="zdotaccent" unicode="&#x17c;" horiz-adv-x="946" 
d="M586 1231h-228v217h228v-217zM905 0h-866v150l571 724v5h-534v165h807v-129l-586 -745v-4h608v-166z" />
    <glyph glyph-name="Zcaron" unicode="&#x17d;" horiz-adv-x="1239" 
d="M729 1622h-217l-195 283h191l110 -183h5l108 183h193zM1184 0h-1139v195l842 1071v4h-801v194h1077v-194l-841 -1071v-4h862v-195z" />
    <glyph glyph-name="zcaron" unicode="&#x17e;" horiz-adv-x="946" 
d="M580 1202h-218l-194 283h190l111 -182h4l109 182h192zM905 0h-866v150l571 724v5h-534v165h807v-129l-586 -745v-4h608v-166z" />
    <glyph glyph-name="florin" unicode="&#x192;" horiz-adv-x="978" 
d="M829 1311q-73 0 -100 -33t-45 -125l-41 -211h193l-7 -166h-221l-137 -696q-34 -173 -108 -240t-203 -67q-44 0 -121 14l-8 162q60 -8 94 -8q76 0 103.5 30t43.5 115l138 690h-158l6 166h184l45 229q34 173 114 240.5t216 67.5q38 0 131 -13l-39 -161q-58 6 -80 6z" />
    <glyph glyph-name="uni0218" unicode="&#x218;" horiz-adv-x="1294" 
d="M684 860q216 -55 305 -95q174 -78 223 -217q21 -61 21 -136q0 -198 -136 -319.5t-401 -121.5q-282 0 -458.5 139.5t-188.5 383.5h234q13 -156 111.5 -243t295.5 -87q307 0 307 235q0 52 -16.5 90.5t-43.5 64t-77 46.5t-102 35.5t-133 35.5q-24 6 -37 9q-62 16 -100 27.5
t-94.5 32.5t-92 41t-76.5 52t-64.5 68t-39 85.5t-15.5 107.5q0 189 137 294t375 105q252 0 404.5 -122.5t169.5 -342.5h-234q-19 136 -100 204t-237 68q-138 0 -208.5 -49.5t-70.5 -144.5q0 -26 6 -49t14 -41t25.5 -34.5t31.5 -28t41 -23.5t45 -19.5t53 -17.5t54.5 -15
t59.5 -15zM709 -270h-107v170h223v-170q0 -169 -223 -217v86q57 14 82 42.5t25 88.5z" />
    <glyph glyph-name="uni0219" unicode="&#x219;" horiz-adv-x="999" 
d="M553 631q51 -12 84 -20.5t79.5 -24.5t76.5 -32t63.5 -41.5t52.5 -55t32 -70.5t13 -90q0 -153 -113 -239.5t-317 -86.5q-229 0 -352.5 105t-128.5 272h203q7 -99 72.5 -157t203.5 -58q121 0 172 44t51 110q0 19 -4.5 36t-10.5 29.5t-19 24t-23.5 19.5t-29.5 16t-32 13
t-36.5 10.5t-37.5 8.5t-41 8.5t-40 8.5q-50 12 -80 19.5t-76.5 23t-75 30.5t-62 39t-52.5 51.5t-32 66t-13 83.5q0 137 105.5 219t291.5 82q204 0 315.5 -94.5t122.5 -239.5h-202q-6 34 -18.5 61t-37 54t-69.5 42t-107 15q-98 0 -145 -35t-47 -96q0 -20 6 -36.5t14 -28.5
t25.5 -22.5t30.5 -16.5t40.5 -13.5t44 -11t51 -11t52.5 -11.5zM502 -270h-107v170h223v-170q0 -169 -223 -217v86q57 14 82 42.5t25 88.5z" />
    <glyph glyph-name="uni021A" unicode="&#x21a;" horiz-adv-x="1234" 
d="M31 1270v194h1173v-194h-473v-1270h-227v1270h-473zM612 -270h-106v170h223v-170q0 -169 -223 -217v86q57 14 81.5 42.5t24.5 88.5z" />
    <glyph glyph-name="uni021B" unicode="&#x21b;" horiz-adv-x="636" 
d="M498 154q39 0 86 8v-162q-61 -12 -127 -12q-139 0 -208 67.5t-69 239.5v584h-151v165h151v336h201v-336h201v-165h-201v-590q0 -81 25 -108t92 -27zM416 -244h-107v170h223v-170q0 -169 -223 -217v86q57 14 82 42.5t25 88.5z" />
    <glyph glyph-name="uni0237" unicode="&#x237;" horiz-adv-x="425" 
d="M63 -371q-41 0 -124 13v165q49 -6 79 -6q49 0 72 33.5t23 118.5v1091h200v-1099q0 -161 -67 -238.5t-183 -77.5z" />
    <glyph glyph-name="circumflex" unicode="&#x2c6;" horiz-adv-x="770" 
d="M272 1202h-190l194 283h218l194 -283h-192l-109 182h-4z" />
    <glyph glyph-name="caron" unicode="&#x2c7;" horiz-adv-x="770" 
d="M494 1202h-218l-194 283h190l111 -182h4l109 182h192z" />
    <glyph glyph-name="breve" unicode="&#x2d8;" horiz-adv-x="714" 
d="M358 1182q-121 0 -196.5 72.5t-79.5 209.5h137q4 -73 38.5 -107t100.5 -34t100 34t38 107h137q-6 -134 -80 -208t-195 -74z" />
    <glyph glyph-name="dotaccent" unicode="&#x2d9;" horiz-adv-x="391" 
d="M307 1231h-225v219h225v-219z" />
    <glyph glyph-name="ring" unicode="&#x2da;" horiz-adv-x="536" 
d="M266 1110q-80 0 -134 53t-54 135q0 84 54 137.5t134 53.5q84 0 137.5 -53.5t53.5 -137.5q0 -83 -53.5 -135.5t-137.5 -52.5zM266 1202q43 0 69.5 26.5t26.5 69.5q0 44 -26.5 72.5t-69.5 28.5q-40 0 -66 -28.5t-26 -72.5q0 -42 26 -69t66 -27z" />
    <glyph glyph-name="ogonek" unicode="&#x2db;" horiz-adv-x="501" 
d="M279 -362q-95 0 -146 41.5t-51 113.5q0 66 46 121.5t108 85.5h141q-127 -100 -127 -164q0 -28 21 -43.5t53 -15.5q44 0 96 18v-137q-68 -20 -141 -20z" />
    <glyph glyph-name="tilde" unicode="&#x2dc;" horiz-adv-x="765" 
d="M217 1214h-135q0 109 45 163.5t113 54.5q57 0 145 -38t113 -38q51 0 51 71h135q0 -111 -44.5 -164t-113.5 -53q-56 0 -144 38t-112 38q-53 0 -53 -72z" />
    <glyph glyph-name="hungarumlaut" unicode="&#x2dd;" horiz-adv-x="813" 
d="M233 1202h-155l125 283h223zM541 1202h-156l133 283h223z" />
    <glyph glyph-name="gravecomb" unicode="&#x300;" 
d="M403 1202h-157l-172 283h225z" />
    <glyph glyph-name="acutecomb" unicode="&#x301;" 
d="M225 1202h-159l120 283h236z" />
    <glyph glyph-name="uni0302" unicode="&#x302;" 
d="M272 1202h-190l194 283h218l194 -283h-192l-109 182h-4z" />
    <glyph glyph-name="tildecomb" unicode="&#x303;" 
d="M217 1214h-135q0 109 45 163.5t113 54.5q57 0 145 -38t113 -38q51 0 51 71h135q0 -111 -44.5 -164t-113.5 -53q-56 0 -144 38t-112 38q-53 0 -53 -72z" />
    <glyph glyph-name="uni0304" unicode="&#x304;" 
d="M623 1231h-541v158h541v-158z" />
    <glyph glyph-name="uni0306" unicode="&#x306;" 
d="M358 1182q-121 0 -196.5 72.5t-79.5 209.5h137q4 -73 38.5 -107t100.5 -34t100 34t38 107h137q-6 -134 -80 -208t-195 -74z" />
    <glyph glyph-name="uni0307" unicode="&#x307;" 
d="M309 1231h-227v217h227v-217z" />
    <glyph glyph-name="uni0308" unicode="&#x308;" 
d="M313 1231h-227v217h227v-217zM657 1231h-227v217h227v-217z" />
    <glyph glyph-name="uni030A" unicode="&#x30a;" 
d="M266 1137q-81 0 -134.5 52t-53.5 136t53.5 136t134.5 52q84 0 137.5 -52t53.5 -136t-53.5 -136t-137.5 -52zM266 1227q43 0 69.5 27t26.5 71q0 43 -26.5 70.5t-69.5 27.5q-40 0 -66 -27.5t-26 -70.5q0 -44 26 -71t66 -27z" />
    <glyph glyph-name="uni030B" unicode="&#x30b;" 
d="M233 1202h-155l125 283h223zM541 1202h-156l133 283h223z" />
    <glyph glyph-name="uni030C" unicode="&#x30c;" 
d="M494 1202h-218l-194 283h190l111 -182h4l109 182h192z" />
    <glyph glyph-name="uni0312" unicode="&#x312;" 
d="M311 1626v-96q-59 -14 -83 -44.5t-23 -96.5h106v-187h-223v187q0 187 223 237z" />
    <glyph glyph-name="uni0326" unicode="&#x326;" 
d="M84 -270v170h223v-170q0 -169 -223 -217v86q57 14 81.5 42.5t24.5 88.5h-106z" />
    <glyph glyph-name="uni0327" unicode="&#x327;" 
d="M309 -406q-120 0 -221 64l47 57q75 -30 139 -30q49 0 75 19t26 52q0 62 -78 62q-45 0 -82 -15l-31 45l127 152h113l-92 -109v-4q48 6 92 -3.5t77.5 -43t33.5 -86.5q0 -79 -65.5 -119.5t-160.5 -40.5z" />
    <glyph glyph-name="uni0328" unicode="&#x328;" 
d="M279 -362q-95 0 -146 41.5t-51 113.5q0 66 46 121.5t108 85.5h141q-127 -100 -127 -164q0 -28 21 -43.5t53 -15.5q44 0 96 18v-137q-68 -20 -141 -20z" />
    <glyph glyph-name="uni0335" unicode="&#x335;" 
d="M936 682h-854v152h854v-152z" />
    <glyph glyph-name="uni0336" unicode="&#x336;" 
d="M1124 631h-1042v211h1042v-211z" />
    <glyph glyph-name="uni0337" unicode="&#x337;" 
d="M1167 993l-1011 -1013l-74 75l1010 1014z" />
    <glyph glyph-name="uni0338" unicode="&#x338;" 
d="M1167 993l-1011 -1013l-74 75l1010 1014z" />
    <glyph glyph-name="uni0394" unicode="&#x394;" horiz-adv-x="1325" 
d="M530 1464h261l491 -1271v-193h-1239v193zM670 1255h-17l-385 -1062h785z" />
    <glyph glyph-name="uni03A9" unicode="&#x3a9;" horiz-adv-x="1626" 
d="M678 0h-604v195h315q-129 91 -206 241t-77 342q0 202 87.5 364.5t249.5 256.5t370 94t369.5 -94t248.5 -256.5t87 -364.5q0 -192 -76 -342.5t-205 -240.5h315v-195h-606l2 170q77 43 134.5 92t106 117t74 160.5t25.5 205.5q0 257 -126.5 404t-348.5 147t-348.5 -147
t-126.5 -404q0 -113 25.5 -205.5t74 -160.5t106 -117t134.5 -92v-170z" />
    <glyph glyph-name="uni03BC" unicode="&#x3bc;" horiz-adv-x="1122" 
d="M809 403v641h201v-1044h-201v131h-4q-43 -68 -123 -113t-184 -45q-111 0 -185 56v-391h-200v1406h200v-667q0 -236 217 -236q125 0 202 72t77 190z" />
    <glyph glyph-name="pi" unicode="&#x3c0;" horiz-adv-x="1157" 
d="M1096 1044v-165h-156v-590q0 -82 19 -108.5t73 -26.5q29 0 60 8v-162q-56 -16 -127 -16q-121 0 -174.5 66.5t-53.5 238.5v590h-342v-879h-200v879h-166v165h1067z" />
    <glyph glyph-name="uni0400" unicode="&#x400;" horiz-adv-x="1267" 
d="M739 1622h-157l-172 283h225zM1202 0h-1057v1464h1037v-194h-811v-416h710v-195h-710v-464h831v-195z" />
    <glyph glyph-name="uni0401" unicode="&#x401;" horiz-adv-x="1267" 
d="M608 1651h-227v217h227v-217zM952 1651h-227v217h227v-217zM1202 0h-1057v1464h1037v-194h-811v-416h710v-195h-710v-464h831v-195z" />
    <glyph glyph-name="uni0402" unicode="&#x402;" horiz-adv-x="1501" 
d="M1128 -375q-95 0 -157 19v194q55 -18 116 -18q97 0 97 110v596q0 273 -254 273q-150 0 -236 -85t-86 -241v-473h-227v1270h-348v194h1024v-194h-449v-455h4q64 81 161 130.5t224 49.5q194 0 304 -111.5t110 -318.5v-657q0 -141 -77 -212t-206 -71z" />
    <glyph glyph-name="uni0403" unicode="&#x403;" horiz-adv-x="1019" 
d="M643 1622h-160l121 283h236zM371 0h-226v1464h844v-194h-618v-1270z" />
    <glyph glyph-name="uni0404" unicode="&#x404;" horiz-adv-x="1425" 
d="M754 166q160 0 265 85.5t114 225.5h233q-9 -224 -175 -365t-433 -141q-153 0 -278.5 51.5t-214.5 148.5t-138 242t-49 326q0 352 189.5 553t502.5 201q246 0 407 -128.5t189 -336.5h-233q-25 125 -118.5 197.5t-244.5 72.5q-188 0 -311 -123.5t-144 -345.5h535v-182h-535
q20 -231 135.5 -356t303.5 -125z" />
    <glyph glyph-name="uni0405" unicode="&#x405;" horiz-adv-x="1294" 
d="M696 -29q-282 0 -458.5 139.5t-188.5 383.5h234q13 -156 111.5 -243t295.5 -87q307 0 307 235q0 52 -16.5 90.5t-43.5 64t-77 46.5t-102 35.5t-133 35.5q-24 6 -37 9q-62 16 -100 27.5t-94.5 32.5t-92 41t-76.5 52t-64.5 68t-39 85.5t-15.5 107.5q0 189 137 294t375 105
q252 0 404.5 -122.5t169.5 -342.5h-234q-19 136 -100 204t-237 68q-138 0 -208.5 -49.5t-70.5 -144.5q0 -26 6 -49t14 -41t25.5 -34.5t31.5 -28t41 -23.5t45 -19.5t53 -17.5t54.5 -15t59.5 -15l12 -3q216 -55 305 -95q174 -78 223 -217q21 -61 21 -136q0 -198 -136 -319.5
t-401 -121.5z" />
    <glyph glyph-name="uni0406" unicode="&#x406;" horiz-adv-x="516" 
d="M371 0h-226v1464h226v-1464z" />
    <glyph glyph-name="uni0407" unicode="&#x407;" horiz-adv-x="516" 
d="M199 1651h-228v217h228v-217zM543 1651h-228v217h228v-217zM371 0h-226v1464h226v-1464z" />
    <glyph glyph-name="uni0408" unicode="&#x408;" horiz-adv-x="1060" 
d="M479 -29q-101 0 -178.5 27t-126.5 72t-80.5 109t-44 131.5t-12.5 146.5v59h217v-59q0 -56 4.5 -95.5t18 -79t37 -63.5t64.5 -38.5t97 -14.5q69 0 114.5 21t68.5 62.5t31.5 90t8.5 117.5v1007h226v-1007q0 -78 -12.5 -146t-44.5 -132t-81.5 -109t-127.5 -72t-179 -27z" />
    <glyph glyph-name="uni0409" unicode="&#x409;" horiz-adv-x="1912" 
d="M154 -31q-102 0 -150 25v194q58 -20 115 -20q81 0 121.5 48t44.5 171l45 1077h809v-528h245q227 0 357.5 -121t130.5 -340t-137 -347t-371 -128h-453v1270h-366l-43 -879q-5 -120 -31.5 -203t-73 -130.5t-105.5 -68t-138 -20.5zM1139 741v-546h231q123 0 194.5 75.5
t71.5 204.5q0 122 -66.5 194t-180.5 72h-250z" />
    <glyph glyph-name="uni040A" unicode="&#x40a;" horiz-adv-x="1976" 
d="M371 0h-226v1464h226v-573h594v573h227v-573h254q226 0 356.5 -115.5t130.5 -324.5q0 -217 -135.5 -334t-372.5 -117h-460v696h-594v-696zM1192 696v-501h240q126 0 196 65t70 191q0 120 -65.5 182.5t-182.5 62.5h-258z" />
    <glyph glyph-name="uni040B" unicode="&#x40b;" horiz-adv-x="1499" 
d="M608 0h-227v1270h-348v194h1024v-194h-449v-486h4q64 80 161 129.5t224 49.5q194 0 304 -111.5t110 -316.5v-535h-227v494q0 272 -254 272q-150 0 -236 -84t-86 -240v-442z" />
    <glyph glyph-name="uni040C" unicode="&#x40c;" horiz-adv-x="1325" 
d="M707 1905h235l-197 -283h-159zM1315 1464l-594 -735l637 -729h-285l-534 614h-168v-614h-226v1464h226v-653h172l526 653h246z" />
    <glyph glyph-name="uni040D" unicode="&#x40d;" horiz-adv-x="1507" 
d="M823 1622h-157l-172 283h225zM371 0h-226v1464h226v-1120h4l760 1120h227v-1464h-227v1118h-5z" />
    <glyph glyph-name="uni040E" unicode="&#x40e;" horiz-adv-x="1243" 
d="M635 1602q-121 0 -197 72.5t-80 209.5h138q4 -73 38 -107t101 -34q66 0 99.5 34t37.5 107h137q-6 -134 -79.5 -208t-194.5 -74zM516 0h-225l205 428l-476 1036h236l356 -794h4l381 794h226z" />
    <glyph glyph-name="uni040F" unicode="&#x40f;" horiz-adv-x="1409" 
d="M811 -266h-211v264h-455v1464h226v-1267h667v1267h226v-1464h-453v-264z" />
    <glyph glyph-name="uni0410" unicode="&#x410;" horiz-adv-x="1351" 
d="M246 0h-238l545 1464h244l549 -1464h-246l-121 352h-612zM672 1255l-238 -712h481l-239 712h-4z" />
    <glyph glyph-name="uni0411" unicode="&#x411;" horiz-adv-x="1294" 
d="M737 0h-592v1464h979v-194h-753v-348h387q229 0 358 -118t129 -335t-136 -343t-372 -126zM371 727v-532h372q123 0 195 73.5t72 200.5q0 118 -66.5 188t-181.5 70h-391z" />
    <glyph glyph-name="uni0412" unicode="&#x412;" horiz-adv-x="1366" 
d="M799 0h-654v1464h617q226 0 351.5 -96.5t125.5 -271.5q0 -228 -227 -305v-5q125 -22 204.5 -112.5t79.5 -245.5q0 -207 -132.5 -317.5t-364.5 -110.5zM371 856h385q133 0 190.5 52t57.5 155q0 98 -59 152.5t-173 54.5h-401v-414zM371 195h411q153 0 216 64t63 177
q0 115 -66 178.5t-182 63.5h-442v-483z" />
    <glyph glyph-name="uni0413" unicode="&#x413;" horiz-adv-x="1019" 
d="M371 0h-226v1464h844v-194h-618v-1270z" />
    <glyph glyph-name="uni0414" unicode="&#x414;" horiz-adv-x="1427" 
d="M219 -266h-211v459h107q85 0 118.5 81.5t42.5 286.5l41 903h887v-1271h170v-459h-209v264h-946v-264zM410 197v-4h569v1077h-444l-41 -793q-8 -188 -84 -280z" />
    <glyph glyph-name="uni0415" unicode="&#x415;" horiz-adv-x="1267" 
d="M1202 0h-1057v1464h1037v-194h-811v-416h710v-195h-710v-464h831v-195z" />
    <glyph glyph-name="uni0416" unicode="&#x416;" horiz-adv-x="1933" 
d="M1909 1464l-500 -735l539 -729h-265l-450 614h-152v-614h-227v614h-152l-450 -614h-266l538 729l-499 735h237l443 -653h149v653h227v-653h154l442 653h232z" />
    <glyph glyph-name="uni0417" unicode="&#x417;" horiz-adv-x="1222" 
d="M618 -31q-276 0 -420.5 112t-144.5 327h236q6 -242 321 -242q136 0 219.5 68.5t83.5 183.5q0 107 -72.5 167t-199.5 60h-174v182h166q115 0 175 64.5t60 173.5q0 101 -77 164t-199 63q-134 0 -210.5 -63t-76.5 -166h-235q3 193 142 308.5t380 115.5q230 0 371 -110.5
t141 -297.5q0 -114 -62 -204t-172 -134v-4q126 -35 202.5 -120t76.5 -207q0 -192 -149 -316.5t-382 -124.5z" />
    <glyph glyph-name="uni0418" unicode="&#x418;" horiz-adv-x="1507" 
d="M371 0h-226v1464h226v-1120h4l760 1120h227v-1464h-227v1118h-5z" />
    <glyph glyph-name="uni0419" unicode="&#x419;" horiz-adv-x="1507" 
d="M754 1602q-121 0 -197 72.5t-80 209.5h137q4 -73 38.5 -107t101.5 -34q66 0 99.5 34t37.5 107h137q-6 -134 -80 -208t-194 -74zM371 0h-226v1464h226v-1120h4l760 1120h227v-1464h-227v1118h-5z" />
    <glyph glyph-name="uni041A" unicode="&#x41a;" horiz-adv-x="1325" 
d="M1315 1464l-594 -735l637 -729h-285l-534 614h-168v-614h-226v1464h226v-653h172l526 653h246z" />
    <glyph glyph-name="uni041B" unicode="&#x41b;" horiz-adv-x="1370" 
d="M154 -31q-102 0 -150 25v194q58 -20 115 -20q81 0 121.5 48t44.5 171l45 1077h895v-1464h-226v1270h-454l-43 -879q-5 -120 -31.5 -203t-73 -130.5t-105.5 -68t-138 -20.5z" />
    <glyph glyph-name="uni041C" unicode="&#x41c;" horiz-adv-x="1734" 
d="M367 0h-222v1464h297l422 -1151h4l424 1151h297v-1464h-221v1137h-4l-403 -1137h-187l-403 1137h-4v-1137z" />
    <glyph glyph-name="uni041D" unicode="&#x41d;" horiz-adv-x="1460" 
d="M371 0h-226v1464h226v-612h719v612h227v-1464h-227v657h-719v-657z" />
    <glyph glyph-name="uni041E" unicode="&#x41e;" horiz-adv-x="1585" 
d="M793 -29q-215 0 -379.5 98.5t-252 271.5t-87.5 392t87.5 391.5t252 270.5t379.5 98t379 -98t251.5 -270.5t87.5 -391.5q0 -164 -51 -304.5t-143 -241.5t-227.5 -158.5t-296.5 -57.5zM793 166q101 0 183 30t137 82.5t92.5 125t54 154.5t16.5 175q0 117 -27.5 216
t-83.5 178.5t-151.5 125t-220.5 45.5t-220.5 -45.5t-152 -125t-84 -178.5t-27.5 -216q0 -93 17 -175t54 -154.5t92.5 -125t137.5 -82.5t183 -30z" />
    <glyph glyph-name="uni041F" unicode="&#x41f;" horiz-adv-x="1425" 
d="M371 0h-226v1464h1135v-1464h-227v1270h-682v-1270z" />
    <glyph glyph-name="uni0420" unicode="&#x420;" horiz-adv-x="1277" 
d="M371 0h-226v1464h611q219 0 349 -108t130 -328t-130 -327t-349 -107h-385v-594zM371 788h374q128 0 192 59t64 181q0 124 -63.5 183t-192.5 59h-374v-482z" />
    <glyph glyph-name="uni0421" unicode="&#x421;" horiz-adv-x="1445" 
d="M758 -29q-204 0 -360.5 98t-240 270.5t-83.5 391.5q0 220 84 393t241 271t361 98q134 0 247.5 -41t192 -112.5t127.5 -166.5t62 -206h-236q-9 48 -24.5 90t-46.5 88t-72.5 78.5t-107 53.5t-146.5 21q-117 0 -205.5 -46.5t-140 -127.5t-76.5 -179t-25 -212q0 -91 15 -172
t49.5 -154t85 -126t127 -84t170.5 -31q82 0 148.5 21t110 56t74 83.5t45.5 99t19 106.5h236q-12 -122 -61 -225t-128 -177.5t-192.5 -116.5t-249.5 -42z" />
    <glyph glyph-name="uni0422" unicode="&#x422;" horiz-adv-x="1234" 
d="M731 0h-227v1270h-473v194h1173v-194h-473v-1270z" />
    <glyph glyph-name="uni0423" unicode="&#x423;" horiz-adv-x="1243" 
d="M516 0h-225l205 428l-476 1036h236l356 -794h4l381 794h226z" />
    <glyph glyph-name="uni0424" unicode="&#x424;" horiz-adv-x="1527" 
d="M1462 723q0 -234 -158 -381t-434 -172v-170h-221v172q-273 26 -429.5 172.5t-156.5 378.5q0 231 156.5 377t429.5 172v192h221v-190q276 -25 434 -171.5t158 -379.5zM870 1098v-752q171 25 269 124.5t98 252.5t-98 252.5t-269 122.5zM291 723q0 -152 95 -251.5
t263 -125.5v752q-168 -26 -263 -125t-95 -250z" />
    <glyph glyph-name="uni0425" unicode="&#x425;" horiz-adv-x="1230" 
d="M256 0h-264l495 748l-460 716h249l340 -553h2l343 553h247l-460 -712l485 -752h-262l-359 584h-2z" />
    <glyph glyph-name="uni0426" unicode="&#x426;" horiz-adv-x="1486" 
d="M1434 -266h-211v264h-1078v1464h226v-1267h667v1267h226v-1267h170v-461z" />
    <glyph glyph-name="uni0427" unicode="&#x427;" horiz-adv-x="1259" 
d="M1114 0h-225v635h-4q-64 -79 -161.5 -129.5t-205.5 -50.5q-194 0 -311 120.5t-117 333.5v555h225v-540q0 -131 71.5 -202t199.5 -71q99 0 163.5 37.5t139.5 122.5v653h225v-1464z" />
    <glyph glyph-name="uni0428" unicode="&#x428;" horiz-adv-x="1810" 
d="M1665 -2h-1520v1464h226v-1267h422v1267h225v-1267h420v1267h227v-1464z" />
    <glyph glyph-name="uni0429" unicode="&#x429;" horiz-adv-x="1884" 
d="M1831 -266h-209v264h-1477v1464h226v-1267h422v1267h225v-1267h420v1267h227v-1267h166v-461z" />
    <glyph glyph-name="uni042A" unicode="&#x42a;" horiz-adv-x="1392" 
d="M842 0h-566v1270h-253v194h481v-528h358q227 0 357.5 -121t130.5 -340t-137 -347t-371 -128zM504 741v-546h344q123 0 194.5 75.5t71.5 204.5q0 122 -66.5 194t-181.5 72h-362z" />
    <glyph glyph-name="uni042B" unicode="&#x42b;" horiz-adv-x="1675" 
d="M637 0h-492v1464h226v-528h286q227 0 357.5 -121t130.5 -340t-137 -347t-371 -128zM1530 0h-225v1464h225v-1464zM371 741v-546h272q123 0 195.5 75.5t72.5 204.5q0 122 -67 194t-182 72h-291z" />
    <glyph glyph-name="uni042C" unicode="&#x42c;" horiz-adv-x="1259" 
d="M711 0h-566v1464h226v-528h360q227 0 357.5 -121t130.5 -340t-137 -347t-371 -128zM371 741v-546h344q124 0 196 75.5t72 204.5q0 122 -67.5 194t-182.5 72h-362z" />
    <glyph glyph-name="uni042D" unicode="&#x42d;" horiz-adv-x="1423" 
d="M662 1493q312 0 499 -200.5t187 -553.5q0 -362 -183 -565t-493 -203q-268 0 -437 141.5t-178 364.5h234q10 -140 115.5 -225.5t265.5 -85.5q186 0 301 125.5t135 355.5h-533v182h533q-21 223 -141.5 346t-307.5 123q-154 0 -248 -72.5t-120 -197.5h-234q28 208 192 336.5
t413 128.5z" />
    <glyph glyph-name="uni042E" unicode="&#x42e;" horiz-adv-x="1961" 
d="M1245 1493q297 0 467 -203t170 -557q0 -356 -170 -559t-467 -203q-276 0 -443 177.5t-190 494.5h-241v-643h-226v1464h226v-626h243q25 308 192.5 481.5t438.5 173.5zM1245 166q187 0 295.5 152t108.5 415t-108.5 414t-295.5 151q-185 0 -293 -151t-108 -414t108 -415
t293 -152z" />
    <glyph glyph-name="uni042F" unicode="&#x42f;" horiz-adv-x="1337" 
d="M303 0h-246v12q17 14 28.5 67t17 122t23 149.5t43.5 149.5t81 122t133 68v4q-129 30 -203 120.5t-74 227.5q0 198 135.5 310t374.5 112h576v-1464h-227v590h-347q-85 0 -143.5 -38t-85 -95.5t-41.5 -129.5t-17.5 -135.5t-9 -118t-18.5 -73.5zM645 780h320v490h-332
q-155 0 -226 -59.5t-71 -176.5q0 -125 79 -189.5t230 -64.5z" />
    <glyph glyph-name="uni0430" unicode="&#x430;" horiz-adv-x="1087" 
d="M401 -29q-156 0 -249 82.5t-93 216.5q0 68 21.5 121.5t57 89.5t93.5 64t119 45t146 33q52 10 78 15.5t62.5 15t54 19.5t36.5 24.5t26 34t7 44.5q0 139 -199 139q-133 0 -186.5 -44.5t-61.5 -151.5h-204q8 162 120.5 260t339.5 98q84 0 151.5 -19t122 -59.5t84 -112
t29.5 -169.5v-479q0 -60 11 -87.5t39 -27.5q12 0 24 2v-123q-52 -12 -102 -12q-78 0 -117.5 35t-48.5 122h-4q-110 -176 -357 -176zM446 133q140 0 227 71.5t87 203.5v149q-36 -34 -230 -76q-141 -28 -201.5 -72t-60.5 -124q0 -152 178 -152z" />
    <glyph glyph-name="uni0431" unicode="&#x431;" horiz-adv-x="1146" 
d="M594 -31q-241 0 -378.5 164t-137.5 481q0 662 426 734l205 34q157 30 157 84h197q0 -107 -65.5 -162.5t-178.5 -78.5l-287 -54q-119 -21 -189 -109t-89 -226h4q43 103 151.5 172t245.5 69q200 0 316 -147.5t116 -397.5q0 -119 -32 -221t-93 -178.5t-155.5 -120
t-212.5 -43.5zM594 135q136 0 210.5 113t74.5 284q0 168 -73.5 272.5t-211.5 104.5q-140 0 -215.5 -108.5t-75.5 -278.5t75.5 -278.5t215.5 -108.5z" />
    <glyph glyph-name="uni0432" unicode="&#x432;" horiz-adv-x="1032" 
d="M614 0h-501v1044h477q159 0 248.5 -74t89.5 -196q0 -84 -54 -145t-139 -80v-4q106 -14 174 -78.5t68 -165.5q0 -143 -97 -222t-266 -79zM313 879v-273h269q64 0 102.5 41.5t38.5 102.5q0 62 -37 95.5t-104 33.5h-269zM313 457v-291h283q172 0 172 143q0 69 -42.5 108.5
t-111.5 39.5h-301z" />
    <glyph glyph-name="uni0433" unicode="&#x433;" horiz-adv-x="841" 
d="M313 0h-200v1044h706v-165h-506v-879z" />
    <glyph glyph-name="uni0434" unicode="&#x434;" horiz-adv-x="1173" 
d="M987 1044v-878h143v-432h-182v266h-751v-266h-183v432h82q51 0 82.5 47.5t36.5 124.5l43 706h729zM362 170v-4h422v713h-338l-32 -533q-6 -122 -52 -176z" />
    <glyph glyph-name="uni0435" unicode="&#x435;" horiz-adv-x="1128" 
d="M1071 545q0 -60 -2 -76h-803q2 -90 36 -164.5t106.5 -123t171.5 -48.5q65 0 117 19t83 50t48.5 60.5t25.5 59.5h205q-44 -160 -166 -256.5t-318 -96.5q-162 0 -280 72.5t-177 197t-59 285.5q0 249 139.5 401t376.5 152q235 0 365.5 -143t130.5 -389zM266 627h596
q0 125 -80.5 205.5t-212.5 80.5q-126 0 -210 -78.5t-93 -207.5z" />
    <glyph glyph-name="uni0436" unicode="&#x436;" horiz-adv-x="1435" 
d="M238 0h-238l356 522l-352 522h221l299 -446h92v446h201v-446h94l299 446h222l-353 -522l357 -522h-242l-289 430h-88v-430h-201v430h-90z" />
    <glyph glyph-name="uni0437" unicode="&#x437;" horiz-adv-x="956" 
d="M459 -31q-187 0 -300.5 93t-113.5 245h201q0 -75 61.5 -122.5t169.5 -47.5q99 0 156 42.5t57 119.5q0 70 -50 111t-134 41h-131v155h125q83 0 126.5 41t43.5 113t-54.5 110.5t-150.5 38.5q-97 0 -153 -45t-56 -116h-203q0 146 115 237.5t301 91.5q175 0 288 -80t113 -223
q0 -84 -54.5 -150.5t-145.5 -91.5v-2q108 -23 167.5 -85t59.5 -150q0 -154 -118 -240t-320 -86z" />
    <glyph glyph-name="uni0438" unicode="&#x438;" horiz-adv-x="1183" 
d="M313 0h-200v1044h200v-763l557 763h201v-1044h-201v764z" />
    <glyph glyph-name="uni0439" unicode="&#x439;" horiz-adv-x="1183" 
d="M598 1182q-121 0 -196.5 72.5t-79.5 209.5h137q4 -73 38.5 -107t100.5 -34t99.5 34t37.5 107h137q-6 -134 -80 -208t-194 -74zM313 0h-200v1044h200v-763l557 763h201v-1044h-201v764z" />
    <glyph glyph-name="uni043A" unicode="&#x43a;" horiz-adv-x="1009" 
d="M1014 1044l-396 -520l414 -524h-252l-338 430h-129v-430h-200v1044h200v-446h136l329 446h236z" />
    <glyph glyph-name="uni043B" unicode="&#x43b;" horiz-adv-x="1089" 
d="M133 -31q-68 0 -117 19v162q51 -15 82 -15q45 0 65 37t25 123l41 749h750v-1044h-203v879h-360l-33 -605q-7 -156 -72.5 -230.5t-177.5 -74.5z" />
    <glyph glyph-name="uni043C" unicode="&#x43c;" horiz-adv-x="1390" 
d="M313 0h-200v1044h239l346 -782h4l351 782h227v-1044h-203v700h-4l-305 -698h-156l-295 698h-4v-700z" />
    <glyph glyph-name="uni043D" unicode="&#x43d;" horiz-adv-x="1142" 
d="M829 614v430h201v-1044h-201v449h-516v-449h-200v1044h200v-430h516z" />
    <glyph glyph-name="uni043E" unicode="&#x43e;" horiz-adv-x="1159" 
d="M580 -31q-242 0 -382.5 152t-140.5 401q0 248 141 401.5t384 153.5q240 0 380 -152.5t140 -400.5q0 -249 -140.5 -402t-381.5 -153zM582 135q153 0 232 107.5t79 279.5q0 173 -79 280t-232 107q-156 0 -236 -107t-80 -280q0 -172 80 -279.5t236 -107.5z" />
    <glyph glyph-name="uni043F" unicode="&#x43f;" horiz-adv-x="1122" 
d="M313 0h-200v1044h897v-1044h-201v879h-496v-879z" />
    <glyph glyph-name="uni0440" unicode="&#x440;" horiz-adv-x="1167" 
d="M639 1075q204 0 336.5 -150t132.5 -403t-132.5 -402t-336.5 -149q-215 0 -322 158h-4v-491h-200v1406h200v-122h4q118 153 322 153zM606 137q95 0 162 54.5t98 139.5t31 191t-31 191t-98 139.5t-162 54.5q-135 0 -213 -103t-78 -282q0 -177 78 -281t213 -104z" />
    <glyph glyph-name="uni0441" unicode="&#x441;" horiz-adv-x="1087" 
d="M571 -31q-232 0 -373 153t-141 400t140.5 400t371.5 153q197 0 324.5 -114t146.5 -295h-206q-3 35 -12.5 67.5t-30 65t-49 56.5t-72.5 39t-99 15q-80 0 -141 -32t-95.5 -88t-51.5 -123t-17 -144t17 -143.5t51.5 -122t95 -87.5t141.5 -32q69 0 120.5 21.5t80.5 59.5
t43.5 79t18.5 90h206q-11 -182 -140.5 -300t-328.5 -118z" />
    <glyph glyph-name="uni0442" unicode="&#x442;" horiz-adv-x="954" 
d="M578 0h-201v879h-352v165h905v-165h-352v-879z" />
    <glyph glyph-name="uni0443" unicode="&#x443;" horiz-adv-x="1034" 
d="M248 -367q-50 0 -129 15v164q61 -7 86 -7q71 0 129 46.5t86 158.5l-422 1034h219l305 -798h4l287 798h211l-414 -1069q-74 -190 -156 -266t-206 -76z" />
    <glyph glyph-name="uni0444" unicode="&#x444;" horiz-adv-x="1347" 
d="M1288 522q0 -230 -139.5 -375t-376.5 -172v-337h-199v337q-237 26 -376.5 172.5t-139.5 374.5q0 230 139.5 376.5t376.5 172.5v393h199v-393q237 -27 376.5 -172.5t139.5 -376.5zM772 905v-764q143 28 227 128.5t84 252.5t-84 253.5t-227 129.5zM264 522
q0 -152 83.5 -252t225.5 -127v760q-141 -27 -225 -128t-84 -253z" />
    <glyph glyph-name="uni0445" unicode="&#x445;" horiz-adv-x="997" 
d="M217 0h-233l393 535l-359 509h230l250 -372h4l246 372h229l-359 -509l398 -535h-236l-282 399h-4z" />
    <glyph glyph-name="uni0446" unicode="&#x446;" horiz-adv-x="1181" 
d="M1137 -266h-181v266h-843v1044h200v-878h480v878h200v-878h144v-432z" />
    <glyph glyph-name="uni0447" unicode="&#x447;" horiz-adv-x="1034" 
d="M922 0h-201v455h-4q-46 -64 -126 -106t-177 -42q-70 0 -130 20t-110 61.5t-79 115.5t-29 174v366h202v-307q0 -138 54 -199t159 -61q145 0 240 146v421h201v-1044z" />
    <glyph glyph-name="uni0448" unicode="&#x448;" horiz-adv-x="1488" 
d="M1378 0h-1265v1044h196v-878h338v878h197v-878h338v878h196v-1044z" />
    <glyph glyph-name="uni0449" unicode="&#x449;" horiz-adv-x="1564" 
d="M1522 -266h-183v266h-1226v1044h196v-878h338v878h197v-878h338v878h196v-878h144v-432z" />
    <glyph glyph-name="uni044A" unicode="&#x44a;" horiz-adv-x="1054" 
d="M657 0h-438v879h-201v165h402v-374h239q168 0 265.5 -90t97.5 -244q0 -155 -98 -245.5t-267 -90.5zM420 504v-338h229q76 0 120 45.5t44 122.5q0 80 -42 125t-122 45h-229z" />
    <glyph glyph-name="uni044B" unicode="&#x44b;" horiz-adv-x="1282" 
d="M494 0h-381v1044h200v-374h183q169 0 265.5 -89.5t96.5 -244.5t-97.5 -245.5t-266.5 -90.5zM1169 0h-200v1044h200v-1044zM313 504v-338h172q76 0 121 45.5t45 122.5q0 79 -43 124.5t-123 45.5h-172z" />
    <glyph glyph-name="uni044C" unicode="&#x44c;" horiz-adv-x="948" 
d="M551 0h-438v1044h200v-374h240q168 0 265 -90t97 -244q0 -155 -97.5 -245.5t-266.5 -90.5zM313 504v-338h230q76 0 120 45.5t44 122.5q0 80 -42 125t-122 45h-230z" />
    <glyph glyph-name="uni044D" unicode="&#x44d;" horiz-adv-x="1058" 
d="M502 1075q233 0 365 -152t132 -401q0 -121 -30.5 -221t-90 -174.5t-153 -116t-213.5 -41.5q-202 0 -328 100t-141 265h209q13 -87 82 -142t182 -55q248 0 272 307h-360v158h360q-27 307 -284 307q-109 0 -174 -53t-78 -137h-209q24 160 145 258t314 98z" />
    <glyph glyph-name="uni044E" unicode="&#x44e;" horiz-adv-x="1447" 
d="M934 1077q208 0 331.5 -149.5t123.5 -403.5q0 -256 -123.5 -405.5t-333.5 -149.5q-191 0 -312 125.5t-141 345.5h-166v-440h-200v1044h200v-438h166q20 219 142 345t313 126zM932 135q116 0 182 102.5t66 284.5q0 183 -66 285t-182 102t-182 -102t-66 -285
q0 -182 66 -284.5t182 -102.5z" />
    <glyph glyph-name="uni044F" unicode="&#x44f;" horiz-adv-x="1009" 
d="M260 0h-221v8q13 13 22 51t14 84t18.5 99.5t33 98.5t61 79.5t99.5 44.5v2q-93 21 -152 89t-59 169q0 142 98 230.5t279 88.5h444v-1044h-201v381h-211q-69 0 -113 -34t-61 -85.5t-24 -103.5t-12 -98.5t-15 -59.5zM471 543h225v336h-229q-93 0 -137.5 -45t-44.5 -111
q0 -74 45 -127t141 -53z" />
    <glyph glyph-name="uni0450" unicode="&#x450;" horiz-adv-x="1128" 
d="M532 1489l105 -283h-158l-172 283h225zM1071 545q0 -60 -2 -76h-803q2 -90 36 -164.5t106.5 -123t171.5 -48.5q65 0 117 19t83 50t48.5 60.5t25.5 59.5h205q-44 -160 -166 -256.5t-318 -96.5q-162 0 -280 72.5t-177 197t-59 285.5q0 249 139.5 401t376.5 152
q235 0 365.5 -143t130.5 -389zM266 627h596q0 125 -80.5 205.5t-212.5 80.5q-126 0 -210 -78.5t-93 -207.5z" />
    <glyph glyph-name="uni0451" unicode="&#x451;" horiz-adv-x="1128" 
d="M279 1452h227v-217h-227v217zM623 1452h227v-217h-227v217zM1071 545q0 -60 -2 -76h-803q2 -90 36 -164.5t106.5 -123t171.5 -48.5q65 0 117 19t83 50t48.5 60.5t25.5 59.5h205q-44 -160 -166 -256.5t-318 -96.5q-162 0 -280 72.5t-177 197t-59 285.5q0 249 139.5 401
t376.5 152q235 0 365.5 -143t130.5 -389zM266 627h596q0 125 -80.5 205.5t-212.5 80.5q-126 0 -210 -78.5t-93 -207.5z" />
    <glyph glyph-name="uni0452" unicode="&#x452;" horiz-adv-x="1114" 
d="M750 -371q-68 0 -144 17v164q74 -9 109 -9q49 0 71.5 34.5t22.5 117.5v717q0 110 -51.5 171.5t-161.5 61.5q-129 0 -206 -71.5t-77 -190.5v-641h-200v1196h-123v137h123v131h200v-131h322v-137h-322v-283h4q48 69 134.5 115.5t210.5 46.5q153 0 250.5 -89t97.5 -261v-780
q0 -160 -70.5 -238t-189.5 -78z" />
    <glyph glyph-name="uni0453" unicode="&#x453;" horiz-adv-x="841" 
d="M541 1202h-160l121 283h235zM313 0h-200v1044h706v-165h-506v-879z" />
    <glyph glyph-name="uni0454" unicode="&#x454;" horiz-adv-x="1058" 
d="M553 137q110 0 175.5 55t78.5 142h207q-15 -165 -138.5 -265t-320.5 -100q-160 0 -273.5 73t-168 196t-54.5 284q0 244 136 398.5t368 154.5q194 0 311 -97.5t140 -258.5h-207q-13 85 -74.5 137.5t-169.5 52.5q-129 0 -203.5 -78t-89.5 -229h361v-158h-361
q27 -307 283 -307z" />
    <glyph glyph-name="uni0455" unicode="&#x455;" horiz-adv-x="999" 
d="M524 -29q-229 0 -352.5 105t-128.5 272h203q7 -99 72.5 -157t203.5 -58q121 0 172 44t51 110q0 19 -4.5 36t-10.5 29.5t-19 24t-23.5 19.5t-29.5 16t-32 13t-36.5 10.5t-37.5 8.5t-41 8.5t-40 8.5q-50 12 -80 19.5t-76.5 23t-75 30.5t-62 39t-52.5 51.5t-32 66t-13 83.5
q0 137 105.5 219t291.5 82q204 0 315.5 -94.5t122.5 -239.5h-202q-6 34 -18.5 61t-37 54t-69.5 42t-107 15q-98 0 -145 -35t-47 -96q0 -20 6 -36.5t14 -28.5t25.5 -22.5t30.5 -16.5t40.5 -13.5t44 -11t51 -11t52.5 -11.5q51 -12 84 -20.5t79.5 -24.5t76.5 -32t63.5 -41.5
t52.5 -55t32 -70.5t13 -90q0 -153 -113 -239.5t-317 -86.5z" />
    <glyph glyph-name="uni0456" unicode="&#x456;" horiz-adv-x="425" 
d="M328 1231h-228v217h228v-217zM313 0h-200v1044h200v-1044z" />
    <glyph glyph-name="uni0457" unicode="&#x457;" horiz-adv-x="425" 
d="M190 1235h-206v209h206v-209zM442 1235h-206v209h206v-209zM313 0h-200v1044h200v-1044z" />
    <glyph glyph-name="uni0458" unicode="&#x458;" horiz-adv-x="425" 
d="M328 1231h-228v217h228v-217zM63 -371q-41 0 -124 13v165q49 -6 79 -6q49 0 72 33.5t23 118.5v1091h200v-1099q0 -161 -67 -238.5t-183 -77.5z" />
    <glyph glyph-name="uni0459" unicode="&#x459;" horiz-adv-x="1468" 
d="M133 -31q-68 0 -117 19v164q40 -15 82 -15q45 0 65 36.5t25 123.5l41 747h660v-374h182q169 0 266 -90t97 -244q0 -155 -98 -245.5t-267 -90.5h-381v879h-272l-33 -603q-7 -157 -72.5 -232t-177.5 -75zM889 504v-338h172q76 0 121 45.5t45 122.5q0 79 -43 124.5
t-123 45.5h-172z" />
    <glyph glyph-name="uni045A" unicode="&#x45a;" horiz-adv-x="1476" 
d="M899 645h182q170 0 266.5 -83.5t96.5 -237.5t-98 -239t-267 -85h-383v477h-383v-477h-200v1044h200v-399h383v399h203v-399zM899 166h172q77 0 120.5 40t43.5 116q0 155 -164 155h-172v-311z" />
    <glyph glyph-name="uni045B" unicode="&#x45b;" horiz-adv-x="1114" 
d="M662 1075q153 0 250.5 -89t97.5 -261v-725h-201v670q0 110 -51.5 171.5t-161.5 61.5q-129 0 -206 -71.5t-77 -190.5v-641h-200v1196h-123v137h123v131h200v-131h322v-137h-322v-283h4q48 69 134.5 115.5t210.5 46.5z" />
    <glyph glyph-name="uni045C" unicode="&#x45c;" horiz-adv-x="1009" 
d="M557 1485h236l-197 -283h-160zM1014 1044l-396 -520l414 -524h-252l-338 430h-129v-430h-200v1044h200v-446h136l329 446h236z" />
    <glyph glyph-name="uni045D" unicode="&#x45d;" horiz-adv-x="1183" 
d="M668 1202h-158l-172 283h225zM313 0h-200v1044h200v-763l557 763h201v-1044h-201v764z" />
    <glyph glyph-name="uni045E" unicode="&#x45e;" horiz-adv-x="1034" 
d="M512 1182q-121 0 -196.5 72.5t-79.5 209.5h137q4 -73 38.5 -107t100.5 -34t99.5 34t37.5 107h137q-6 -134 -80 -208t-194 -74zM248 -367q-50 0 -129 15v164q61 -7 86 -7q71 0 129 46.5t86 158.5l-422 1034h219l305 -798h4l287 798h211l-414 -1069q-74 -190 -156 -266
t-206 -76z" />
    <glyph glyph-name="uni045F" unicode="&#x45f;" horiz-adv-x="1105" 
d="M645 -266h-180v266h-352v1044h200v-878h480v878h200v-1044h-348v-266z" />
    <glyph glyph-name="uni0490" unicode="&#x490;" horiz-adv-x="1026" 
d="M371 0h-226v1464h641v203h209v-397h-624v-1270z" />
    <glyph glyph-name="uni0491" unicode="&#x491;" horiz-adv-x="864" 
d="M313 0h-200v1044h546v226h181v-391h-527v-879z" />
    <glyph glyph-name="uni0492" unicode="&#x492;" horiz-adv-x="1138" 
d="M1104 1464v-194h-619v-473h418v-168h-418v-629h-225v629h-244v168h244v667h844z" />
    <glyph glyph-name="uni0493" unicode="&#x493;" horiz-adv-x="917" 
d="M891 1044v-165h-504v-287h342v-141h-342v-451h-201v451h-172v141h172v452h705z" />
    <glyph glyph-name="uni0496" unicode="&#x496;" horiz-adv-x="1933" 
d="M1409 729l457 -618h110v-377h-209v266h-84l-450 614h-152v-614h-227v614h-152l-450 -614h-266l538 729l-499 735h237l443 -653h149v653h227v-653h154l442 653h232z" />
    <glyph glyph-name="uni0497" unicode="&#x497;" horiz-adv-x="1435" 
d="M1079 522l260 -381h129v-407h-180v266h-94l-289 430h-88v-430h-201v430h-90l-288 -430h-238l356 522l-352 522h221l299 -446h92v446h201v-446h94l299 446h222z" />
    <glyph glyph-name="uni049A" unicode="&#x49a;" horiz-adv-x="1325" 
d="M721 729l541 -618h127v-377h-209v266h-107l-534 614h-168v-614h-226v1464h226v-653h172l526 653h246z" />
    <glyph glyph-name="uni049B" unicode="&#x49b;" horiz-adv-x="1009" 
d="M618 524l304 -383h120v-407h-180v266h-82l-338 430h-129v-430h-200v1044h200v-446h136l329 446h236z" />
    <glyph glyph-name="uni04A2" unicode="&#x4a2;" horiz-adv-x="1460" 
d="M1317 1464v-1353h86v-377h-209v266h-104v657h-719v-657h-226v1464h226v-612h719v612h227z" />
    <glyph glyph-name="uni04A3" unicode="&#x4a3;" horiz-adv-x="1142" 
d="M1030 1044v-903h86v-407h-180v266h-107v449h-516v-449h-200v1044h200v-430h516v430h201z" />
    <glyph glyph-name="uni04AE" unicode="&#x4ae;" horiz-adv-x="1304" 
d="M766 0h-227v586l-525 878h244l393 -700h4l394 700h241l-524 -878v-586z" />
    <glyph glyph-name="uni04AF" unicode="&#x4af;" horiz-adv-x="1030" 
d="M621 -362h-201v442l-422 964h221l301 -731h4l295 731h209l-407 -964v-442z" />
    <glyph glyph-name="uni04B0" unicode="&#x4b0;" horiz-adv-x="1290" 
d="M1284 1464l-524 -878v-64h311v-166h-311v-356h-228v356h-327v166h327v64l-524 878h244l393 -700h4l393 700h242z" />
    <glyph glyph-name="uni04B1" unicode="&#x4b1;" horiz-adv-x="1030" 
d="M1028 1044l-407 -964v-96h262v-142h-262v-204h-201v204h-262v142h262v96l-422 964h221l301 -731h4l295 731h209z" />
    <glyph glyph-name="uni04B2" unicode="&#x4b2;" horiz-adv-x="1230" 
d="M748 752l413 -641h111v-377h-209v266h-92l-359 584h-2l-354 -584h-264l495 748l-460 716h249l340 -553h2l343 553h247z" />
    <glyph glyph-name="uni04B3" unicode="&#x4b3;" horiz-adv-x="997" 
d="M618 535l293 -394h129v-407h-180v266h-80l-282 399h-4l-277 -399h-233l393 535l-359 509h230l250 -372h4l246 372h229z" />
    <glyph glyph-name="uni04B6" unicode="&#x4b6;" horiz-adv-x="1259" 
d="M1114 1464v-1353h107v-377h-209v266h-123v635h-4q-64 -79 -161.5 -129.5t-205.5 -50.5q-194 0 -311 120.5t-117 333.5v555h225v-540q0 -131 71.5 -202t199.5 -71q99 0 163.5 37.5t139.5 122.5v653h225z" />
    <glyph glyph-name="uni04B7" unicode="&#x4b7;" horiz-adv-x="1034" 
d="M922 1044v-903h67v-407h-180v266h-88v455h-4q-46 -64 -126 -106t-177 -42q-70 0 -130 20t-110 61.5t-79 115.5t-29 174v366h202v-307q0 -138 54 -199t159 -61q145 0 240 146v421h201z" />
    <glyph glyph-name="uni04BA" unicode="&#x4ba;" horiz-adv-x="1282" 
d="M371 0h-226v1464h226v-618h4q60 81 159 129.5t228 48.5q205 0 316.5 -111t111.5 -317v-596h-225v555q0 272 -271 272q-150 0 -236.5 -83.5t-86.5 -239.5v-504z" />
    <glyph glyph-name="uni04BB" unicode="&#x4bb;" horiz-adv-x="1114" 
d="M662 1075q153 0 250.5 -89t97.5 -261v-725h-201v670q0 110 -51.5 171.5t-161.5 61.5q-129 0 -206 -71.5t-77 -190.5v-641h-200v1464h200v-551h4q48 69 134.5 115.5t210.5 46.5z" />
    <glyph glyph-name="uni04D8" unicode="&#x4d8;" horiz-adv-x="1499" 
d="M762 1493q191 0 343 -99t236 -272t84 -387q0 -166 -51 -308.5t-141 -243t-216.5 -157.5t-273.5 -57q-193 0 -347 93.5t-238 253t-84 352.5q0 88 4 125h1112q-15 233 -140.5 369t-312.5 136q-160 0 -268.5 -76.5t-130.5 -195.5h-234q24 140 118.5 247.5t235 163.5
t304.5 56zM750 164q175 0 288.5 116t143.5 318h-873q0 -187 121.5 -310.5t319.5 -123.5z" />
    <glyph glyph-name="uni04D9" unicode="&#x4d9;" horiz-adv-x="1093" 
d="M543 1075q233 0 362 -151.5t129 -401.5q0 -244 -131 -398.5t-356 -154.5q-150 0 -262 70.5t-169 193t-57 279.5q0 23 7 84h755q-13 152 -88 232.5t-192 80.5q-111 0 -179 -45t-83 -123h-207q32 158 159 246t312 88zM547 137q120 0 189.5 76.5t84.5 224.5h-551
q0 -60 15.5 -112.5t47 -95.5t86.5 -68t128 -25z" />
    <glyph glyph-name="uni04E2" unicode="&#x4e2;" horiz-adv-x="1507" 
d="M1022 1651h-541v157h541v-157zM371 0h-226v1464h226v-1120h4l760 1120h227v-1464h-227v1118h-5z" />
    <glyph glyph-name="uni04E3" unicode="&#x4e3;" horiz-adv-x="1183" 
d="M866 1231h-540v158h540v-158zM313 0h-200v1044h200v-763l557 763h201v-1044h-201v764z" />
    <glyph glyph-name="uni04E8" unicode="&#x4e8;" horiz-adv-x="1585" 
d="M793 1493q215 0 379 -98t251.5 -270.5t87.5 -391.5q0 -164 -51 -304.5t-143 -241.5t-227.5 -158.5t-296.5 -57.5q-215 0 -379.5 98.5t-252 271.5t-87.5 392t87.5 391.5t252 270.5t379.5 98zM793 1298q-112 0 -200.5 -37t-145.5 -102.5t-90.5 -149t-43.5 -184.5h959
q-10 101 -43 184.5t-90 149t-145.5 102.5t-200.5 37zM793 166q112 0 200.5 37t145.5 103t90 150t43 185h-959q10 -101 43.5 -185t90.5 -150t145.5 -103t200.5 -37z" />
    <glyph glyph-name="uni04E9" unicode="&#x4e9;" horiz-adv-x="1159" 
d="M582 1077q240 0 380 -152.5t140 -400.5q0 -249 -140.5 -402t-381.5 -153q-242 0 -382.5 152t-140.5 401q0 248 141 401.5t384 153.5zM582 909q-137 0 -215.5 -83.5t-96.5 -223.5h619q-18 140 -95.5 223.5t-211.5 83.5zM582 135q134 0 211.5 84t95.5 225h-619
q18 -141 96.5 -225t215.5 -84z" />
    <glyph glyph-name="uni04EE" unicode="&#x4ee;" horiz-adv-x="1243" 
d="M903 1651h-541v157h541v-157zM516 0h-225l205 428l-476 1036h236l356 -794h4l381 794h226z" />
    <glyph glyph-name="uni04EF" unicode="&#x4ef;" horiz-adv-x="1034" 
d="M782 1231h-540v158h540v-158zM248 -367q-50 0 -129 15v164q61 -7 86 -7q71 0 129 46.5t86 158.5l-422 1034h219l305 -798h4l287 798h211l-414 -1069q-74 -190 -156 -266t-206 -76z" />
    <glyph glyph-name="uni139A" unicode="&#x139a;" horiz-adv-x="1343" 
 />
    <glyph glyph-name="Wgrave" unicode="&#x1e80;" horiz-adv-x="1898" 
d="M1022 1622h-158l-172 283h226zM637 0h-244l-364 1464h235l258 -1153h4l303 1153h238l305 -1153h4l258 1153h236l-367 -1464h-241l-312 1178h-4z" />
    <glyph glyph-name="wgrave" unicode="&#x1e81;" horiz-adv-x="1552" 
d="M850 1202h-158l-172 283h225zM549 0h-207l-324 1044h218l221 -808h4l217 808h203l217 -808h4l223 808h209l-324 -1044h-206l-226 805h-4z" />
    <glyph glyph-name="Wacute" unicode="&#x1e82;" horiz-adv-x="1898" 
d="M1012 1622h-160l121 283h235zM637 0h-244l-364 1464h235l258 -1153h4l303 1153h238l305 -1153h4l258 1153h236l-367 -1464h-241l-312 1178h-4z" />
    <glyph glyph-name="wacute" unicode="&#x1e83;" horiz-adv-x="1552" 
d="M840 1202h-160l121 283h235zM549 0h-207l-324 1044h218l221 -808h4l217 808h203l217 -808h4l223 808h209l-324 -1044h-206l-226 805h-4z" />
    <glyph glyph-name="Wdieresis" unicode="&#x1e84;" horiz-adv-x="1898" 
d="M891 1651h-227v217h227v-217zM1235 1651h-227v217h227v-217zM637 0h-244l-364 1464h235l258 -1153h4l303 1153h238l305 -1153h4l258 1153h236l-367 -1464h-241l-312 1178h-4z" />
    <glyph glyph-name="wdieresis" unicode="&#x1e85;" horiz-adv-x="1552" 
d="M719 1231h-227v217h227v-217zM1063 1231h-227v217h227v-217zM549 0h-207l-324 1044h218l221 -808h4l217 808h203l217 -808h4l223 808h209l-324 -1044h-206l-226 805h-4z" />
    <glyph glyph-name="Ygrave" unicode="&#x1ef2;" horiz-adv-x="1304" 
d="M727 1622h-158l-172 283h226zM766 0h-227v586l-525 878h244l393 -700h4l394 700h241l-524 -878v-586z" />
    <glyph glyph-name="ygrave" unicode="&#x1ef3;" horiz-adv-x="1034" 
d="M584 1202h-158l-172 283h225zM248 -367q-50 0 -129 15v164q61 -7 86 -7q71 0 129 46.5t86 158.5l-422 1034h219l305 -798h4l287 798h211l-414 -1069q-74 -190 -156 -266t-206 -76z" />
    <glyph glyph-name="uni2000" unicode="&#x2000;" horiz-adv-x="1024" 
 />
    <glyph glyph-name="uni2001" unicode="&#x2001;" horiz-adv-x="2048" 
 />
    <glyph glyph-name="uni2002" unicode="&#x2002;" horiz-adv-x="1024" 
 />
    <glyph glyph-name="uni2003" unicode="&#x2003;" horiz-adv-x="2048" 
 />
    <glyph glyph-name="uni2004" unicode="&#x2004;" horiz-adv-x="681" 
 />
    <glyph glyph-name="uni2005" unicode="&#x2005;" horiz-adv-x="512" 
 />
    <glyph glyph-name="uni2006" unicode="&#x2006;" horiz-adv-x="342" 
 />
    <glyph glyph-name="uni2007" unicode="&#x2007;" horiz-adv-x="1480" 
 />
    <glyph glyph-name="uni2008" unicode="&#x2008;" horiz-adv-x="407" 
 />
    <glyph glyph-name="uni2009" unicode="&#x2009;" horiz-adv-x="256" 
 />
    <glyph glyph-name="uni200A" unicode="&#x200a;" horiz-adv-x="86" 
 />
    <glyph glyph-name="uni200B" unicode="&#x200b;" 
 />
    <glyph glyph-name="endash" unicode="&#x2013;" horiz-adv-x="1193" 
d="M1110 426h-1024v190h1024v-190z" />
    <glyph glyph-name="emdash" unicode="&#x2014;" horiz-adv-x="2215" 
d="M2132 424h-2048v190h2048v-190z" />
    <glyph glyph-name="quoteleft" unicode="&#x2018;" horiz-adv-x="401" 
d="M307 1464v-112q-59 -15 -83 -51.5t-23 -114.5h106v-223h-223v223q0 222 223 278z" />
    <glyph glyph-name="quoteright" unicode="&#x2019;" horiz-adv-x="385" 
d="M94 963v112q57 15 82 52.5t25 113.5h-107v223h221v-223q0 -223 -221 -278z" />
    <glyph glyph-name="quotesinglbase" unicode="&#x201a;" horiz-adv-x="415" 
d="M96 -279v111q59 18 83.5 54.5t23.5 113.5h-107v223h223v-223q0 -223 -223 -279z" />
    <glyph glyph-name="quotedblleft" unicode="&#x201c;" horiz-adv-x="727" 
d="M84 965v223q0 222 223 278v-112q-59 -18 -83 -54t-23 -112h106v-223h-223zM633 1466v-112q-59 -18 -83.5 -54t-23.5 -112h107v-223h-223v223q0 222 223 278z" />
    <glyph glyph-name="quotedblright" unicode="&#x201d;" horiz-adv-x="710" 
d="M94 963v112q57 15 82 52.5t25 113.5h-107v223h221v-223q0 -223 -221 -278zM420 963v112q57 15 81.5 52.5t24.5 113.5h-106v223h223v-223q0 -222 -223 -278z" />
    <glyph glyph-name="quotedblbase" unicode="&#x201e;" horiz-adv-x="743" 
d="M96 -279v111q59 18 83.5 54.5t23.5 113.5h-107v223h223v-223q0 -223 -223 -279zM424 -279v111q58 18 82.5 54.5t23.5 113.5h-106v223h223v-223q0 -223 -223 -279z" />
    <glyph glyph-name="dagger" unicode="&#x2020;" horiz-adv-x="995" 
d="M610 -362h-223v1220h-358v191h358v415h223v-415h359v-191h-359v-1220z" />
    <glyph glyph-name="daggerdbl" unicode="&#x2021;" horiz-adv-x="1073" 
d="M649 -362h-223v565h-358v190h358v465h-358v191h358v415h223v-415h359v-191h-359v-465h359v-190h-359v-565z" />
    <glyph glyph-name="bullet" unicode="&#x2022;" horiz-adv-x="788" 
d="M633 373h-477v479h477v-479z" />
    <glyph glyph-name="ellipsis" unicode="&#x2026;" horiz-adv-x="1224" 
d="M315 0h-223v223h223v-223zM723 0h-221v223h221v-223zM1133 0h-224v223h224v-223z" />
    <glyph glyph-name="perthousand" unicode="&#x2030;" horiz-adv-x="2478" 
d="M397 631q-113 0 -194.5 55t-120.5 145.5t-39 206.5q0 178 91.5 292t262.5 114q167 0 260 -115t93 -291q0 -179 -91.5 -293t-261.5 -114zM551 0h-176l786 1415h176zM397 784q83 0 124.5 67t41.5 187t-41.5 187t-124.5 67q-84 0 -126 -67t-42 -187t42 -187t126 -67z
M1317 -29q-168 0 -260 114.5t-92 291.5q0 179 91 293t261 114q168 0 260 -114.5t92 -292.5q0 -86 -22 -159t-65 -128.5t-111 -87t-154 -31.5zM2085 -29q-168 0 -260 114.5t-92 291.5q0 179 91 293t261 114q168 0 260 -114.5t92 -292.5q0 -86 -22 -159t-65 -128.5t-111 -87
t-154 -31.5zM1317 123q83 0 125.5 67t42.5 187t-42.5 187t-125.5 67t-125.5 -67t-42.5 -187t42.5 -187t125.5 -67zM2085 123q83 0 125.5 67t42.5 187t-42.5 187t-125.5 67t-125.5 -67t-42.5 -187t42.5 -187t125.5 -67z" />
    <glyph glyph-name="guilsinglleft" unicode="&#x2039;" horiz-adv-x="598" 
d="M496 301v-217l-408 328v223l408 328v-215l-293 -224v-4z" />
    <glyph glyph-name="guilsinglright" unicode="&#x203a;" horiz-adv-x="598" 
d="M510 410l-408 -326v215l293 221v4l-293 221v218l408 -330v-223z" />
    <glyph glyph-name="fraction" unicode="&#x2044;" horiz-adv-x="428" 
d="M-147 0h-211l927 1464h211z" />
    <glyph glyph-name="uni2070" unicode="&#x2070;" horiz-adv-x="821" 
d="M412 739q-89 0 -159 34.5t-112.5 94.5t-64 137t-21.5 166t21.5 166.5t64 138t112.5 95.5t159 35t158.5 -35t111.5 -96t63 -138t21 -166t-21 -165.5t-63 -137t-111.5 -95t-158.5 -34.5zM412 885q63 0 102 38t53.5 99t14.5 149q0 289 -170 289q-94 0 -133 -76.5t-39 -212.5
t39 -211t133 -75z" />
    <glyph glyph-name="uni2074" unicode="&#x2074;" horiz-adv-x="774" 
d="M610 745h-182v181h-383v174l383 477h182v-504h119v-147h-119v-181zM428 1372l-240 -299h240v299z" />
    <glyph glyph-name="uni2075" unicode="&#x2075;" horiz-adv-x="759" 
d="M387 727q-158 0 -248.5 74t-95.5 198h184q6 -56 44.5 -90.5t105.5 -34.5q65 0 103 41t38 115q0 72 -36 111t-105 39q-86 0 -141 -64h-173l93 461h510v-147h-381l-37 -181v-2q74 64 182 64q124 0 199.5 -77.5t75.5 -205.5q0 -142 -89.5 -221.5t-228.5 -79.5z" />
    <glyph glyph-name="uni2076" unicode="&#x2076;" horiz-adv-x="778" 
d="M406 733q-77 0 -137.5 22.5t-99.5 61.5t-65 94t-36.5 116.5t-10.5 133.5q0 212 92.5 327.5t253.5 115.5q119 0 199 -65t98 -165h-182q-16 90 -119 90q-163 0 -166 -225v-12l5 -2q71 88 204 88q127 0 206 -79.5t79 -203.5q0 -131 -87.5 -214t-233.5 -83zM397 874
q71 0 110.5 41.5t39.5 106.5q0 68 -38.5 110t-105.5 42q-72 0 -112.5 -42.5t-40.5 -109.5q0 -66 39 -107t108 -41z" />
    <glyph glyph-name="uni2077" unicode="&#x2077;" horiz-adv-x="657" 
d="M340 745h-190q0 195 83.5 389.5t196.5 292.5v3h-410v147h605v-135q-135 -110 -210 -301.5t-75 -395.5z" />
    <glyph glyph-name="uni2078" unicode="&#x2078;" horiz-adv-x="776" 
d="M387 737q-147 0 -241.5 66t-94.5 188q0 144 158 209v2q-119 66 -119 178q0 105 84.5 166.5t212.5 61.5q131 0 215 -61.5t84 -166.5q0 -111 -117 -178v-2q156 -70 156 -209q0 -122 -94.5 -188t-243.5 -66zM387 1257q65 0 98 29.5t33 81.5q0 49 -34 79t-97 30
q-62 0 -96.5 -30t-34.5 -79q0 -52 34 -81.5t97 -29.5zM387 877q73 0 113.5 36t40.5 95q0 57 -40.5 93t-113.5 36q-72 0 -113 -36t-41 -93q0 -58 41 -94.5t113 -36.5z" />
    <glyph glyph-name="uni2079" unicode="&#x2079;" horiz-adv-x="776" 
d="M375 739q-118 0 -199.5 65t-99.5 165h184q20 -90 119 -90q85 0 123.5 60.5t38.5 158.5v14h-2q-33 -37 -86 -60.5t-117 -23.5q-125 0 -204 79.5t-79 203.5q0 132 87 215.5t233 83.5q95 0 164.5 -34t108.5 -95.5t57 -136t18 -166.5q0 -210 -93 -324.5t-253 -114.5z
M375 1169q73 0 115 43t42 109t-41 106.5t-112 40.5t-110.5 -41t-39.5 -108t39.5 -108.5t106.5 -41.5z" />
    <glyph glyph-name="uni2080" unicode="&#x2080;" horiz-adv-x="821" 
d="M412 -221q-89 0 -159 34.5t-112.5 94.5t-64 137t-21.5 166q0 71 13.5 134.5t41.5 118.5t69.5 95t101 63t131.5 23q89 0 158.5 -35t111.5 -96t63 -137.5t21 -165.5t-21 -165.5t-63 -137t-111.5 -95t-158.5 -34.5zM412 -76q63 0 102 38.5t53.5 99.5t14.5 149
q0 289 -170 289q-94 0 -133 -76.5t-39 -212.5t39 -211.5t133 -75.5z" />
    <glyph glyph-name="uni2081" unicode="&#x2081;" horiz-adv-x="481" 
d="M203 -205v574q-41 -29 -176 -29v141q99 2 153.5 38.5t55.5 107.5h151v-832h-184z" />
    <glyph glyph-name="uni2082" unicode="&#x2082;" horiz-adv-x="729" 
d="M666 -205h-625q0 74 23.5 131t63.5 99.5t112 95.5q23 17 59.5 41.5t58.5 39.5t49 37.5t42 42.5t25.5 46.5t10.5 56.5q0 51 -27 83t-85 32q-140 0 -140 -174h-176q0 143 82 232t240 89q133 0 212 -66t79 -184q0 -57 -17.5 -104t-56.5 -88.5t-68 -65t-86 -63.5
q-43 -30 -61.5 -44t-44.5 -39t-39 -48v-2h369v-148z" />
    <glyph glyph-name="uni2083" unicode="&#x2083;" horiz-adv-x="763" 
d="M393 -223q-168 0 -259 80.5t-91 228.5h178q0 -80 37 -121t123 -41q141 0 141 115q0 121 -153 121h-56v131h52q133 0 133 102q0 107 -117 107q-137 0 -137 -127h-176q0 122 85 198t238 76q122 0 206.5 -62.5t84.5 -168.5q0 -120 -123 -180v-3q150 -47 150 -202
q0 -120 -86.5 -187t-229.5 -67z" />
    <glyph glyph-name="uni2084" unicode="&#x2084;" horiz-adv-x="774" 
d="M610 -205h-182v180h-383v175l383 477h182v-504h119v-148h-119v-180zM428 422l-240 -299h240v299z" />
    <glyph glyph-name="uni2085" unicode="&#x2085;" horiz-adv-x="759" 
d="M387 -223q-158 0 -248.5 74t-95.5 198h184q6 -56 44.5 -90.5t105.5 -34.5q65 0 103 41t38 115q0 72 -36 110.5t-105 38.5q-87 0 -141 -63h-173l93 461h510v-148h-381l-37 -180v-2q73 63 182 63q124 0 199.5 -77t75.5 -205q0 -142 -89.5 -221.5t-228.5 -79.5z" />
    <glyph glyph-name="uni2086" unicode="&#x2086;" horiz-adv-x="778" 
d="M406 -223q-77 0 -137.5 22.5t-99.5 61.5t-65 94t-36.5 116.5t-10.5 133.5q0 212 92.5 327t253.5 115q120 0 199.5 -64.5t97.5 -164.5h-182q-16 90 -119 90q-163 0 -166 -225v-13l5 -2q71 88 204 88q127 0 206 -79t79 -203q0 -131 -87.5 -214t-233.5 -83zM397 -82
q71 0 110.5 41.5t39.5 106.5q0 68 -38.5 109.5t-105.5 41.5q-72 0 -112.5 -42.5t-40.5 -108.5t39 -107t108 -41z" />
    <glyph glyph-name="uni2087" unicode="&#x2087;" horiz-adv-x="657" 
d="M340 -205h-190q0 195 83.5 389.5t196.5 292.5v2h-410v148h605v-135q-135 -110 -210 -301.5t-75 -395.5z" />
    <glyph glyph-name="uni2088" unicode="&#x2088;" horiz-adv-x="776" 
d="M387 -223q-147 0 -241.5 66t-94.5 188q0 144 158 209v2q-119 66 -119 178q0 104 84.5 165.5t212.5 61.5q131 0 215 -61t84 -166q0 -111 -117 -178v-2q156 -70 156 -209q0 -122 -94.5 -188t-243.5 -66zM387 297q65 0 98 29.5t33 81.5q0 49 -34 78.5t-97 29.5
q-62 0 -96.5 -30t-34.5 -78q0 -52 34 -81.5t97 -29.5zM387 -84q73 0 113.5 36t40.5 95q0 57 -40.5 93t-113.5 36q-72 0 -113 -36t-41 -93q0 -58 41 -94.5t113 -36.5z" />
    <glyph glyph-name="uni2089" unicode="&#x2089;" horiz-adv-x="776" 
d="M375 -223q-119 0 -200 65t-99 164h184q20 -90 119 -90q85 0 123.5 60.5t38.5 158.5v15h-2q-33 -37 -86 -60.5t-117 -23.5q-125 0 -204 79t-79 203q0 132 87 215.5t233 83.5q95 0 164.5 -34t108.5 -95.5t57 -136t18 -166.5q0 -209 -92.5 -323.5t-253.5 -114.5zM375 207
q73 0 115 42.5t42 108.5t-41 107t-112 41t-110.5 -41.5t-39.5 -108.5t39.5 -108t106.5 -41z" />
    <glyph glyph-name="Euro" unicode="&#x20ac;" horiz-adv-x="1363" 
d="M772 162q76 0 132 28.5t88.5 79t49 109.5t21.5 131h221q-23 -252 -151 -395.5t-359 -143.5q-228 0 -369.5 145.5t-179.5 397.5h-127v127h115q-2 20 -2 61v52h-113v125h125q36 257 178 405t373 148q115 0 207.5 -38t154.5 -106t99 -159t49 -201h-221q-8 49 -19 89
t-33.5 83.5t-52.5 73t-78 48.5t-108 19q-142 0 -221.5 -97t-106.5 -265h390v-125h-402v-52q0 -41 2 -61h400v-127h-388q26 -163 106.5 -257.5t219.5 -94.5z" />
    <glyph glyph-name="trademark" unicode="&#x2122;" horiz-adv-x="1359" 
d="M358 893h-143v444h-174v127h491v-127h-174v-444zM739 893h-135v571h201l117 -391h2l120 391h199v-571h-135v405h-4l-123 -405h-117l-121 405h-4v-405z" />
    <glyph glyph-name="uni2126" unicode="&#x2126;" horiz-adv-x="1626" 
d="M678 0h-604v195h315q-129 91 -206 241t-77 342q0 202 87.5 364.5t249.5 256.5t370 94t369.5 -94t248.5 -256.5t87 -364.5q0 -192 -76 -342.5t-205 -240.5h315v-195h-606l2 170q77 43 134.5 92t106 117t74 160.5t25.5 205.5q0 257 -126.5 404t-348.5 147t-348.5 -147
t-126.5 -404q0 -113 25.5 -205.5t74 -160.5t106 -117t134.5 -92v-170z" />
    <glyph glyph-name="oneeighth" unicode="&#x215b;" horiz-adv-x="1611" 
d="M213 633v573q-39 -28 -176 -28v141q204 3 207 145h153v-831h-184zM356 0h-211l928 1464h211zM1229 -18q-147 0 -241.5 66t-94.5 188q0 143 158 208v2q-119 66 -119 179q0 104 84.5 165.5t212.5 61.5q131 0 215 -61t84 -166q0 -112 -117 -179v-2q156 -70 156 -208
q0 -122 -94.5 -188t-243.5 -66zM1229 502q65 0 98 29t33 81q0 49 -34 79t-97 30q-62 0 -96.5 -30t-34.5 -79q0 -52 33.5 -81t97.5 -29zM1229 121q73 0 113 36t40 95q0 57 -40 93t-113 36q-72 0 -113 -36t-41 -93q0 -58 41 -94.5t113 -36.5z" />
    <glyph glyph-name="threeeighths" unicode="&#x215c;" horiz-adv-x="1902" 
d="M410 616q-168 0 -259.5 81t-91.5 229h179q0 -80 37 -121t124 -41q140 0 140 115q0 120 -152 120h-55v129h51q131 0 131 105q0 50 -29.5 78t-87.5 28q-68 0 -102.5 -33.5t-34.5 -93.5h-176q0 122 85.5 198.5t238.5 76.5q122 0 206 -63t84 -169q0 -123 -123 -180v-2
q152 -47 152 -203q0 -120 -87 -187t-230 -67zM629 0h-211l928 1464h210zM1511 -18q-147 0 -241 66t-94 188q0 142 155 208v2q-119 66 -119 179q0 104 85 165.5t214 61.5q130 0 214.5 -61t84.5 -166q0 -111 -118 -179v-2q155 -68 155 -208q0 -122 -94.5 -188t-241.5 -66z
M1511 502q63 0 96 29t33 81q0 49 -34 79t-95 30q-63 0 -97 -30t-34 -79q0 -52 33.5 -81t97.5 -29zM1511 121q72 0 113 36.5t41 94.5q0 57 -41 93t-113 36q-73 0 -113 -36t-40 -93q0 -58 40.5 -94.5t112.5 -36.5z" />
    <glyph glyph-name="fiveeighths" unicode="&#x215d;" horiz-adv-x="1863" 
d="M389 614q-158 0 -248.5 74.5t-93.5 198.5h184q6 -56 44.5 -90.5t105.5 -34.5q65 0 103 41t38 115q0 72 -36 110.5t-105 38.5q-87 0 -141 -63h-174l92 460h510v-147h-379l-37 -180v-2q73 63 182 63q124 0 199.5 -77.5t75.5 -205.5q0 -142 -90 -221.5t-230 -79.5zM596 0
h-211l928 1464h211zM1479 -18q-148 0 -243 66.5t-95 187.5q0 143 157 208v2q-118 66 -118 179q0 104 85 165.5t214 61.5q130 0 214.5 -61t84.5 -166q0 -111 -119 -179v-2q156 -69 156 -208q0 -122 -94.5 -188t-241.5 -66zM1479 502q63 0 96 29t33 81q0 49 -34 79t-95 30
q-63 0 -97 -30t-34 -79q0 -52 33.5 -81t97.5 -29zM1479 121q72 0 112.5 36.5t40.5 94.5q0 57 -40.5 93t-112.5 36q-73 0 -113.5 -36t-40.5 -93q0 -58 41 -94.5t113 -36.5z" />
    <glyph glyph-name="seveneighths" unicode="&#x215e;" horiz-adv-x="1685" 
d="M348 633h-190q0 195 83.5 389.5t196.5 292.5v2h-407v147h602v-135q-134 -111 -209.5 -302t-75.5 -394zM389 0h-211l928 1464h211zM1303 -18q-146 0 -241 66.5t-95 187.5q0 143 157 208v2q-118 66 -118 179q0 104 84.5 165.5t212.5 61.5q131 0 215 -61t84 -166
q0 -112 -117 -179v-2q155 -68 155 -208q0 -122 -94 -188t-243 -66zM1303 502q65 0 98 29t33 81q0 49 -34 79t-97 30q-62 0 -97 -30.5t-35 -78.5q0 -51 34.5 -80.5t97.5 -29.5zM1303 121q73 0 114 36t41 95q0 57 -41 93t-114 36q-72 0 -113 -36t-41 -93q0 -58 41.5 -94.5
t112.5 -36.5z" />
    <glyph glyph-name="arrowleft" unicode="&#x2190;" horiz-adv-x="1595" 
d="M735 197l-121 -115l-528 571l528 572l121 -113l-350 -375h1116v-166h-1116z" />
    <glyph glyph-name="arrowup" unicode="&#x2191;" horiz-adv-x="1228" 
d="M698 0h-168v1116l-372 -352l-115 123l571 528l572 -528l-115 -123l-373 352v-1116z" />
    <glyph glyph-name="arrowright" unicode="&#x2192;" horiz-adv-x="1595" 
d="M1511 653l-530 -571l-121 115l352 374h-1116v166h1116l-352 375l121 113z" />
    <glyph glyph-name="arrowdown" unicode="&#x2193;" horiz-adv-x="1230" 
d="M1188 446l-572 -528l-573 528l115 123l374 -352v1116h166v-1116l375 352z" />
    <glyph glyph-name="arrowboth" unicode="&#x2194;" horiz-adv-x="2373" 
d="M731 197l-121 -115l-530 571l530 572l121 -113l-352 -375h1614l-351 375l121 113l529 -572l-529 -571l-121 115l351 374h-1614z" />
    <glyph glyph-name="arrowupdn" unicode="&#x2195;" horiz-adv-x="1241" 
d="M1192 166l-571 -528l-572 528l115 123l373 -352v1374l-373 -353l-115 123l572 529l571 -529l-115 -123l-372 353v-1374l372 352z" />
    <glyph glyph-name="uni2196" unicode="&#x2196;" horiz-adv-x="1218" 
d="M1167 262l-116 -119l-787 791v-506l-160 -2v782h783l-2 -157h-508z" />
    <glyph glyph-name="uni2197" unicode="&#x2197;" horiz-adv-x="1218" 
d="M954 934l-786 -791l-117 119l791 789h-508v157h780v-782l-160 2v506z" />
    <glyph glyph-name="uni2198" unicode="&#x2198;" horiz-adv-x="1234" 
d="M1118 111h-782v157h508l-791 789l117 119l786 -791v506l162 2v-782z" />
    <glyph glyph-name="uni2199" unicode="&#x2199;" horiz-adv-x="1234" 
d="M901 111h-782v782l160 -2v-506l786 791l117 -119l-791 -789h508z" />
    <glyph glyph-name="partialdiff" unicode="&#x2202;" horiz-adv-x="1095" 
d="M479 -29q-198 0 -318 127.5t-120 345.5q0 135 59 254t167.5 193t240.5 74q207 0 307 -160q-48 222 -175.5 335t-342.5 150v174q183 -23 322.5 -94t226.5 -179t130.5 -245t43.5 -299q0 -106 -18.5 -202.5t-60.5 -184t-103.5 -151t-153.5 -101t-205 -37.5zM502 141
q146 0 229.5 103t83.5 260q0 126 -69.5 208.5t-190.5 82.5q-144 0 -228.5 -105t-84.5 -260q0 -133 72 -211t188 -78z" />
    <glyph glyph-name="emptyset" unicode="&#x2205;" horiz-adv-x="1708" 
d="M1559 1331l-132 -129q183 -202 183 -495q0 -214 -100.5 -383.5t-272 -261t-381.5 -91.5q-289 0 -494 166l-133 -133l-77 80l129 129q-181 203 -181 494q0 214 101 383.5t273 261.5t382 92q285 0 490 -166l135 135zM211 707q0 -242 151 -412l904 903q-177 135 -410 135
q-133 0 -251 -46t-205 -127t-138 -198.5t-51 -254.5zM856 82q175 0 321 78t233 222t87 325q0 241 -149 413l-904 -903q174 -135 412 -135z" />
    <glyph glyph-name="uni2206" unicode="&#x2206;" horiz-adv-x="1320" 
d="M528 1464h260l492 -1271v-193h-1239v193zM668 1255h-17l-385 -1062h785z" />
    <glyph glyph-name="product" unicode="&#x220f;" horiz-adv-x="1462" 
d="M367 -205h-222v1669h1174v-1669h-223v1479h-729v-1479z" />
    <glyph glyph-name="summation" unicode="&#x2211;" horiz-adv-x="1226" 
d="M1171 -205h-1108v197l555 653v4l-555 621v194h1088v-190h-829v-4l497 -561v-111l-512 -608v-4h864v-191z" />
    <glyph glyph-name="minus" unicode="&#x2212;" horiz-adv-x="1140" 
d="M1042 573h-944v191h944v-191z" />
    <glyph glyph-name="uni2219" unicode="&#x2219;" horiz-adv-x="624" 
d="M424 598h-223v221h223v-221z" />
    <glyph glyph-name="radical" unicode="&#x221a;" horiz-adv-x="1294" 
d="M688 -205h-201l-247 680h-154v191h295l205 -598h4l446 1396h221z" />
    <glyph glyph-name="infinity" unicode="&#x221e;" horiz-adv-x="1517" 
d="M395 262q-127 0 -216 93.5t-89 267.5q0 175 89 268.5t216 93.5q62 0 118 -18.5t102.5 -54t76 -65t66.5 -73.5h4q33 38 52.5 58.5t57.5 54t71.5 51.5t81.5 32.5t99 14.5q126 0 214.5 -93.5t88.5 -268.5q0 -174 -89 -267.5t-214 -93.5q-32 0 -64 7t-56 16t-52 27.5t-45 31
t-43 38.5t-36.5 37t-35 39.5t-30.5 35.5h-4q-80 -92 -112 -122q-120 -110 -251 -110zM424 442q37 0 72.5 15.5t66 44t52.5 54t47 58.5q5 7 8 11q-69 90 -105 122q-70 62 -141 62q-72 0 -114 -47.5t-42 -136.5t42 -136t114 -47zM1094 442q72 0 113.5 47t41.5 136t-41.5 136.5
t-113.5 47.5q-18 0 -34.5 -3t-34 -12.5t-30 -15t-30.5 -22.5t-25.5 -23t-26.5 -28t-22.5 -26t-22.5 -29l-20 -25q1 -1 18 -22.5t20.5 -25.5t20 -23.5t23 -25.5t22.5 -22t25.5 -21.5t26 -16.5t29.5 -15t29 -7.5t32 -3.5z" />
    <glyph glyph-name="integral" unicode="&#x222b;" horiz-adv-x="765" 
d="M195 -358q-104 0 -166 20v182q34 -10 73 -10q91 0 129.5 55.5t38.5 165.5v1112q0 160 75 253t226 93q102 0 164 -20v-182q-34 10 -73 10q-168 0 -168 -221v-1112q0 -160 -74.5 -253t-224.5 -93z" />
    <glyph glyph-name="approxequal" unicode="&#x2248;" horiz-adv-x="1191" 
d="M272 670h-157q0 53 11.5 97.5t37 83t73.5 61t113 22.5q76 0 239.5 -39t231.5 -39q60 0 84.5 22.5t24.5 69.5h155q0 -52 -11.5 -96.5t-37 -83t-73.5 -60.5t-113 -22q-74 0 -238 38t-233 38q-59 0 -83 -22t-24 -70zM272 322h-157q0 52 11.5 96.5t37 83t73.5 60.5t113 22
q76 0 239.5 -38t231.5 -38q61 0 85 22t24 70h155q0 -53 -11.5 -97.5t-37 -83t-73.5 -61t-113 -22.5q-74 0 -238 39t-233 39q-59 0 -83 -22.5t-24 -69.5z" />
    <glyph glyph-name="notequal" unicode="&#x2260;" horiz-adv-x="1128" 
d="M1032 926v-191h-352l-64 -133h416v-188h-504l-100 -213h-158l101 213h-262v188h350l63 133h-413v191h503l101 215h157l-100 -215h262z" />
    <glyph glyph-name="lessequal" unicode="&#x2264;" horiz-adv-x="1019" 
d="M922 420v-191l-836 324v213l836 326v-191l-670 -239v-5zM922 0h-836v166h836v-166z" />
    <glyph glyph-name="greaterequal" unicode="&#x2265;" horiz-adv-x="1019" 
d="M934 553l-836 -324v191l670 237v5l-670 239v191l836 -326v-213zM934 0h-836v166h836v-166z" />
    <glyph glyph-name="uni2266" unicode="&#x2266;" horiz-adv-x="1150" 
d="M1028 725v-193l-919 324v217l919 326v-193l-727 -239v-4zM1028 299h-919v180h919v-180zM1028 0h-919v180h919v-180z" />
    <glyph glyph-name="uni2267" unicode="&#x2267;" horiz-adv-x="1150" 
d="M1042 856l-919 -324v193l727 238v4l-727 239v193l919 -326v-217zM1042 299h-919v180h919v-180zM1042 0h-919v180h919v-180z" />
    <glyph glyph-name="uni2460" unicode="&#x2460;" horiz-adv-x="1726" 
d="M864 -29q-352 0 -560 205t-208 555q0 351 208 556.5t560 205.5t558 -205t206 -557q0 -350 -206 -555t-558 -205zM864 125q269 0 428.5 163.5t159.5 442.5q0 280 -159.5 444t-428.5 164q-272 0 -431 -163.5t-159 -444.5q0 -280 159 -443t431 -163zM799 317v574
q-41 -29 -176 -29v142q202 3 208 145h152v-832h-184z" />
    <glyph glyph-name="uni2461" unicode="&#x2461;" horiz-adv-x="1726" 
d="M864 -29q-352 0 -560 205t-208 555q0 351 208 556.5t560 205.5t558 -205t206 -557q0 -350 -206 -555t-558 -205zM864 125q269 0 428.5 163.5t159.5 442.5q0 280 -159.5 444t-428.5 164q-272 0 -431 -163.5t-159 -444.5q0 -280 159 -443t431 -163zM1174 317h-625
q0 74 23.5 131t63.5 99.5t112 95.5q25 19 70.5 49t69.5 48.5t52 45.5t40.5 56.5t12.5 64.5q0 52 -27.5 83.5t-86.5 31.5q-140 0 -140 -174h-174q0 145 81 233t239 88q134 0 213.5 -65t79.5 -184q0 -46 -14.5 -88t-32.5 -70.5t-54.5 -62.5t-59.5 -51t-69 -50
q-112 -75 -145 -129v-2h371v-150z" />
    <glyph glyph-name="uni2462" unicode="&#x2462;" horiz-adv-x="1726" 
d="M864 -29q-352 0 -560 205t-208 555q0 351 208 556.5t560 205.5t558 -205t206 -557q0 -350 -206 -555t-558 -205zM864 125q269 0 428.5 163.5t159.5 442.5q0 280 -159.5 444t-428.5 164q-272 0 -431 -163.5t-159 -444.5q0 -280 159 -443t431 -163zM881 297
q-169 0 -260 80.5t-91 228.5h177q0 -80 37.5 -121t123.5 -41q142 0 142 115q0 121 -154 121h-55v131h51q133 0 133 102q0 51 -30 79t-87 28q-69 0 -104 -33t-35 -94h-174q0 122 85.5 198t238.5 76q122 0 206 -62.5t84 -168.5q0 -121 -122 -180v-2q149 -46 149 -203
q0 -121 -86 -187.5t-229 -66.5z" />
    <glyph glyph-name="uni2463" unicode="&#x2463;" horiz-adv-x="1726" 
d="M864 -29q-352 0 -560 205t-208 555q0 351 208 556.5t560 205.5t558 -205t206 -557q0 -350 -206 -555t-558 -205zM864 125q269 0 428.5 163.5t159.5 442.5q0 280 -159.5 444t-428.5 164q-272 0 -431 -163.5t-159 -444.5q0 -280 159 -443t431 -163zM1069 315h-180v181h-383
v174l383 477h180v-504h121v-147h-121v-181zM889 942l-242 -299h242v299z" />
    <glyph glyph-name="uni2464" unicode="&#x2464;" horiz-adv-x="1726" 
d="M864 -29q-352 0 -560 205t-208 555q0 351 208 556.5t560 205.5t558 -205t206 -557q0 -350 -206 -555t-558 -205zM864 125q269 0 428.5 163.5t159.5 442.5q0 280 -159.5 444t-428.5 164q-272 0 -431 -163.5t-159 -444.5q0 -280 159 -443t431 -163zM877 297q-158 0 -249 74
t-96 198h187q6 -56 44 -90.5t103 -34.5q67 0 105.5 41t38.5 115q0 72 -36.5 111t-105.5 39q-85 0 -143 -64h-172l92 461h510v-148h-379l-39 -180v-2q77 64 185 64q122 0 198 -77.5t76 -205.5q0 -142 -89.5 -221.5t-229.5 -79.5z" />
    <glyph glyph-name="uni2465" unicode="&#x2465;" horiz-adv-x="1726" 
d="M864 -29q-352 0 -560 205t-208 555q0 351 208 556.5t560 205.5t558 -205t206 -557q0 -350 -206 -555t-558 -205zM864 125q269 0 428.5 163.5t159.5 442.5q0 280 -159.5 444t-428.5 164q-272 0 -431 -163.5t-159 -444.5q0 -280 159 -443t431 -163zM877 297
q-95 0 -164 33.5t-108 94.5t-57 135t-18 165q0 212 91.5 327t252.5 115q120 0 201 -64.5t99 -164.5h-183q-20 90 -119 90q-162 0 -165 -225v-12l4 -3q31 40 83.5 64.5t118.5 24.5q128 0 206.5 -79.5t78.5 -203.5q0 -131 -87 -214t-234 -83zM870 438q70 0 110 41.5t40 106.5
q0 68 -38 109.5t-105 41.5q-72 0 -114 -42.5t-42 -108.5t40 -107t109 -41z" />
    <glyph glyph-name="uni2466" unicode="&#x2466;" horiz-adv-x="1726" 
d="M864 -29q-352 0 -560 205t-208 555q0 351 208 556.5t560 205.5t558 -205t206 -557q0 -350 -206 -555t-558 -205zM864 125q269 0 428.5 163.5t159.5 442.5q0 280 -159.5 444t-428.5 164q-272 0 -431 -163.5t-159 -444.5q0 -280 159 -443t431 -163zM881 293h-191
q0 194 84 388.5t197 293.5v2h-408v147h602v-135q-134 -111 -209 -302t-75 -394z" />
    <glyph glyph-name="uni2467" unicode="&#x2467;" horiz-adv-x="1726" 
d="M864 -29q-352 0 -560 205t-208 555q0 351 208 556.5t560 205.5t558 -205t206 -557q0 -350 -206 -555t-558 -205zM864 125q269 0 428.5 163.5t159.5 442.5q0 280 -159.5 444t-428.5 164q-272 0 -431 -163.5t-159 -444.5q0 -280 159 -443t431 -163zM862 297
q-147 0 -241.5 66t-94.5 188q0 144 158 209v2q-119 66 -119 178q0 104 84.5 165.5t212.5 61.5q131 0 215 -61t84 -166q0 -111 -117 -178v-2q156 -70 156 -209q0 -122 -94.5 -188t-243.5 -66zM862 817q65 0 98 29.5t33 81.5q0 49 -34 78.5t-97 29.5q-62 0 -96.5 -30
t-34.5 -78q0 -52 34 -81.5t97 -29.5zM862 436q73 0 113.5 36t40.5 95q0 57 -40.5 93t-113.5 36q-72 0 -112.5 -36t-40.5 -93q0 -58 40.5 -94.5t112.5 -36.5z" />
    <glyph glyph-name="uni2468" unicode="&#x2468;" horiz-adv-x="1726" 
d="M864 -29q-352 0 -560 205t-208 555q0 351 208 556.5t560 205.5t558 -205t206 -557q0 -350 -206 -555t-558 -205zM864 125q269 0 428.5 163.5t159.5 442.5q0 280 -159.5 444t-428.5 164q-272 0 -431 -163.5t-159 -444.5q0 -280 159 -443t431 -163zM852 297q-119 0 -200 65
t-99 164h186q20 -90 117 -90q85 0 123.5 60.5t38.5 158.5v15h-2q-73 -84 -203 -84q-125 0 -204 79t-79 203q0 132 87 215.5t233 83.5q95 0 164.5 -34t108.5 -95.5t57 -136t18 -166.5q0 -209 -92.5 -323.5t-253.5 -114.5zM854 727q72 0 114 43t42 109t-41 106.5t-113 40.5
q-70 0 -108.5 -40.5t-38.5 -108.5q0 -67 39 -108.5t106 -41.5z" />
    <glyph glyph-name="uni24EA" unicode="&#x24ea;" horiz-adv-x="1726" 
d="M864 -29q-352 0 -560 205t-208 555q0 351 208 556.5t560 205.5t558 -205t206 -557q0 -350 -206 -555t-558 -205zM864 125q269 0 428.5 163.5t159.5 442.5q0 280 -159.5 444t-428.5 164q-272 0 -431 -163.5t-159 -444.5q0 -280 159 -443t431 -163zM864 299
q-89 0 -158.5 34.5t-112 94.5t-64 137t-21.5 166t21.5 166t64 138t112 95.5t158.5 34.5q90 0 160 -35t112 -96t63.5 -137.5t21.5 -165.5t-21.5 -165.5t-63.5 -137t-112 -95t-160 -34.5zM864 444q64 0 103 38.5t53 99t14 149.5t-14 150t-53 100t-103 39q-172 0 -172 -289
q0 -136 39 -211.5t133 -75.5z" />
    <glyph glyph-name="upblock" unicode="&#x2580;" horiz-adv-x="1708" 
d="M1585 731h-1464v733h1464v-733z" />
    <glyph glyph-name="dnblock" unicode="&#x2584;" horiz-adv-x="1712" 
d="M1587 0h-1464v733h1464v-733z" />
    <glyph glyph-name="block" unicode="&#x2588;" horiz-adv-x="1755" 
d="M1610 0h-1465v1464h1465v-1464z" />
    <glyph glyph-name="filledbox" unicode="&#x25a0;" horiz-adv-x="1755" 
d="M1610 0h-1465v1464h1465v-1464z" />
    <glyph glyph-name="uni25A1" unicode="&#x25a1;" horiz-adv-x="1755" 
d="M1610 0h-1465v1464h1465v-1464zM328 1282v-1100h1099v1100h-1099z" />
    <glyph glyph-name="uni25AA" unicode="&#x25aa;" horiz-adv-x="704" 
d="M592 416h-479v479h479v-479z" />
    <glyph glyph-name="uni25AB" unicode="&#x25ab;" horiz-adv-x="786" 
d="M674 375h-561v561h561v-561zM295 754v-197h197v197h-197z" />
    <glyph glyph-name="triagup" unicode="&#x25b2;" horiz-adv-x="1691" 
d="M1665 0h-1638l819 1464z" />
    <glyph glyph-name="triagrt" unicode="&#x25ba;" horiz-adv-x="1701" 
d="M1634 731l-1464 -819v1638z" />
    <glyph glyph-name="triagdn" unicode="&#x25bc;" horiz-adv-x="1693" 
d="M1667 1464l-819 -1464l-819 1464h1638z" />
    <glyph glyph-name="triaglf" unicode="&#x25c4;" horiz-adv-x="1701" 
d="M1534 1550v-1638l-1464 819z" />
    <glyph glyph-name="lozenge" unicode="&#x25ca;" horiz-adv-x="1202" 
d="M711 0h-219l-414 733l414 731h217l413 -733zM301 735l299 -545h4l297 537l-301 547h-4z" />
    <glyph glyph-name="circle" unicode="&#x25cb;" horiz-adv-x="1726" 
d="M864 -29q-352 0 -560 205t-208 555q0 351 208 556.5t560 205.5t558 -205t206 -557q0 -350 -206 -555t-558 -205zM864 125q269 0 428.5 163.5t159.5 442.5q0 280 -159.5 444t-428.5 164q-272 0 -431 -163.5t-159 -444.5q0 -280 159 -443t431 -163z" />
    <glyph glyph-name="uni25CF" unicode="&#x25cf;" horiz-adv-x="1714" 
d="M858 -29q-155 0 -296.5 60t-244 162t-163 242.5t-60.5 295.5t60.5 296t163 243t244 162.5t296.5 60.5t295.5 -60.5t242.5 -162.5t162 -243t60 -296t-60 -295.5t-162 -242.5t-242.5 -162t-295.5 -60z" />
    <glyph glyph-name="uni2B0E" unicode="&#x2b0e;" horiz-adv-x="1345" 
d="M793 299l366 346l113 -123l-572 -528l-571 528l115 123l366 -346v588h-563v162h746v-750z" />
    <glyph glyph-name="uni2B0F" unicode="&#x2b0f;" horiz-adv-x="1349" 
d="M131 526l571 529l572 -529l-115 -123l-364 347v-750h-746v162h561v588l-364 -347z" />
    <glyph glyph-name="uni2B10" unicode="&#x2b10;" horiz-adv-x="1347" 
d="M1296 1040v-161h-561v-588l367 346l112 -123l-571 -528l-571 528l114 123l367 -346v749h743z" />
    <glyph glyph-name="uni2B11" unicode="&#x2b11;" horiz-adv-x="1347" 
d="M737 745v-585h561v-164h-745v749l-365 -344l-114 121l571 529l572 -529l-115 -121z" />
    <glyph glyph-name="uni2BA0" unicode="&#x2ba0;" horiz-adv-x="1234" 
d="M965 608v563h161v-745h-747l344 -367l-121 -112l-530 571l530 572l121 -115l-344 -367h586z" />
    <glyph glyph-name="uni2BA1" unicode="&#x2ba1;" horiz-adv-x="1236" 
d="M510 979l121 115l530 -572l-530 -571l-121 115l346 366h-750v744h162v-562h588z" />
    <glyph glyph-name="uni2BA2" unicode="&#x2ba2;" horiz-adv-x="1234" 
d="M725 1004l-344 -367h749v-746h-161v564h-588l344 -367l-121 -115l-528 572l528 571z" />
    <glyph glyph-name="uni2BA3" unicode="&#x2ba3;" horiz-adv-x="1234" 
d="M508 1004l123 112l528 -571l-528 -572l-123 115l346 367h-588v-564h-162v746h750z" />
    <glyph glyph-name="uni2BA4" unicode="&#x2ba4;" horiz-adv-x="1347" 
d="M735 745v-587h563v-162h-745v749l-367 -346l-114 123l573 529l572 -529l-115 -123z" />
    <glyph glyph-name="uni2BA5" unicode="&#x2ba5;" horiz-adv-x="1349" 
d="M131 526l571 529l572 -529l-115 -123l-364 347v-750h-746v162h561v588l-364 -347z" />
    <glyph glyph-name="uni2BA6" unicode="&#x2ba6;" horiz-adv-x="1347" 
d="M1296 1040v-161h-561v-588l367 346l112 -123l-571 -528l-571 528l114 123l367 -346v749h743z" />
    <glyph glyph-name="uni2BA7" unicode="&#x2ba7;" horiz-adv-x="1345" 
d="M793 299l366 346l113 -123l-572 -528l-571 528l115 123l366 -346v588h-563v162h746v-750z" />
    <glyph glyph-name="fi" unicode="&#xfb01;" horiz-adv-x="1024" 
d="M186 1044v127q0 173 67.5 240.5t203.5 67.5q34 0 127 -13v-161q-61 6 -86 6q-64 0 -86.5 -26.5t-22.5 -108.5v-132h195v-165h-195v-879h-203v879h-143v165h143zM696 1231v217h228v-217h-228zM911 0h-200v1044h200v-1044z" />
    <glyph glyph-name="fl" unicode="&#xfb02;" horiz-adv-x="1024" 
d="M186 1044v127q0 173 67.5 240.5t203.5 67.5q34 0 127 -13v-161q-61 6 -86 6q-64 0 -86.5 -26.5t-22.5 -108.5v-132h195v-165h-195v-879h-203v879h-143v165h143zM711 0v1464h200v-1464h-200z" />
    <glyph glyph-name="uniFEFF" unicode="&#xfeff;" 
 />
    <glyph glyph-name="u1F150" unicode="&#x1f150;" horiz-adv-x="1204" 
d="M602 561q-197 0 -333 134t-136 333q0 132 63 240t170 168.5t236 60.5t236 -60.5t170 -168.5t63 -240q0 -199 -136 -333t-333 -134z" />
    <glyph glyph-name="Adieresis.ss02" horiz-adv-x="1351" 
d="M506 1642q-53 0 -84 33t-31 80q0 49 30.5 82t84.5 33t84.5 -33t30.5 -82q0 -47 -31 -80t-84 -33zM844 1642q-53 0 -84 33t-31 80q0 49 30.5 82t84.5 33t84 -33t30 -82q0 -47 -30.5 -80t-83.5 -33zM246 0h-238l545 1464h244l549 -1464h-246l-121 352h-612zM672 1255
l-238 -712h481l-239 712h-4z" />
    <glyph glyph-name="Cdotaccent.ss02" horiz-adv-x="1445" 
d="M760 1640q-53 0 -85 33.5t-32 81.5t32 81.5t85 33.5q55 0 86 -33.5t31 -81.5t-31 -81.5t-86 -33.5zM758 -29q-204 0 -360.5 98t-240 270.5t-83.5 391.5q0 220 84 393t241 271t361 98q134 0 247.5 -41t192 -112.5t127.5 -166.5t62 -206h-236q-9 48 -24.5 90t-46.5 88
t-72.5 78.5t-107 53.5t-146.5 21q-117 0 -205.5 -46.5t-140 -127.5t-76.5 -179t-25 -212q0 -91 15 -172t49.5 -154t85 -126t127 -84t170.5 -31q82 0 148.5 21t110 56t74 83.5t45.5 99t19 106.5h236q-12 -122 -61 -225t-128 -177.5t-192.5 -116.5t-249.5 -42z" />
    <glyph glyph-name="Edieresis.ss02" horiz-adv-x="1267" 
d="M498 1642q-53 0 -84 33t-31 80q0 49 30.5 82t84.5 33t84 -33t30 -82q0 -47 -30.5 -80t-83.5 -33zM836 1642q-53 0 -84 33t-31 80q0 49 30.5 82t84.5 33t84 -33t30 -82q0 -47 -30.5 -80t-83.5 -33zM1202 0h-1057v1464h1037v-194h-811v-416h710v-195h-710v-464h831v-195z
" />
    <glyph glyph-name="Edotaccent.ss02" horiz-adv-x="1267" 
d="M666 1640q-53 0 -85 33.5t-32 81.5t32 81.5t85 33.5q55 0 85.5 -33.5t30.5 -81.5t-30.5 -81.5t-85.5 -33.5zM1202 0h-1057v1464h1037v-194h-811v-416h710v-195h-710v-464h831v-195z" />
    <glyph glyph-name="uni0122.ss02" horiz-adv-x="1509" 
d="M735 -29q-155 0 -280.5 57t-208 158.5t-126.5 241t-44 305.5q0 219 83.5 391.5t240.5 270.5t362 98q273 0 431.5 -130.5t195.5 -350.5h-236q-29 139 -130 212.5t-263 73.5q-117 0 -206 -49t-140.5 -131.5t-77 -180t-25.5 -204.5q0 -88 12 -165.5t43.5 -153t79.5 -129
t125.5 -86.5t176.5 -33q120 0 219 51.5t157.5 146.5t59.5 214h-432v188h661v-766h-156l-55 203h-4q-79 -116 -189.5 -174t-273.5 -58zM657 -500v88q62 11 100 38t38 69q-59 -18 -104.5 8.5t-45.5 89.5q0 53 32.5 83t86.5 30q66 0 99.5 -42.5t33.5 -115.5q0 -91 -58 -158
t-182 -90z" />
    <glyph glyph-name="Gdotaccent.ss02" horiz-adv-x="1509" 
d="M754 1640q-53 0 -85 33.5t-32 81.5t32 81.5t85 33.5q55 0 85.5 -33.5t30.5 -81.5t-30.5 -81.5t-85.5 -33.5zM735 -29q-155 0 -280.5 57t-208 158.5t-126.5 241t-44 305.5q0 219 83.5 391.5t240.5 270.5t362 98q273 0 431.5 -130.5t195.5 -350.5h-236q-29 139 -130 212.5
t-263 73.5q-117 0 -206 -49t-140.5 -131.5t-77 -180t-25.5 -204.5q0 -88 12 -165.5t43.5 -153t79.5 -129t125.5 -86.5t176.5 -33q120 0 219 51.5t157.5 146.5t59.5 214h-432v188h661v-766h-156l-55 203h-4q-79 -116 -189.5 -174t-273.5 -58z" />
    <glyph glyph-name="Idieresis.ss02" horiz-adv-x="516" 
d="M88 1642q-53 0 -84 33t-31 80q0 49 30.5 82t84.5 33t84.5 -33t30.5 -82q0 -47 -31 -80t-84 -33zM426 1642q-53 0 -84 33t-31 80q0 49 30.5 82t84.5 33t84.5 -33t30.5 -82q0 -47 -31 -80t-84 -33zM371 0h-226v1464h226v-1464z" />
    <glyph glyph-name="Idotaccent.ss02" horiz-adv-x="516" 
d="M258 1640q-53 0 -85 33.5t-32 81.5t32 81.5t85 33.5q55 0 86 -33.5t31 -81.5t-31 -81.5t-86 -33.5zM371 0h-226v1464h226v-1464z" />
    <glyph glyph-name="uni0136.ss02" horiz-adv-x="1333" 
d="M1317 1464l-574 -610l621 -854h-264l-496 705l-233 -248v-457h-226v1464h226v-741l694 741h252zM707 -94q66 0 99.5 -42.5t33.5 -115.5q0 -91 -58 -158t-182 -90v88q61 11 99 38t38 69q-59 -18 -104 8.5t-45 89.5q0 53 32.5 83t86.5 30z" />
    <glyph glyph-name="uni013B.ss02" horiz-adv-x="1142" 
d="M1112 0h-967v1464h226v-1269h741v-195zM514 -500v88q61 11 99 38t38 69q-59 -18 -104 8.5t-45 89.5q0 53 32.5 83t86.5 30q66 0 99.5 -42.5t33.5 -115.5q0 -91 -58 -158t-182 -90z" />
    <glyph glyph-name="uni0145.ss02" horiz-adv-x="1460" 
d="M371 0h-226v1464h258l680 -1126h4v1126h228v-1464h-258l-682 1126h-4v-1126zM616 -500v88q62 11 100 38t38 69q-59 -18 -104.5 8.5t-45.5 89.5q0 53 32.5 83t86.5 30q66 0 99.5 -42.5t33.5 -115.5q0 -91 -58 -158t-182 -90z" />
    <glyph glyph-name="Odieresis.ss02" horiz-adv-x="1585" 
d="M623 1642q-53 0 -84 33t-31 80q0 49 30.5 82t84.5 33t84 -33t30 -82q0 -47 -30.5 -80t-83.5 -33zM961 1642q-53 0 -84 33t-31 80q0 49 30.5 82t84.5 33t84 -33t30 -82q0 -47 -30.5 -80t-83.5 -33zM793 -29q-215 0 -379.5 98.5t-252 271.5t-87.5 392t87.5 391.5t252 270.5
t379.5 98t379 -98t251.5 -270.5t87.5 -391.5q0 -164 -51 -304.5t-143 -241.5t-227.5 -158.5t-296.5 -57.5zM793 166q101 0 183 30t137 82.5t92.5 125t54 154.5t16.5 175q0 117 -27.5 216t-83.5 178.5t-151.5 125t-220.5 45.5t-220.5 -45.5t-152 -125t-84 -178.5t-27.5 -216
q0 -93 17 -175t54 -154.5t92.5 -125t137.5 -82.5t183 -30z" />
    <glyph glyph-name="uni0156.ss02" horiz-adv-x="1343" 
d="M371 0h-226v1464h611q242 0 369.5 -109.5t127.5 -312.5q0 -137 -75.5 -233.5t-198.5 -124.5v-4q80 -15 134 -69.5t76 -125.5t34.5 -152t14 -149t10 -116t26.5 -54v-14h-242q-13 12 -17.5 51t-5.5 89.5t-3.5 110t-16.5 116t-39.5 103t-77 75t-124.5 28.5h-377v-573z
M371 768h336q155 0 237 66t82 192q0 122 -75 183t-240 61h-340v-502zM578 -500v88q61 11 99 38t38 69q-59 -18 -104.5 8.5t-45.5 89.5q0 53 32.5 83t86.5 30q66 0 99.5 -42.5t33.5 -115.5q0 -91 -57.5 -158t-181.5 -90z" />
    <glyph glyph-name="uni0218.ss02" horiz-adv-x="1294" 
d="M696 -29q-282 0 -458.5 139.5t-188.5 383.5h234q13 -156 111.5 -243t295.5 -87q307 0 307 235q0 52 -16.5 90.5t-43.5 64t-77 46.5t-102 35.5t-133 35.5q-24 6 -37 9q-62 16 -100 27.5t-94.5 32.5t-92 41t-76.5 52t-64.5 68t-39 85.5t-15.5 107.5q0 189 137 294t375 105
q252 0 404.5 -122.5t169.5 -342.5h-234q-19 136 -100 204t-237 68q-138 0 -208.5 -49.5t-70.5 -144.5q0 -26 6 -49t14 -41t25.5 -34.5t31.5 -28t41 -23.5t45 -19.5t53 -17.5t54.5 -15t59.5 -15l12 -3q216 -55 305 -95q174 -78 223 -217q21 -61 21 -136q0 -198 -136 -319.5
t-401 -121.5zM598 -500v88q61 11 99 38t38 69q-59 -18 -104 8.5t-45 89.5q0 53 32.5 83t86.5 30q66 0 99.5 -42.5t33.5 -115.5q0 -91 -58 -158t-182 -90z" />
    <glyph glyph-name="uni021A.ss02" horiz-adv-x="1234" 
d="M731 0h-227v1270h-473v194h1173v-194h-473v-1270zM502 -500v88q61 11 99 38t38 69q-59 -18 -104.5 8.5t-45.5 89.5q0 53 32.5 83t86.5 30q66 0 99.5 -42.5t33.5 -115.5q0 -91 -57.5 -158t-181.5 -90z" />
    <glyph glyph-name="Udieresis.ss02" horiz-adv-x="1415" 
d="M539 1642q-53 0 -84 33t-31 80q0 49 30.5 82t84.5 33t84 -33t30 -82q0 -47 -30.5 -80t-83.5 -33zM877 1642q-53 0 -84 33t-31 80q0 49 30.5 82t84.5 33t84 -33t30 -82q0 -47 -30.5 -80t-83.5 -33zM707 -29q-290 0 -431 140t-141 387v966h225v-966q0 -169 86.5 -250.5
t260.5 -81.5q175 0 260.5 81t85.5 251v966h227v-966q0 -247 -141 -387t-432 -140z" />
    <glyph glyph-name="Wdieresis.ss02" horiz-adv-x="1898" 
d="M780 1642q-53 0 -83.5 33t-30.5 80q0 49 30 82t84 33t84.5 -33t30.5 -82q0 -47 -31 -80t-84 -33zM1118 1642q-53 0 -83.5 33t-30.5 80q0 49 30 82t84 33t84.5 -33t30.5 -82q0 -47 -31 -80t-84 -33zM637 0h-244l-364 1464h235l258 -1153h4l303 1153h238l305 -1153h4
l258 1153h236l-367 -1464h-241l-312 1178h-4z" />
    <glyph glyph-name="Ydieresis.ss02" horiz-adv-x="1304" 
d="M485 1642q-53 0 -83.5 33t-30.5 80q0 49 30 82t84 33t84.5 -33t30.5 -82q0 -47 -31 -80t-84 -33zM823 1642q-53 0 -83.5 33t-30.5 80q0 49 30 82t84 33t84.5 -33t30.5 -82q0 -47 -31 -80t-84 -33zM766 0h-227v586l-525 878h244l393 -700h4l394 700h241l-524 -878v-586z
" />
    <glyph glyph-name="Zdotaccent.ss02" horiz-adv-x="1239" 
d="M618 1640q-53 0 -84.5 33.5t-31.5 81.5t31.5 81.5t84.5 33.5q55 0 86 -33.5t31 -81.5t-31 -81.5t-86 -33.5zM1184 0h-1139v195l842 1071v4h-801v194h1077v-194l-841 -1071v-4h862v-195z" />
    <glyph glyph-name="i.latn_TRK" horiz-adv-x="425" 
d="M326 1231h-226v217h226v-217zM313 0h-200v1044h200v-1044z" />
    <glyph glyph-name="a.ss01" horiz-adv-x="1167" 
d="M854 918v126h201v-1044h-201v123h-4q-117 -152 -322 -152q-204 0 -336.5 149t-132.5 402t132.5 403t336.5 150q213 0 322 -157h4zM561 137q135 0 213 104t78 281q0 179 -78 282t-213 103q-95 0 -162.5 -54.5t-99 -139.5t-31.5 -191t31.5 -191t99 -139.5t162.5 -54.5z" />
    <glyph glyph-name="aacute.ss01" horiz-adv-x="1167" 
d="M592 1485h235l-196 -283h-160zM854 918v126h201v-1044h-201v123h-4q-117 -152 -322 -152q-204 0 -336.5 149t-132.5 402t132.5 403t336.5 150q213 0 322 -157h4zM561 137q135 0 213 104t78 281q0 179 -78 282t-213 103q-95 0 -162.5 -54.5t-99 -139.5t-31.5 -191
t31.5 -191t99 -139.5t162.5 -54.5z" />
    <glyph glyph-name="abreve.ss01" horiz-adv-x="1167" 
d="M569 1182q-121 0 -196.5 72.5t-79.5 209.5h137q4 -73 38 -107t101 -34q66 0 100 34t38 107h137q-6 -134 -80 -208t-195 -74zM854 918v126h201v-1044h-201v123h-4q-117 -152 -322 -152q-204 0 -336.5 149t-132.5 402t132.5 403t336.5 150q213 0 322 -157h4zM561 137
q135 0 213 104t78 281q0 179 -78 282t-213 103q-95 0 -162.5 -54.5t-99 -139.5t-31.5 -191t31.5 -191t99 -139.5t162.5 -54.5z" />
    <glyph glyph-name="acircumflex.ss01" horiz-adv-x="1167" 
d="M569 1384h-4l-110 -182h-191l195 283h217l194 -283h-192zM854 918v126h201v-1044h-201v123h-4q-117 -152 -322 -152q-204 0 -336.5 149t-132.5 402t132.5 403t336.5 150q213 0 322 -157h4zM561 137q135 0 213 104t78 281q0 179 -78 282t-213 103q-95 0 -162.5 -54.5
t-99 -139.5t-31.5 -191t31.5 -191t99 -139.5t162.5 -54.5z" />
    <glyph glyph-name="adieresis.ss01" horiz-adv-x="1167" 
d="M281 1448h227v-217h-227v217zM625 1448h227v-217h-227v217zM854 918v126h201v-1044h-201v123h-4q-117 -152 -322 -152q-204 0 -336.5 149t-132.5 402t132.5 403t336.5 150q213 0 322 -157h4zM561 137q135 0 213 104t78 281q0 179 -78 282t-213 103q-95 0 -162.5 -54.5
t-99 -139.5t-31.5 -191t31.5 -191t99 -139.5t162.5 -54.5z" />
    <glyph glyph-name="agrave.ss01" horiz-adv-x="1167" 
d="M535 1485l104 -283h-158l-172 283h226zM854 918v126h201v-1044h-201v123h-4q-117 -152 -322 -152q-204 0 -336.5 149t-132.5 402t132.5 403t336.5 150q213 0 322 -157h4zM561 137q135 0 213 104t78 281q0 179 -78 282t-213 103q-95 0 -162.5 -54.5t-99 -139.5t-31.5 -191
t31.5 -191t99 -139.5t162.5 -54.5z" />
    <glyph glyph-name="amacron.ss01" horiz-adv-x="1167" 
d="M297 1389h541v-158h-541v158zM854 918v126h201v-1044h-201v123h-4q-117 -152 -322 -152q-204 0 -336.5 149t-132.5 402t132.5 403t336.5 150q213 0 322 -157h4zM561 137q135 0 213 104t78 281q0 179 -78 282t-213 103q-95 0 -162.5 -54.5t-99 -139.5t-31.5 -191
t31.5 -191t99 -139.5t162.5 -54.5z" />
    <glyph glyph-name="aogonek.ss01" horiz-adv-x="1167" 
d="M967 -223q44 0 96 18v-137q-68 -20 -141 -20q-95 0 -146 41.5t-51 113.5q0 66 46 121.5t108 85.5h-25v123h-4q-117 -152 -322 -152q-204 0 -336.5 149t-132.5 402t132.5 403t336.5 150q213 0 322 -157h4v126h201v-1044h-35q-127 -100 -127 -164q0 -28 21 -43.5t53 -15.5z
M561 137q135 0 213 104t78 281q0 179 -78 282t-213 103q-95 0 -162.5 -54.5t-99 -139.5t-31.5 -191t31.5 -191t99 -139.5t162.5 -54.5z" />
    <glyph glyph-name="aring.ss01" horiz-adv-x="1167" 
d="M565 1137q-81 0 -134.5 52t-53.5 136t53.5 136t134.5 52q84 0 137.5 -52t53.5 -136t-53.5 -136t-137.5 -52zM565 1423q-40 0 -66 -27.5t-26 -70.5q0 -44 26 -71t66 -27q43 0 70 27t27 71q0 43 -27 70.5t-70 27.5zM854 918v126h201v-1044h-201v123h-4q-117 -152 -322 -152
q-204 0 -336.5 149t-132.5 402t132.5 403t336.5 150q213 0 322 -157h4zM561 137q135 0 213 104t78 281q0 179 -78 282t-213 103q-95 0 -162.5 -54.5t-99 -139.5t-31.5 -191t31.5 -191t99 -139.5t162.5 -54.5z" />
    <glyph glyph-name="atilde.ss01" horiz-adv-x="1167" 
d="M451 1286q-54 0 -54 -72h-135q0 109 45 163.5t113 54.5q57 0 145 -38t113 -38q51 0 51 71h135q0 -111 -44 -164t-113 -53q-56 0 -144 38t-112 38zM854 918v126h201v-1044h-201v123h-4q-117 -152 -322 -152q-204 0 -336.5 149t-132.5 402t132.5 403t336.5 150
q213 0 322 -157h4zM561 137q135 0 213 104t78 281q0 179 -78 282t-213 103q-95 0 -162.5 -54.5t-99 -139.5t-31.5 -191t31.5 -191t99 -139.5t162.5 -54.5z" />
    <glyph glyph-name="adieresis.ss02" horiz-adv-x="1087" 
d="M391 1223q-53 0 -84 32.5t-31 79.5q0 49 30.5 82t84.5 33t84.5 -33t30.5 -82q0 -47 -31 -79.5t-84 -32.5zM729 1223q-53 0 -84 32.5t-31 79.5q0 49 30.5 82t84.5 33t84.5 -33t30.5 -82q0 -47 -31 -79.5t-84 -32.5zM401 -29q-156 0 -249 82.5t-93 216.5q0 68 21.5 121.5
t57 89.5t93.5 64t119 45t146 33q52 10 78 15.5t62.5 15t54 19.5t36.5 24.5t26 34t7 44.5q0 139 -199 139q-133 0 -186.5 -44.5t-61.5 -151.5h-204q8 162 120.5 260t339.5 98q84 0 151.5 -19t122 -59.5t84 -112t29.5 -169.5v-479q0 -60 11 -87.5t39 -27.5q12 0 24 2v-123
q-52 -12 -102 -12q-78 0 -117.5 35t-48.5 122h-4q-110 -176 -357 -176zM446 133q140 0 227 71.5t87 203.5v149q-36 -34 -230 -76q-141 -28 -201.5 -72t-60.5 -124q0 -152 178 -152z" />
    <glyph glyph-name="cdotaccent.ss02" horiz-adv-x="1087" 
d="M569 1221q-53 0 -84.5 33t-31.5 81t31.5 81.5t84.5 33.5q55 0 86 -33.5t31 -81.5t-31 -81t-86 -33zM571 -31q-232 0 -373 153t-141 400t140.5 400t371.5 153q197 0 324.5 -114t146.5 -295h-206q-3 35 -12.5 67.5t-30 65t-49 56.5t-72.5 39t-99 15q-80 0 -141 -32
t-95.5 -88t-51.5 -123t-17 -144t17 -143.5t51.5 -122t95 -87.5t141.5 -32q69 0 120.5 21.5t80.5 59.5t43.5 79t18.5 90h206q-11 -182 -140.5 -300t-328.5 -118z" />
    <glyph glyph-name="edieresis.ss02" horiz-adv-x="1128" 
d="M395 1227q-53 0 -83.5 32.5t-30.5 79.5q0 49 30 82t84 33t84.5 -33t30.5 -82q0 -47 -31 -79.5t-84 -32.5zM733 1227q-53 0 -84 32.5t-31 79.5q0 49 30.5 82t84.5 33t84.5 -33t30.5 -82q0 -47 -31 -79.5t-84 -32.5zM1071 545q0 -60 -2 -76h-803q2 -90 36 -164.5
t106.5 -123t171.5 -48.5q65 0 117 19t83 50t48.5 60.5t25.5 59.5h205q-44 -160 -166 -256.5t-318 -96.5q-162 0 -280 72.5t-177 197t-59 285.5q0 249 139.5 401t376.5 152q235 0 365.5 -143t130.5 -389zM266 627h596q0 125 -80.5 205.5t-212.5 80.5q-126 0 -210 -78.5
t-93 -207.5z" />
    <glyph glyph-name="edotaccent.ss02" horiz-adv-x="1128" 
d="M565 1225q-53 0 -84.5 33t-31.5 81t31.5 81.5t84.5 33.5q55 0 86 -33.5t31 -81.5t-31 -81t-86 -33zM1071 545q0 -60 -2 -76h-803q2 -90 36 -164.5t106.5 -123t171.5 -48.5q65 0 117 19t83 50t48.5 60.5t25.5 59.5h205q-44 -160 -166 -256.5t-318 -96.5q-162 0 -280 72.5
t-177 197t-59 285.5q0 249 139.5 401t376.5 152q235 0 365.5 -143t130.5 -389zM266 627h596q0 125 -80.5 205.5t-212.5 80.5q-126 0 -210 -78.5t-93 -207.5z" />
    <glyph glyph-name="uni0123.ss02" horiz-adv-x="1161" 
d="M563 1204q-64 0 -97.5 42.5t-33.5 115.5q0 89 53.5 154t169.5 90v-84q-60 -13 -92.5 -42t-32.5 -83q61 16 103.5 -7t42.5 -81q0 -49 -30.5 -77t-82.5 -28zM850 922v122h201v-962q0 -230 -129 -343.5t-361 -113.5q-215 0 -334 91.5t-135 240.5h209q36 -168 260 -168
q145 0 217 68t72 213v141h-4q-107 -158 -322 -158q-203 0 -332 134t-129 376q0 123 35.5 221t98 161.5t146 96.5t181.5 33q204 0 322 -153h4zM561 219q137 0 212 88t75 256q0 169 -75 256.5t-212 87.5q-142 0 -215.5 -94.5t-73.5 -249.5t73.5 -249.5t215.5 -94.5z" />
    <glyph glyph-name="gdotaccent.ss02" horiz-adv-x="1161" 
d="M553 1221q-54 0 -85.5 33t-31.5 81t32 81.5t85 33.5q55 0 86 -33.5t31 -81.5t-31 -81t-86 -33zM850 922v122h201v-962q0 -230 -129 -343.5t-361 -113.5q-215 0 -334 91.5t-135 240.5h209q36 -168 260 -168q145 0 217 68t72 213v141h-4q-107 -158 -322 -158
q-203 0 -332 134t-129 376q0 123 35.5 221t98 161.5t146 96.5t181.5 33q204 0 322 -153h4zM561 219q137 0 212 88t75 256q0 169 -75 256.5t-212 87.5q-142 0 -215.5 -94.5t-73.5 -249.5t73.5 -249.5t215.5 -94.5z" />
    <glyph glyph-name="i.ss02" horiz-adv-x="425" 
d="M213 1219q-55 0 -87 33.5t-32 82.5t32 83t87 34q54 0 85.5 -34t31.5 -83t-31.5 -82.5t-85.5 -33.5zM313 0h-200v1044h200v-1044z" />
    <glyph glyph-name="idieresis.ss02" horiz-adv-x="425" 
d="M43 1223q-53 0 -84 32.5t-31 79.5q0 49 30.5 82t84.5 33t84.5 -33t30.5 -82q0 -47 -31 -79.5t-84 -32.5zM381 1223q-53 0 -84 32.5t-31 79.5q0 49 30.5 82t84.5 33t84.5 -33t30.5 -82q0 -47 -31 -79.5t-84 -32.5zM313 0h-200v1044h200v-1044z" />
    <glyph glyph-name="iogonek.ss02" horiz-adv-x="425" 
d="M213 1221q-54 0 -85.5 33t-31.5 81t32 81.5t85 33.5q55 0 86 -33.5t31 -81.5t-31 -81t-86 -33zM160 -164q0 -28 20.5 -43.5t52.5 -15.5q45 0 97 18v-137q-68 -20 -142 -20q-95 0 -145.5 41.5t-50.5 113.5q0 67 45.5 122t107.5 85h-32v1044h200v-1044h-26
q-127 -100 -127 -164z" />
    <glyph glyph-name="j.ss02" horiz-adv-x="425" 
d="M213 1221q-54 0 -85.5 33t-31.5 81t32 81.5t85 33.5q55 0 86 -33.5t31 -81.5t-31 -81t-86 -33zM63 -371q-41 0 -124 13v165q49 -6 79 -6q49 0 72 33.5t23 118.5v1091h200v-1099q0 -161 -67 -238.5t-183 -77.5z" />
    <glyph glyph-name="uni0137.ss02" horiz-adv-x="1013" 
d="M1001 1044l-401 -382l444 -662h-237l-342 535l-152 -146v-389h-200v1464h200v-862l457 442h231zM555 -94q66 0 99.5 -42.5t33.5 -115.5q0 -91 -57.5 -158t-181.5 -90v88q61 11 99 38t38 69q-59 -18 -104.5 8.5t-45.5 89.5q0 53 32.5 83t86.5 30z" />
    <glyph glyph-name="uni013C.ss02" horiz-adv-x="425" 
d="M313 0h-200v1464h200v-1464zM98 -500v88q62 11 100 38t38 69q-59 -18 -104.5 8.5t-45.5 89.5q0 53 32.5 83t86.5 30q66 0 99.5 -42.5t33.5 -115.5q0 -91 -58 -158t-182 -90z" />
    <glyph glyph-name="uni0146.ss02" horiz-adv-x="1114" 
d="M662 1075q153 0 250.5 -89t97.5 -261v-725h-201v670q0 110 -51.5 171.5t-161.5 61.5q-129 0 -206 -71.5t-77 -190.5v-641h-200v1044h200v-131h4q48 69 134.5 115.5t210.5 46.5zM553 -94q66 0 99.5 -42.5t33.5 -115.5q0 -91 -58 -158t-182 -90v88q62 11 100 38t38 69
q-59 -18 -104.5 8.5t-45.5 89.5q0 53 32.5 83t86.5 30z" />
    <glyph glyph-name="odieresis.ss02" horiz-adv-x="1159" 
d="M412 1227q-53 0 -84 32.5t-31 79.5q0 49 30.5 82t84.5 33t84 -33t30 -82q0 -47 -30.5 -79.5t-83.5 -32.5zM750 1227q-53 0 -84 32.5t-31 79.5q0 49 30.5 82t84.5 33t84 -33t30 -82q0 -47 -30.5 -79.5t-83.5 -32.5zM580 -31q-242 0 -382.5 152t-140.5 401q0 248 141 401.5
t384 153.5q240 0 380 -152.5t140 -400.5q0 -249 -140.5 -402t-381.5 -153zM582 135q153 0 232 107.5t79 279.5q0 173 -79 280t-232 107q-156 0 -236 -107t-80 -280q0 -172 80 -279.5t236 -107.5z" />
    <glyph glyph-name="uni0157.ss02" horiz-adv-x="712" 
d="M598 1069q50 0 96 -6v-193q-44 7 -67 7q-137 0 -225.5 -93.5t-88.5 -242.5v-541h-200v1044h200v-198h4q94 223 281 223zM205 -94q66 0 99.5 -42.5t33.5 -115.5q0 -91 -58 -158t-182 -90v88q62 11 100 38t38 69q-59 -18 -104.5 8.5t-45.5 89.5q0 53 32.5 83t86.5 30z" />
    <glyph glyph-name="uni0219.ss02" horiz-adv-x="999" 
d="M524 -29q-229 0 -352.5 105t-128.5 272h203q7 -99 72.5 -157t203.5 -58q121 0 172 44t51 110q0 19 -4.5 36t-10.5 29.5t-19 24t-23.5 19.5t-29.5 16t-32 13t-36.5 10.5t-37.5 8.5t-41 8.5t-40 8.5q-50 12 -80 19.5t-76.5 23t-75 30.5t-62 39t-52.5 51.5t-32 66t-13 83.5
q0 137 105.5 219t291.5 82q204 0 315.5 -94.5t122.5 -239.5h-202q-6 34 -18.5 61t-37 54t-69.5 42t-107 15q-98 0 -145 -35t-47 -96q0 -20 6 -36.5t14 -28.5t25.5 -22.5t30.5 -16.5t40.5 -13.5t44 -11t51 -11t52.5 -11.5q51 -12 84 -20.5t79.5 -24.5t76.5 -32t63.5 -41.5
t52.5 -55t32 -70.5t13 -90q0 -153 -113 -239.5t-317 -86.5zM391 -500v88q61 11 99 38t38 69q-59 -18 -104 8.5t-45 89.5q0 53 32.5 83t86.5 30q66 0 99.5 -42.5t33.5 -115.5q0 -91 -58 -158t-182 -90z" />
    <glyph glyph-name="uni021B.ss02" horiz-adv-x="636" 
d="M498 154q39 0 86 8v-162q-61 -12 -127 -12q-139 0 -208 67.5t-69 239.5v584h-151v165h151v336h201v-336h201v-165h-201v-590q0 -81 25 -108t92 -27zM412 -68q66 0 99.5 -42t33.5 -115q0 -91 -58 -158t-182 -90v88q62 11 99.5 37.5t37.5 68.5q-58 -18 -103.5 9t-45.5 90
q0 53 32.5 82.5t86.5 29.5z" />
    <glyph glyph-name="udieresis.ss02" horiz-adv-x="1114" 
d="M367 1223q-53 0 -84 32.5t-31 79.5q0 49 30.5 82t84.5 33t84 -33t30 -82q0 -47 -30.5 -79.5t-83.5 -32.5zM705 1223q-53 0 -84 32.5t-31 79.5q0 49 30.5 82t84.5 33t84 -33t30 -82q0 -47 -30.5 -79.5t-83.5 -32.5zM801 403v641h200v-1044h-200v131h-4
q-47 -69 -133 -114.5t-211 -45.5q-153 0 -251 89.5t-98 261.5v722h201v-667q0 -111 51.5 -173.5t161.5 -62.5q129 0 206 71.5t77 190.5z" />
    <glyph glyph-name="wdieresis.ss02" horiz-adv-x="1552" 
d="M608 1223q-53 0 -83.5 32.5t-30.5 79.5q0 49 30 82t84 33t84.5 -33t30.5 -82q0 -47 -31 -79.5t-84 -32.5zM946 1223q-53 0 -84 32.5t-31 79.5q0 49 30.5 82t84.5 33t84.5 -33t30.5 -82q0 -47 -31 -79.5t-84 -32.5zM549 0h-207l-324 1044h218l221 -808h4l217 808h203
l217 -808h4l223 808h209l-324 -1044h-206l-226 805h-4z" />
    <glyph glyph-name="ydieresis.ss02" horiz-adv-x="1034" 
d="M342 1223q-53 0 -84 32.5t-31 79.5q0 49 30.5 82t84.5 33t84.5 -33t30.5 -82q0 -47 -31 -79.5t-84 -32.5zM680 1223q-53 0 -84 32.5t-31 79.5q0 49 30.5 82t84.5 33t84.5 -33t30.5 -82q0 -47 -31 -79.5t-84 -32.5zM248 -367q-50 0 -129 15v164q61 -7 86 -7q71 0 129 46.5
t86 158.5l-422 1034h219l305 -798h4l287 798h211l-414 -1069q-74 -190 -156 -266t-206 -76z" />
    <glyph glyph-name="zdotaccent.ss02" horiz-adv-x="946" 
d="M471 1221q-54 0 -85.5 33t-31.5 81t32 81.5t85 33.5q55 0 86 -33.5t31 -81.5t-31 -81t-86 -33zM905 0h-866v150l571 724v5h-534v165h807v-129l-586 -745v-4h608v-166z" />
    <glyph glyph-name="i.latn_TRK.ss02" horiz-adv-x="425" 
d="M213 1219q-55 0 -87 33.5t-32 82.5t32 83t87 34q54 0 85.5 -34t31.5 -83t-31.5 -82.5t-85.5 -33.5zM313 0h-200v1044h200v-1044z" />
    <glyph glyph-name="adieresis.ss01.ss02" horiz-adv-x="1167" 
d="M397 1223q-53 0 -83.5 32.5t-30.5 79.5q0 49 30 82t84 33t84.5 -33t30.5 -82q0 -47 -31 -79.5t-84 -32.5zM735 1223q-53 0 -83.5 32.5t-30.5 79.5q0 49 30 82t84 33t84.5 -33t30.5 -82q0 -47 -31 -79.5t-84 -32.5zM854 918v126h201v-1044h-201v123h-4
q-117 -152 -322 -152q-204 0 -336.5 149t-132.5 402t132.5 403t336.5 150q213 0 322 -157h4zM561 137q135 0 213 104t78 281q0 179 -78 282t-213 103q-95 0 -162.5 -54.5t-99 -139.5t-31.5 -191t31.5 -191t99 -139.5t162.5 -54.5z" />
    <glyph glyph-name="s_s" horiz-adv-x="2007" 
d="M520 -29q-223 0 -347 101t-130 276h203q3 -42 15.5 -76t40.5 -67.5t83 -52.5t133 -19q122 0 174.5 44.5t52.5 113.5q0 52 -35.5 85t-73.5 45t-135 33q-20 5 -30 7q-47 11 -76 18.5t-75 22.5t-75 30t-63.5 39.5t-54.5 52.5t-33.5 67t-13.5 85q0 136 105 217.5t290 81.5
q73 0 136 -14t113.5 -38t96 -63.5t80.5 -83t70.5 -104.5t63 -119t59.5 -135q36 -86 62.5 -139t63.5 -105t77 -79.5t96.5 -44.5t128.5 -17q229 0 229 154q0 19 -4.5 36t-10.5 29.5t-18.5 24t-23 19.5t-29.5 16t-31.5 13t-36.5 10.5t-37.5 8.5t-40.5 8.5t-40 8.5
q-68 15 -114 28t-103.5 38.5t-92.5 56t-59.5 80t-24.5 110.5q0 138 106.5 219.5t293.5 81.5q203 0 314 -94.5t124 -239.5h-203q-7 35 -19 61.5t-36.5 53.5t-69.5 42t-108 15q-96 0 -143.5 -35t-47.5 -96q0 -23 6 -40.5t21.5 -31t29.5 -22.5t42.5 -17.5t47.5 -13t58 -13
t60 -13.5q52 -12 80.5 -19.5t77.5 -23.5t77.5 -31.5t64 -41.5t55 -55.5t33 -71t13.5 -91.5q0 -153 -111.5 -239.5t-310.5 -86.5q-84 0 -150.5 14.5t-119.5 51t-90.5 72t-76.5 105t-62.5 120t-63.5 145.5q-100 241 -215 337.5t-270 96.5q-103 0 -153 -34.5t-50 -94.5
q0 -17 3.5 -31.5t13 -26.5t17.5 -21t26.5 -17t30.5 -13.5t37.5 -12t40 -10t47 -10.5t48.5 -11q52 -12 82 -20.5t78 -24.5t77 -32t64 -42t54 -55.5t32.5 -71t13.5 -90.5q0 -152 -115 -238t-319 -86z" />
    <glyph glyph-name="w_w_w" horiz-adv-x="4378" 
d="M3928 236l223 808h209l-323 -1044h-207l-226 805h-4l-225 -805h-207l-272 879l-273 -879h-208l-226 805h-4l-223 -805h-209l-270 879l-275 -879h-207l-225 805h-4l-225 -805h-207l-324 1044h217l222 -808h4l217 808h203l217 -808h4l223 808h326l219 -808h4l217 808h205
l217 -808h4l221 808h326l221 -808h4l217 808h203l217 -808h4z" />
    <glyph glyph-name="f_f_i.ss02" horiz-adv-x="1560" 
d="M389 0h-203v879h-143v165h143v127q0 173 67.5 240.5t203.5 67.5q34 0 127 -13v-161q-61 6 -86 6q-64 0 -86.5 -26.5t-22.5 -108.5v-132h332v127q0 173 67 240.5t203 67.5q34 0 127 -13v-161q-62 6 -86 6q-64 0 -86 -26.5t-22 -108.5v-132h194v-165h-194v-879h-203v879
h-332v-879zM1348 1219q-55 0 -87 33.5t-32 82.5t32 83t87 34t85.5 -33.5t30.5 -83.5t-30.5 -83t-85.5 -33zM1448 0h-201v1044h201v-1044z" />
    <glyph glyph-name="f_i.ss02" horiz-adv-x="1024" 
d="M186 1044v127q0 173 67.5 240.5t203.5 67.5q34 0 127 -13v-161q-61 6 -86 6q-64 0 -86.5 -26.5t-22.5 -108.5v-132h195v-165h-195v-879h-203v879h-143v165h143zM811 1219q-55 0 -87 33.5t-32 82.5t32 83t87 34q54 0 85.5 -34t31.5 -83t-31.5 -82.5t-85.5 -33.5zM911 0
h-200v1044h200v-1044z" />
    <glyph glyph-name="zero.zero" horiz-adv-x="1300" 
d="M651 1444q144 0 253.5 -57.5t175.5 -159.5t99 -233t33 -287q0 -124 -20 -232.5t-64 -202t-108.5 -160t-158.5 -104t-210 -37.5q-144 0 -254 57.5t-176.5 159t-99.5 232.5t-33 287q0 124 20.5 232.5t64.5 202t109 160t159 104.5t210 38zM651 1260q-93 0 -160.5 -44
t-104.5 -123t-54 -174t-17 -212q0 -273 86 -412l365 944q-58 21 -115 21zM651 156q75 0 133 29.5t95.5 79t61.5 121.5t34 150.5t10 170.5q0 268 -84 411l-364 -942q50 -20 114 -20z" />
    <glyph glyph-name="zero.slash" horiz-adv-x="1300" 
d="M651 1444q144 0 253.5 -57.5t175.5 -159.5t99 -233t33 -287q0 -124 -20 -232.5t-64 -202t-108.5 -160t-158.5 -104t-210 -37.5q-144 0 -254 57.5t-176.5 159t-99.5 232.5t-33 287q0 124 20.5 232.5t64.5 202t109 160t159 104.5t210 38zM651 1260q-93 0 -160.5 -44
t-104.5 -123t-54 -174t-17 -212q0 -273 86 -412l365 944q-58 21 -115 21zM651 156q75 0 133 29.5t95.5 79t61.5 121.5t34 150.5t10 170.5q0 268 -84 411l-364 -942q50 -20 114 -20z" />
    <glyph glyph-name="zero.tf" horiz-adv-x="1480" 
d="M741 -29q-116 0 -210.5 37.5t-159.5 104t-109 160t-64 202t-20 232.5t20 232.5t64 202t109 160t159.5 104.5t210.5 38t210 -38t159 -104.5t109 -160t64 -202t20 -232.5t-20 -232.5t-64 -201.5t-109 -160t-159 -104.5t-210 -37.5zM741 162q92 0 158 43t102.5 121.5t53 172
t16.5 208.5t-16.5 209t-53 172t-102.5 121.5t-158 43.5q-93 0 -159.5 -43.5t-102.5 -121.5t-52.5 -171.5t-16.5 -209.5q0 -91 9.5 -168.5t33.5 -148.5t61 -120.5t94.5 -78.5t132.5 -29z" />
    <glyph glyph-name="one.tf" horiz-adv-x="1480" 
d="M877 1415v-1225h311v-190h-813v190h280v861q-42 -40 -115.5 -54t-181.5 -14v180q124 3 196 31.5t104.5 80t41.5 140.5h177z" />
    <glyph glyph-name="two.tf" horiz-adv-x="1480" 
d="M1223 0h-1006q0 191 109 338t323 280q176 106 222 141q98 74 124 158q13 43 13 95q0 48 -10.5 87.5t-35.5 76t-74.5 57t-119.5 20.5q-156 0 -222.5 -89.5t-66.5 -248.5h-225q0 115 31.5 210t93.5 167t163 112t232 40q199 0 332 -114t133 -310q0 -57 -14 -110t-34 -94.5
t-56.5 -84.5t-68 -72.5t-82 -66t-84.5 -58t-89 -55.5q-57 -34 -83 -50t-71.5 -48.5t-69.5 -56.5t-48.5 -58.5t-36.5 -70.5v-5h721v-190z" />
    <glyph glyph-name="three.tf" horiz-adv-x="1480" 
d="M758 -29q-273 0 -421.5 134t-148.5 378h226q0 -156 76 -238.5t253 -82.5q161 0 230 60.5t69 180.5q0 242 -282 242h-133v182h125q112 0 176.5 53t64.5 164q0 91 -59 150t-182 59q-299 0 -299 -264h-226q0 204 137 329.5t390 125.5q128 0 233 -44t170.5 -134t65.5 -211
q0 -213 -213 -303v-4q262 -83 262 -349q0 -203 -138.5 -315.5t-375.5 -112.5z" />
    <glyph glyph-name="four.tf" horiz-adv-x="1480" 
d="M1085 0h-223v324h-672v204l672 887h223v-901h197v-190h-197v-324zM862 1130l-469 -616h469v616z" />
    <glyph glyph-name="five.tf" horiz-adv-x="1480" 
d="M745 -29q-123 0 -223.5 35.5t-166 97t-101.5 141t-39 169.5h225q6 -51 23.5 -94t50.5 -80t89 -57.5t130 -20.5q138 0 218.5 83t80.5 238q0 146 -74 217.5t-210 71.5q-189 0 -287 -127h-228l152 770h805v-190h-635l-78 -391v-5q120 123 330 123q200 0 327.5 -132.5
t127.5 -336.5q0 -230 -147 -371t-370 -141z" />
    <glyph glyph-name="six.tf" horiz-adv-x="1480" 
d="M768 -29q-551 0 -551 734q0 349 145.5 544t407.5 195q193 0 318.5 -111t146.5 -276h-229q-13 93 -71 148t-165 55q-77 0 -136 -28t-95.5 -73.5t-59.5 -111t-32 -132.5t-9 -145v-20l4 -2q56 89 150.5 137.5t214.5 48.5q207 0 337 -131t130 -340q0 -211 -138.5 -351.5
t-367.5 -140.5zM762 156q136 0 211.5 79.5t75.5 215.5q0 138 -74.5 217.5t-200.5 79.5q-143 0 -227 -83.5t-84 -218.5q0 -132 78.5 -211t220.5 -79z" />
    <glyph glyph-name="seven.tf" horiz-adv-x="1480" 
d="M676 0h-234q0 169 49 356t128 348t174.5 296.5t191.5 220.5v4h-754v190h996v-170q-159 -132 -285 -338.5t-196 -444.5t-70 -462z" />
    <glyph glyph-name="eight.tf" horiz-adv-x="1480" 
d="M739 -29q-157 0 -277 46t-192.5 144.5t-72.5 237.5q0 238 264 353v4q-195 103 -195 303q0 179 131.5 282t341.5 103q212 0 343.5 -103t131.5 -282q0 -198 -194 -303v-4q264 -117 264 -353q0 -105 -41.5 -187.5t-115.5 -134.5t-172.5 -79t-215.5 -27zM739 840
q122 0 188 53t66 158t-66 159t-188 54q-120 0 -186 -54.5t-66 -158.5q0 -105 65.5 -158t186.5 -53zM739 156q149 0 231.5 67t82.5 189q0 119 -82.5 185.5t-231.5 66.5q-147 0 -229 -66.5t-82 -185.5q0 -122 81.5 -189t229.5 -67z" />
    <glyph glyph-name="nine.tf" horiz-adv-x="1480" 
d="M711 -29q-193 0 -319 111t-146 276h227q31 -202 238 -202q77 0 136 28t95 73.5t59 110.5t32 132t9 145v21l-6 2q-56 -90 -149.5 -138.5t-214.5 -48.5q-206 0 -335.5 131t-129.5 340q0 211 138.5 351.5t367.5 140.5q551 0 551 -733q0 -349 -145.5 -544.5t-407.5 -195.5z
M705 668q144 0 228.5 83t84.5 218q0 132 -78.5 211.5t-220.5 79.5q-137 0 -212 -79.5t-75 -215.5q0 -138 74.5 -217.5t198.5 -79.5z" />
    <glyph glyph-name="zero.tf.zero" horiz-adv-x="1480" 
d="M739 1444q145 0 255 -57.5t176.5 -159.5t99.5 -233t33 -287q0 -124 -20 -232.5t-64.5 -202t-109.5 -160t-159.5 -104t-210.5 -37.5t-210 37.5t-158.5 104t-108.5 160t-64 202t-20 232.5q0 156 33 287t99 233t175.5 159.5t253.5 57.5zM739 1260q-93 0 -159.5 -44
t-103.5 -123t-53.5 -174t-16.5 -212q0 -275 86 -414l364 944q-54 23 -117 23zM739 156q93 0 160.5 43.5t104.5 122.5t54 173.5t17 211.5q0 269 -84 409l-364 -940q47 -20 112 -20z" />
    <glyph glyph-name="zero.dnom" horiz-adv-x="821" 
d="M412 -16q-89 0 -159 34.5t-112.5 94.5t-64 137t-21.5 166q0 71 13.5 134.5t41.5 118.5t69.5 95t101 63t131.5 23q89 0 158.5 -35t111.5 -96t63 -137.5t21 -165.5t-21 -165.5t-63 -137t-111.5 -95t-158.5 -34.5zM412 129q63 0 102 38.5t53.5 99.5t14.5 149q0 289 -170 289
q-94 0 -133 -76.5t-39 -212.5t39 -211.5t133 -75.5z" />
    <glyph glyph-name="one.dnom" horiz-adv-x="481" 
d="M203 0v573q-39 -28 -176 -28v141q99 2 153.5 38t55.5 107h151v-831h-184z" />
    <glyph glyph-name="two.dnom" horiz-adv-x="729" 
d="M666 0h-625q0 74 23.5 131t63.5 99.5t112 95.5q23 17 59.5 41.5t58.5 39.5t49 37.5t42 42.5t25.5 46.5t10.5 56.5q0 51 -27 83t-85 32q-140 0 -140 -175h-176q0 144 82 233t240 89q133 0 212 -66t79 -184q0 -57 -17.5 -104t-56.5 -88.5t-68 -65t-86 -63.5
q-43 -30 -61.5 -44t-44.5 -39t-39 -48v-3h369v-147z" />
    <glyph glyph-name="three.dnom" horiz-adv-x="763" 
d="M393 -18q-168 0 -259 80.5t-91 228.5h178q0 -80 37 -121t123 -41q141 0 141 115q0 121 -153 121h-56v131h52q133 0 133 102q0 107 -117 107q-137 0 -137 -127h-176q0 122 85 198t238 76q122 0 206.5 -62.5t84.5 -168.5q0 -121 -123 -181v-2q150 -47 150 -202
q0 -120 -86.5 -187t-229.5 -67z" />
    <glyph glyph-name="four.dnom" horiz-adv-x="774" 
d="M610 0h-182v180h-383v174l383 477h182v-503h119v-148h-119v-180zM428 627l-240 -299h240v299z" />
    <glyph glyph-name="five.dnom" horiz-adv-x="759" 
d="M387 -18q-158 0 -248.5 74t-95.5 198h184q6 -56 44.5 -90.5t105.5 -34.5q65 0 103 41t38 115q0 72 -36 110.5t-105 38.5q-87 0 -141 -63h-173l93 460h510v-147h-381l-37 -180v-2q73 63 182 63q124 0 199.5 -77t75.5 -205q0 -142 -89.5 -221.5t-228.5 -79.5z" />
    <glyph glyph-name="six.dnom" horiz-adv-x="778" 
d="M406 -18q-77 0 -137.5 22.5t-99.5 61.5t-65 94t-36.5 116.5t-10.5 133.5q0 212 92.5 327t253.5 115q120 0 199.5 -64.5t97.5 -164.5h-182q-16 90 -119 90q-163 0 -166 -226v-12l5 -2q71 88 204 88q127 0 206 -79t79 -203q0 -131 -87.5 -214t-233.5 -83zM397 123
q71 0 110.5 41t39.5 106q0 68 -38.5 110t-105.5 42q-72 0 -112.5 -42.5t-40.5 -109.5q0 -66 39 -106.5t108 -40.5z" />
    <glyph glyph-name="seven.dnom" horiz-adv-x="657" 
d="M340 0h-190q0 195 83.5 389.5t196.5 292.5v2h-410v147h605v-135q-135 -110 -210 -301t-75 -395z" />
    <glyph glyph-name="eight.dnom" horiz-adv-x="776" 
d="M387 -18q-147 0 -241.5 66t-94.5 188q0 143 158 208v2q-119 66 -119 179q0 104 84.5 165.5t212.5 61.5q131 0 215 -61t84 -166q0 -112 -117 -179v-2q156 -70 156 -208q0 -122 -94.5 -188t-243.5 -66zM387 502q65 0 98 29t33 81q0 49 -34 79t-97 30q-62 0 -96.5 -30
t-34.5 -79q0 -52 33.5 -81t97.5 -29zM387 121q73 0 113.5 36t40.5 95q0 57 -40.5 93t-113.5 36q-72 0 -113 -36t-41 -93q0 -58 41 -94.5t113 -36.5z" />
    <glyph glyph-name="nine.dnom" horiz-adv-x="776" 
d="M375 -18q-119 0 -200 65t-99 164h184q20 -90 119 -90q85 0 123.5 60.5t38.5 158.5v14h-2q-33 -37 -86 -60.5t-117 -23.5q-125 0 -204 79.5t-79 203.5q0 132 87 215.5t233 83.5q95 0 164.5 -34t108.5 -95.5t57 -136t18 -166.5q0 -209 -92.5 -323.5t-253.5 -114.5zM375 412
q73 0 115 42.5t42 108.5t-41 107t-112 41t-110.5 -41.5t-39.5 -108.5t39.5 -108t106.5 -41z" />
    <glyph glyph-name="zero.numr" horiz-adv-x="821" 
d="M412 621q-89 0 -159 34.5t-112.5 94.5t-64 137t-21.5 166q0 71 13.5 134.5t41.5 118.5t69.5 95t101 63t131.5 23q89 0 158.5 -35t111.5 -96t63 -137.5t21 -165.5t-21 -165.5t-63 -137t-111.5 -95t-158.5 -34.5zM412 766q63 0 102 38.5t53.5 99.5t14.5 149q0 288 -170 288
q-94 0 -133 -76t-39 -212t39 -211.5t133 -75.5z" />
    <glyph glyph-name="one.numr" horiz-adv-x="481" 
d="M203 633v573q-39 -28 -176 -28v141q99 2 153.5 38t55.5 107h151v-831h-184z" />
    <glyph glyph-name="two.numr" horiz-adv-x="729" 
d="M666 635h-625q0 74 23.5 131t63.5 99.5t112 95.5q23 17 59.5 41.5t58.5 39.5t49 37.5t42 42.5t25.5 46.5t10.5 56.5q0 51 -27 82.5t-85 31.5q-140 0 -140 -174h-176q0 144 82 233t240 89q133 0 212 -66t79 -184q0 -46 -14 -88t-32 -70.5t-54 -62.5t-59.5 -51.5
t-68.5 -49.5q-43 -30 -61.5 -44t-44.5 -39t-39 -48v-2h369v-147z" />
    <glyph glyph-name="three.numr" horiz-adv-x="763" 
d="M393 616q-168 0 -259 81t-91 229h178q0 -80 37 -121t123 -41q141 0 141 115q0 120 -153 120h-56v131h52q133 0 133 103q0 106 -117 106q-137 0 -137 -127h-176q0 122 85 198.5t238 76.5q122 0 206.5 -63t84.5 -169q0 -120 -123 -180v-2q150 -47 150 -203
q0 -120 -86.5 -187t-229.5 -67z" />
    <glyph glyph-name="four.numr" horiz-adv-x="774" 
d="M610 635h-182v180h-383v174l383 477h182v-503h119v-148h-119v-180zM428 1262l-240 -299h240v299z" />
    <glyph glyph-name="five.numr" horiz-adv-x="759" 
d="M387 614q-158 0 -248.5 74.5t-95.5 198.5h184q6 -56 44.5 -90.5t105.5 -34.5q65 0 103 41t38 115q0 72 -36 110.5t-105 38.5q-87 0 -141 -63h-173l93 460h510v-147h-381l-37 -180v-2q73 63 182 63q124 0 199.5 -77.5t75.5 -205.5q0 -142 -89.5 -221.5t-228.5 -79.5z" />
    <glyph glyph-name="six.numr" horiz-adv-x="778" 
d="M406 616q-77 0 -137.5 22.5t-99.5 61.5t-65 94t-36.5 116.5t-10.5 133.5q0 212 92.5 327.5t253.5 115.5q119 0 199 -65t98 -165h-182q-17 91 -119 91q-163 0 -166 -226v-12l5 -2q71 88 204 88q127 0 206 -79.5t79 -203.5q0 -131 -87.5 -214t-233.5 -83zM397 758
q71 0 110.5 41t39.5 106q0 68 -38.5 110t-105.5 42q-72 0 -112.5 -42.5t-40.5 -109.5q0 -66 39 -106.5t108 -40.5z" />
    <glyph glyph-name="seven.numr" horiz-adv-x="657" 
d="M340 633h-190q0 195 83.5 389.5t196.5 292.5v2h-410v147h605v-135q-135 -110 -210 -301t-75 -395z" />
    <glyph glyph-name="eight.numr" horiz-adv-x="776" 
d="M387 616q-147 0 -241.5 66t-94.5 188q0 144 158 209v2q-119 66 -119 179q0 104 84.5 165.5t212.5 61.5q131 0 215 -61t84 -166q0 -112 -117 -179v-2q156 -70 156 -209q0 -122 -94.5 -188t-243.5 -66zM387 1137q65 0 98 29t33 81q0 49 -34 79t-97 30q-62 0 -96.5 -30
t-34.5 -79q0 -52 33.5 -81t97.5 -29zM387 756q73 0 113.5 36t40.5 95q0 57 -40.5 93t-113.5 36q-72 0 -113 -36t-41 -93q0 -58 41 -94.5t113 -36.5z" />
    <glyph glyph-name="nine.numr" horiz-adv-x="776" 
d="M375 614q-118 0 -199.5 65t-99.5 165h184q20 -90 119 -90q85 0 123.5 60.5t38.5 158.5v14h-2q-33 -37 -86 -60.5t-117 -23.5q-125 0 -204 79.5t-79 203.5q0 132 87 215.5t233 83.5q95 0 164.5 -34t108.5 -95.5t57 -136t18 -166.5q0 -210 -93 -324.5t-253 -114.5z
M375 1044q73 0 115 43t42 109t-41 106.5t-112 40.5t-110.5 -41t-39.5 -108t39.5 -108.5t106.5 -41.5z" />
    <glyph glyph-name="space.frac" horiz-adv-x="77" 
 />
    <glyph glyph-name="uni2007.tf" horiz-adv-x="1480" 
 />
    <glyph glyph-name="periodcentered.case" horiz-adv-x="448" 
d="M336 608h-223v223h223v-223z" />
    <glyph glyph-name="bullet.case" horiz-adv-x="786" 
d="M633 494h-479v479h479v-479z" />
    </font>
</defs>
</svg>
