<?xml version="1.0" standalone="no"?>
<!DOCTYPE svg PUBLIC "-//W3C//DTD SVG 1.1//EN" "http://www.w3.org/Graphics/SVG/1.1/DTD/svg11.dtd" >
<svg xmlns="http://www.w3.org/2000/svg" xmlns:xlink="http://www.w3.org/1999/xlink" version="1.1">
<metadata>
Created by FontForge 20170731 at Wed Jul 12 06:40:03 2023
 By Aleksey,,,
Copyright by Pangram Pangram Foundry. All rights reserved.
</metadata>
<defs>
<font id="PPNeueMontreal-Thin" horiz-adv-x="0" >
  <font-face 
    font-family="PP Neue Montreal Thin"
    font-weight="100"
    font-stretch="normal"
    units-per-em="2048"
    panose-1="0 0 2 0 0 0 0 0 0 0"
    ascent="1638"
    descent="-410"
    x-height="1044"
    cap-height="1464"
    bbox="-336 -426 4116 1905"
    underline-thickness="49"
    underline-position="-110"
    unicode-range="U+000D-1F150"
  />
<missing-glyph horiz-adv-x="1355" 
 />
    <glyph glyph-name="f_f" unicode="ff" horiz-adv-x="913" 
d="M242 0h-62v991h-149v53h149v183q0 100 23.5 155t66 75t117.5 20q28 0 82 -7v-51q-54 4 -74 4q-91 0 -122 -39.5t-31 -166.5v-173h376v183q0 100 23.5 155t66 75t117.5 20q28 0 82 -7v-51q-54 4 -73 4q-62 0 -93.5 -16t-46 -59.5t-14.5 -130.5v-173h227v-53h-227v-991h-62
v991h-376v-991z" />
    <glyph glyph-name="f_f_i" unicode="ffi" horiz-adv-x="1236" 
d="M242 0h-62v991h-149v53h149v183q0 100 23.5 155t66 75t117.5 20q28 0 82 -7v-51q-54 4 -74 4q-91 0 -122 -39.5t-31 -166.5v-173h376v183q0 100 23.5 155t66 75t117.5 20q28 0 82 -7v-51q-54 4 -73 4q-62 0 -93.5 -16t-46 -59.5t-14.5 -130.5v-173h227v-53h-227v-991h-62
v991h-376v-991zM1130 1266h-114v114h114v-114zM1104 0h-62v1044h62v-1044z" />
    <glyph glyph-name="f_i" unicode="fi" horiz-adv-x="800" 
d="M180 1044v183q0 100 23.5 155t66 75t117.5 20q28 0 82 -7v-51q-54 4 -74 4q-91 0 -122 -39.5t-31 -166.5v-173h227v-53h-227v-991h-62v991h-149v53h149zM580 1266v114h114v-114h-114zM668 0h-62v1044h62v-1044z" />
    <glyph glyph-name="f_l" unicode="fl" horiz-adv-x="800" 
d="M180 1044v183q0 100 23.5 155t66 75t117.5 20q28 0 82 -7v-51q-54 4 -74 4q-91 0 -122 -39.5t-31 -166.5v-173h227v-53h-227v-991h-62v991h-149v53h149zM606 0v1464h62v-1464h-62z" />
    <glyph glyph-name=".notdef" horiz-adv-x="1355" 
 />
    <glyph glyph-name=".null" 
 />
    <glyph glyph-name="nonmarkingreturn" horiz-adv-x="682" 
 />
    <glyph glyph-name="CR" unicode="&#xd;" horiz-adv-x="471" 
 />
    <glyph glyph-name="space" unicode=" " horiz-adv-x="471" 
 />
    <glyph glyph-name="exclam" unicode="!" horiz-adv-x="385" 
d="M213 377h-41l-20 592v495h81v-495zM250 0h-115v115h115v-115z" />
    <glyph glyph-name="quotedbl" unicode="&#x22;" horiz-adv-x="538" 
d="M178 1012h-57l-6 452h69zM418 1012h-58l-6 452h70z" />
    <glyph glyph-name="numbersign" unicode="#" horiz-adv-x="1120" 
d="M1047 961l-11 -58h-231l-68 -379h240l-10 -57h-240l-84 -467h-65l84 467h-324l-84 -467h-66l84 467h-190l10 57h191l67 379h-203l11 58h202l80 440h66l-80 -440h324l79 440h66l-80 -440h232zM348 524h324l67 379h-323z" />
    <glyph glyph-name="dollar" unicode="$" horiz-adv-x="1146" 
d="M1077 377q0 -175 -117 -284.5t-337 -115.5v-182h-66v185q-222 10 -351 134.5t-143 336.5h66q14 -182 120.5 -292t307.5 -122v659q-208 38 -322 123t-114 236q0 158 118.5 254t317.5 102v166h66v-166q189 -10 296.5 -105t118.5 -249h-65q-12 129 -100 207.5t-250 87.5
v-609q252 -50 353 -135t101 -231zM186 1051q0 -127 91 -192t280 -103v598q-176 -6 -273.5 -87.5t-97.5 -215.5zM623 686v-651q189 4 284 89.5t103 233.5q7 145 -79 215.5t-308 112.5z" />
    <glyph glyph-name="percent" unicode="%" horiz-adv-x="1452" 
d="M344 657q-141 0 -215 106t-74 271t74 271t215 106t214 -106t73 -271t-73 -271t-214 -106zM344 0h-72l838 1403h72zM344 715q49 0 88 18.5t63.5 48.5t40.5 72.5t22.5 86.5t6.5 93q0 63 -11 116.5t-35 101t-69 75t-106 27.5q-62 0 -107 -27.5t-69.5 -75t-35.5 -101
t-11 -116.5t11 -116.5t35.5 -101t69.5 -74.5t107 -27zM1112 -23q-141 0 -215 106t-74 271t74 271t215 106t214 -106t73 -271t-73 -271t-214 -106zM1112 35q49 0 88 18.5t63.5 48.5t40.5 72.5t22.5 86.5t6.5 93q0 63 -11 116.5t-35 101t-69 75t-106 27.5q-62 0 -107 -27.5
t-69.5 -75t-35.5 -101t-11 -116.5t11 -116.5t35.5 -101t69.5 -74.5t107 -27z" />
    <glyph glyph-name="ampersand" unicode="&#x26;" horiz-adv-x="1169" 
d="M963 268l206 -268h-82l-161 211q-75 -108 -184 -171t-248 -63q-188 0 -305 111t-117 285q0 54 12.5 103t31.5 86.5t51.5 74.5t61 62t71.5 53.5t72.5 45.5t73.5 40q-53 67 -77 99t-56.5 84t-45.5 96t-13 91q0 52 17.5 100t51.5 89t91.5 65.5t130.5 24.5q139 0 219 -82.5
t80 -202.5q0 -115 -77 -202t-232 -177l385 -499q77 142 90 327h65q-14 -208 -112 -383zM545 1430q-111 0 -168.5 -64.5t-57.5 -155.5q0 -20 2.5 -40t10.5 -41.5t13.5 -37t20 -39.5t21 -35.5t27 -39t26.5 -35.5t30.5 -39t29.5 -37q47 25 81 46.5t73.5 54t64.5 65t42 77
t17 93.5q0 101 -62.5 164.5t-170.5 63.5zM492 35q246 0 395 229l-391 510q-1 1 -7 8.5t-8 12.5q-40 -22 -53 -29.5t-51.5 -30.5t-54 -35.5t-47.5 -38t-46.5 -44.5t-36 -48.5t-31 -57t-17 -63t-7.5 -73.5q0 -154 99 -247t256 -93z" />
    <glyph glyph-name="quotesingle" unicode="'" horiz-adv-x="299" 
d="M178 1012h-57l-6 452h69z" />
    <glyph glyph-name="parenleft" unicode="(" horiz-adv-x="444" 
d="M408 -240h-66q-111 178 -183.5 405t-72.5 484q0 486 256 897h66q-123 -208 -189.5 -420t-66.5 -477q0 -259 66.5 -470t189.5 -419z" />
    <glyph glyph-name="parenright" unicode=")" horiz-adv-x="444" 
d="M102 -240h-65q123 208 189.5 420t66.5 477q0 259 -66.5 470t-189.5 419h65q111 -178 183.5 -405t72.5 -484q0 -486 -256 -897z" />
    <glyph glyph-name="asterisk" unicode="*" horiz-adv-x="843" 
d="M420 1079l-195 -252l-39 33l191 240l-297 106l18 43l295 -102l-2 317h55v-317l297 102l21 -43l-297 -106l192 -240l-43 -33z" />
    <glyph glyph-name="plus" unicode="+" horiz-adv-x="1064" 
d="M565 223h-65l2 416h-396v57h396l-2 414h65l-2 -414h395v-57h-395z" />
    <glyph glyph-name="comma" unicode="," horiz-adv-x="313" 
d="M100 -217v55q36 14 48 49.5t12 112.5h-62v115h115v-115q0 -38 -1.5 -61.5t-7.5 -50.5t-18 -44t-33.5 -33.5t-52.5 -27.5z" />
    <glyph glyph-name="hyphen" unicode="-" horiz-adv-x="712" 
d="M631 494h-549v57h549v-57z" />
    <glyph glyph-name="period" unicode="." horiz-adv-x="339" 
d="M227 0h-114v115h114v-115z" />
    <glyph glyph-name="slash" unicode="/" horiz-adv-x="722" 
d="M96 0h-67l598 1464h65z" />
    <glyph glyph-name="zero" unicode="0" horiz-adv-x="1222" 
d="M612 -23q-126 0 -224.5 57t-159.5 158t-92.5 231.5t-31.5 283.5t31.5 284t92.5 231.5t159.5 158t224.5 57.5t224.5 -57.5t159 -158.5t91.5 -231.5t31 -283.5q0 -122 -19 -230t-59.5 -200t-99.5 -158.5t-143 -104t-185 -37.5zM612 35q110 0 195 52t137 144.5t78.5 212.5
t26.5 263q0 114 -16.5 213.5t-51 184.5t-85.5 145.5t-123.5 95t-160.5 34.5q-110 0 -195 -52t-137.5 -145t-79 -213t-26.5 -263t26.5 -263t79 -212.5t137.5 -144.5t195 -52z" />
    <glyph glyph-name="one" unicode="1" horiz-adv-x="552" 
d="M311 0v1200q-57 -68 -120 -88t-168 -20v57q151 0 219.5 65t68.5 201h66v-1415h-66z" />
    <glyph glyph-name="two" unicode="2" horiz-adv-x="1075" 
d="M981 0h-905q0 198 105 340t300 244q185 97 251 144q137 97 168 219q11 44 11 93q0 143 -91.5 241.5t-248.5 98.5q-175 0 -285 -116.5t-110 -282.5h-65q0 88 30.5 169t87.5 146t145.5 103.5t196.5 38.5q185 0 297.5 -106t112.5 -292q0 -42 -7.5 -80.5t-18 -69t-32.5 -62
t-39 -53.5t-50.5 -49t-53.5 -42.5t-62 -40.5t-63 -36.5t-67 -37.5l-33 -18q-56 -30 -85.5 -46.5t-80 -49.5t-79 -57.5t-64.5 -64t-55 -77.5t-32.5 -88.5t-13.5 -106.5v-4h836v-57z" />
    <glyph glyph-name="three" unicode="3" horiz-adv-x="1142" 
d="M586 -23q-232 0 -370 129.5t-138 352.5h69q0 -189 116.5 -306.5t322.5 -117.5q183 0 286 91.5t103 250.5q0 79 -31.5 144.5t-82.5 106t-111.5 62t-122.5 21.5h-154v57h145q129 0 215.5 84.5t86.5 220.5q0 81 -35 149t-112.5 113t-186.5 45q-87 0 -156 -21t-112.5 -56
t-72.5 -83.5t-40.5 -99.5t-11.5 -108h-70q0 188 121 307t342 119q166 0 284.5 -100t118.5 -265q0 -237 -229 -332v-4q138 -41 211 -134.5t73 -225.5q0 -190 -125.5 -295t-332.5 -105z" />
    <glyph glyph-name="four" unicode="4" horiz-adv-x="1087" 
d="M829 0h-65v373h-715v57l715 985h65v-985h215v-57h-215v-373zM764 1311l-639 -881h639v881z" />
    <glyph glyph-name="five" unicode="5" horiz-adv-x="1075" 
d="M530 -23q-113 0 -201.5 34.5t-141 92.5t-80 127t-29.5 146h65q8 -157 109 -249.5t278 -92.5q83 0 152.5 25.5t124 77t85 135.5t30.5 194q0 102 -30 180t-82.5 125t-120.5 70.5t-148 23.5q-71 0 -134.5 -18.5t-107.5 -48t-73.5 -59.5t-47.5 -60h-72l154 735h662v-57h-611
l-121 -576v-4q66 73 162 109.5t203 36.5q202 0 319 -128t117 -329q0 -224 -123.5 -357t-337.5 -133z" />
    <glyph glyph-name="six" unicode="6" horiz-adv-x="1148" 
d="M600 -23q-237 0 -364 173.5t-127 496.5q0 394 130.5 592.5t378.5 198.5q162 0 273 -97t123 -264h-66q-10 139 -101.5 221t-228.5 82q-444 0 -444 -735v-96h2q16 90 61 161t106 113.5t129 64t136 21.5q204 0 326.5 -128t122.5 -332q0 -208 -124 -340t-333 -132zM600 35
q181 0 284 114.5t103 299.5q0 182 -101 292.5t-278 110.5q-56 0 -110.5 -15.5t-106 -50.5t-91 -84.5t-63.5 -123.5t-24 -162q0 -70 25 -136.5t72 -122t122.5 -89t167.5 -33.5z" />
    <glyph glyph-name="seven" unicode="7" horiz-adv-x="974" 
d="M340 0h-66q0 129 13 255.5t51 281.5t98.5 292.5t163.5 278.5t238 250v2h-832v55h922v-49q-105 -80 -191.5 -177t-146.5 -195t-105.5 -208.5t-72.5 -210.5t-43.5 -207.5t-22.5 -193.5t-6 -174z" />
    <glyph glyph-name="eight" unicode="8" horiz-adv-x="1171" 
d="M586 -23q-127 0 -237 47t-181.5 143.5t-71.5 225.5q0 139 80.5 234.5t216.5 142.5v4q-106 43 -169.5 121t-63.5 192q0 163 121 257t305 94t305 -94t121 -257q0 -113 -64.5 -191.5t-169.5 -121.5v-4q135 -47 216 -143t81 -234q0 -129 -71.5 -225.5t-181 -143.5t-236.5 -47
zM586 801q156 0 256 77.5t100 208.5q0 137 -99.5 215t-256.5 78t-257 -78t-100 -215q0 -131 100.5 -208.5t256.5 -77.5zM586 35q113 0 208 42.5t153.5 125.5t58.5 190q0 104 -58.5 185t-153.5 123t-208 42t-208 -42t-153.5 -123t-58.5 -185q0 -107 58.5 -190t153.5 -125.5
t208 -42.5z" />
    <glyph glyph-name="nine" unicode="9" horiz-adv-x="1148" 
d="M530 -23q-162 0 -272.5 97t-122.5 264h66q10 -139 101 -221t228 -82q223 0 334 186.5t111 548.5v96h-2q-16 -90 -61 -161t-106 -113.5t-129 -64t-136 -21.5q-204 0 -326.5 128t-122.5 333q0 208 124 339.5t333 131.5q237 0 364 -173.5t127 -496.5q0 -394 -131 -592.5
t-379 -198.5zM541 563q56 0 110.5 15.5t106 50.5t91 84.5t63.5 123.5t24 162q0 70 -25 136.5t-72 122t-122.5 89t-167.5 33.5q-181 0 -284 -114t-103 -299q0 -182 101 -293t278 -111z" />
    <glyph glyph-name="colon" unicode=":" horiz-adv-x="356" 
d="M236 623h-115v114h115v-114zM236 0h-115v115h115v-115z" />
    <glyph glyph-name="semicolon" unicode=";" horiz-adv-x="356" 
d="M236 625h-115v114h115v-114zM123 -217v55q36 14 47.5 49.5t11.5 112.5h-61v115h115v-115q0 -38 -1.5 -61.5t-7.5 -50.5t-18 -44t-33.5 -33.5t-52.5 -27.5z" />
    <glyph glyph-name="less" unicode="&#x3c;" horiz-adv-x="1026" 
d="M897 324v-66l-801 342v82l801 338v-66l-733 -311v-4z" />
    <glyph glyph-name="equal" unicode="=" horiz-adv-x="1064" 
d="M958 782h-852v58h852v-58zM958 494h-852v57h852v-57z" />
    <glyph glyph-name="greater" unicode="&#x3e;" horiz-adv-x="1026" 
d="M930 596l-801 -338v66l733 311v4l-733 315v66l801 -342v-82z" />
    <glyph glyph-name="question" unicode="?" horiz-adv-x="911" 
d="M442 354h-65q0 78 8.5 136t23 101t46 85t63.5 74.5t90 83.5q35 31 55 50t49.5 53t45 62.5t27.5 68t12 81.5q0 121 -84 198.5t-232 77.5q-173 0 -276 -104.5t-103 -276.5h-67q0 88 30 167.5t85 141t140 98t189 36.5q171 0 279 -90t108 -242q0 -30 -5 -59t-11.5 -52.5
t-20.5 -49.5t-23.5 -43.5t-29.5 -41t-29.5 -35t-33 -33.5t-30.5 -27.5t-30.5 -26t-25.5 -21.5q-69 -58 -105.5 -105.5t-58 -122.5t-21.5 -184zM475 0h-115v115h115v-115z" />
    <glyph glyph-name="at" unicode="@" horiz-adv-x="1759" 
d="M903 1448q119 0 231 -29.5t210 -90.5t171 -147.5t115.5 -207.5t42.5 -262q0 -230 -96 -378.5t-254 -148.5q-104 0 -158 61t-49 154q-43 -105 -119.5 -166t-179.5 -61q-159 0 -252.5 114.5t-93.5 303.5q0 92 27 176t76 150t126 105.5t170 39.5q108 0 184 -65t105 -187h2
l25 233h57l-74 -579q-12 -104 26 -162.5t128 -58.5q131 0 208 133.5t77 335.5q0 129 -37.5 240t-103.5 191t-155.5 136.5t-193 84.5t-215.5 28q-153 0 -291 -56.5t-242 -157.5t-165.5 -253t-61.5 -332q0 -331 198.5 -533t524.5 -202q209 0 396 86l22 -52q-192 -92 -420 -92
q-173 0 -319.5 57t-249 160t-160 251t-57.5 325q0 198 69 362.5t184 271t263 164.5t309 58zM815 229q148 0 234 130t86 321q0 151 -75.5 237.5t-189.5 86.5q-81 0 -146.5 -36.5t-105 -96.5t-60.5 -132t-21 -149q0 -162 73.5 -261.5t204.5 -99.5z" />
    <glyph glyph-name="A" unicode="A" horiz-adv-x="1255" 
d="M94 0h-67l561 1464h76l569 -1464h-72l-188 498h-688zM625 1389l-320 -834h645l-321 834h-4z" />
    <glyph glyph-name="B" unicode="B" horiz-adv-x="1310" 
d="M768 0h-600v1464h569q199 0 311.5 -96t112.5 -270q0 -120 -62 -203t-179 -121v-4q141 -31 223 -126.5t82 -237.5q0 -106 -34 -185t-96 -127t-144 -71t-183 -23zM233 797h549q139 0 224.5 84t85.5 217q0 143 -92 226t-263 83h-504v-610zM233 57h529q181 0 287 85t106 264
q0 152 -99 242.5t-265 90.5h-558v-682z" />
    <glyph glyph-name="C" unicode="C" horiz-adv-x="1396" 
d="M745 -23q-191 0 -339.5 93.5t-231 264.5t-82.5 394q0 220 81.5 392.5t232.5 269t348 96.5q225 0 374 -124.5t185 -330.5h-70q-29 175 -158 286.5t-333 111.5q-181 0 -317.5 -92.5t-206.5 -250.5t-70 -358q0 -201 71.5 -358t205.5 -246.5t310 -89.5q116 0 211 37.5
t157.5 103t100.5 149t48 179.5h69q-31 -237 -188 -382t-398 -145z" />
    <glyph glyph-name="D" unicode="D" horiz-adv-x="1390" 
d="M678 0h-510v1464h524q124 0 225 -38t171 -104.5t117 -160t69 -202.5t22 -234t-23.5 -233t-72.5 -199t-121 -156t-174 -101t-227 -36zM233 57h443q263 0 407 177.5t144 490.5q0 317 -138.5 499.5t-398.5 182.5h-457v-1350z" />
    <glyph glyph-name="E" unicode="E" horiz-adv-x="1189" 
d="M1130 0h-962v1464h942v-57h-877v-600h805v-57h-805v-693h897v-57z" />
    <glyph glyph-name="F" unicode="F" horiz-adv-x="1120" 
d="M233 0h-65v1464h942v-57h-877v-614h754v-58h-754v-735z" />
    <glyph glyph-name="G" unicode="G" horiz-adv-x="1476" 
d="M758 -23q-160 0 -287.5 57.5t-209.5 159t-125.5 238t-43.5 297.5q0 158 45 295t129.5 240.5t215 163t292.5 59.5q226 0 378.5 -118t190.5 -322h-65q-34 170 -171 276.5t-333 106.5q-150 0 -268.5 -56.5t-192.5 -154t-112.5 -222.5t-38.5 -268q0 -147 37 -271.5
t109 -219.5t187.5 -149t262.5 -54q252 0 397 172t145 461h-507v57h573v-725h-53l-8 387h-5q-39 -177 -180.5 -293.5t-361.5 -116.5z" />
    <glyph glyph-name="H" unicode="H" horiz-adv-x="1402" 
d="M233 0h-65v1464h65v-657h936v657h66v-1464h-66v750h-936v-750z" />
    <glyph glyph-name="I" unicode="I" horiz-adv-x="401" 
d="M233 0h-65v1464h65v-1464z" />
    <glyph glyph-name="J" unicode="J" horiz-adv-x="970" 
d="M430 -23q-184 0 -282.5 110t-98.5 286v59h70v-59q0 -160 83.5 -249t227.5 -89q145 0 231.5 89.5t86.5 248.5v1091h65v-1091q0 -176 -99.5 -286t-283.5 -110z" />
    <glyph glyph-name="K" unicode="K" horiz-adv-x="1239" 
d="M1253 0h-77l-603 786l-340 -358v-428h-65v1464h65v-952l904 952h77l-598 -630z" />
    <glyph glyph-name="L" unicode="L" horiz-adv-x="1101" 
d="M1073 0h-905v1464h65v-1407h840v-57z" />
    <glyph glyph-name="M" unicode="M" horiz-adv-x="1693" 
d="M233 0h-65v1464h96l580 -1376h4l582 1376h96v-1464h-66v1368h-4l-575 -1368h-70l-573 1368h-5v-1368z" />
    <glyph glyph-name="N" unicode="N" horiz-adv-x="1421" 
d="M233 0h-65v1464h82l934 -1376h4v1376h65v-1464h-82l-933 1372h-5v-1372z" />
    <glyph glyph-name="O" unicode="O" horiz-adv-x="1527" 
d="M764 -23q-198 0 -352 97t-238 269t-84 390t84 389.5t237.5 268t352.5 96.5t352.5 -96.5t237.5 -268t84 -389.5t-84 -390t-238 -269t-352 -97zM764 35q262 0 433 194t171 504t-171 503.5t-433 193.5t-433 -193.5t-171 -503.5t171 -504t433 -194z" />
    <glyph glyph-name="P" unicode="P" horiz-adv-x="1208" 
d="M233 0h-65v1464h520q463 0 463 -415q0 -416 -463 -416h-455v-633zM233 690h474q179 0 276.5 88.5t97.5 270.5t-97.5 270t-276.5 88h-474v-717z" />
    <glyph glyph-name="Q" unicode="Q" horiz-adv-x="1527" 
d="M1438 733q0 -188 -63 -343t-179 -255l180 -180l-41 -41l-184 184q-164 -121 -387 -121q-198 0 -352 97t-238 269t-84 390t84 389.5t237.5 268t352.5 96.5t352.5 -96.5t237.5 -268t84 -389.5zM764 35q194 0 342 108l-209 209l41 41l213 -213q102 95 159.5 236.5
t57.5 316.5q0 310 -171 503.5t-433 193.5t-433 -193.5t-171 -503.5t171 -504t433 -194z" />
    <glyph glyph-name="R" unicode="R" horiz-adv-x="1280" 
d="M233 0h-65v1464h534q223 0 344 -100t121 -295q0 -312 -288 -393v-4q71 -15 123.5 -58.5t80.5 -101t46 -124t25.5 -130.5t13 -117t14 -88.5t24.5 -40.5v-12h-67q-15 12 -23 55t-13 100t-13.5 124t-31 131.5t-58.5 117t-102.5 85t-156.5 32.5h-508v-645zM233 702h449
q200 0 310 91t110 276q0 173 -100 255.5t-300 82.5h-469v-705z" />
    <glyph glyph-name="S" unicode="S" horiz-adv-x="1220" 
d="M657 -23q-122 0 -225.5 30.5t-182.5 90.5t-126.5 155.5t-54.5 217.5h69q13 -210 151 -323t369 -113q203 0 311.5 99.5t110.5 248.5q0 62 -13 110t-43.5 84.5t-69 62.5t-101 47.5t-126 36.5t-155.5 32q-111 20 -189 47.5t-138.5 70.5t-89.5 107t-29 152q0 169 129.5 260.5
t337.5 91.5q220 0 354.5 -108.5t147.5 -305.5h-70q-16 168 -123.5 262t-308.5 94q-182 0 -289.5 -78.5t-107.5 -215.5q0 -48 11 -87.5t28.5 -68.5t49.5 -53t64.5 -40.5t84 -32t97 -25.5t113.5 -23q106 -20 182.5 -43t140 -56.5t102.5 -77.5t60 -104.5t21 -138.5
q0 -174 -132.5 -290t-359.5 -116z" />
    <glyph glyph-name="T" unicode="T" horiz-adv-x="1167" 
d="M616 0h-65v1407h-522v57h1110v-57h-523v-1407z" />
    <glyph glyph-name="U" unicode="U" horiz-adv-x="1363" 
d="M682 -23q-526 0 -526 531v956h65v-956q0 -239 114.5 -356t346.5 -117t346.5 117t114.5 356v956h65v-956q0 -531 -526 -531z" />
    <glyph glyph-name="V" unicode="V" horiz-adv-x="1226" 
d="M639 0h-51l-561 1464h71l514 -1374h2l516 1374h70z" />
    <glyph glyph-name="W" unicode="W" horiz-adv-x="1765" 
d="M492 0h-72l-379 1464h68l350 -1372h4l381 1372h78l383 -1372h6l348 1372h65l-378 -1464h-72l-387 1364h-8z" />
    <glyph glyph-name="X" unicode="X" horiz-adv-x="1136" 
d="M84 0h-78l518 758l-485 706h78l450 -655h2l453 655h78l-496 -716l529 -748h-78l-496 700h-2z" />
    <glyph glyph-name="Y" unicode="Y" horiz-adv-x="1214" 
d="M639 0h-66v600l-538 864h76l493 -802h8l498 802h72l-543 -864v-600z" />
    <glyph glyph-name="Z" unicode="Z" horiz-adv-x="1138" 
d="M1106 0h-1081v57l979 1346v4h-941v57h1024v-57l-981 -1346v-4h1000v-57z" />
    <glyph glyph-name="bracketleft" unicode="[" horiz-adv-x="471" 
d="M449 -240h-291v1786h291v-57h-226v-1671h226v-58z" />
    <glyph glyph-name="backslash" unicode="\" horiz-adv-x="722" 
d="M694 0h-67l-596 1464h65z" />
    <glyph glyph-name="bracketright" unicode="]" horiz-adv-x="471" 
d="M313 -240h-290v58h225v1671h-225v57h290v-1786z" />
    <glyph glyph-name="asciicircum" unicode="^" horiz-adv-x="870" 
d="M141 901h-71l329 563h72l330 -563h-70l-295 502h-2z" />
    <glyph glyph-name="underscore" unicode="_" horiz-adv-x="1067" 
d="M1047 -258h-1027v57h1027v-57z" />
    <glyph glyph-name="grave" unicode="`" horiz-adv-x="389" 
d="M303 1225h-59l-156 260h84z" />
    <glyph glyph-name="a" unicode="a" horiz-adv-x="1019" 
d="M412 -23q-152 0 -245 76t-93 203q0 141 92.5 212.5t300.5 104.5q21 3 59 8.5t60 8.5t55 10t52.5 15.5t42.5 22.5t35.5 32t21 44.5t8.5 59.5q0 114 -78 174t-205 60q-155 0 -238.5 -68.5t-91.5 -189.5h-65q3 46 16 88t42.5 84t72.5 72t111 48.5t153 18.5q74 0 134 -16.5
t108.5 -52.5t75 -99.5t26.5 -149.5v-571q0 -69 14.5 -96t57.5 -27q11 0 39 4v-53q-28 -4 -47 -4q-64 0 -94.5 37t-30.5 135h-4q-119 -191 -385 -191zM428 31q92 0 165.5 29t117.5 77t67 105.5t23 119.5v265q-21 -46 -98 -68.5t-216 -38.5q-64 -8 -114 -19.5t-95 -31
t-74.5 -45.5t-47 -64t-17.5 -86q0 -121 73.5 -182t215.5 -61z" />
    <glyph glyph-name="b" unicode="b" horiz-adv-x="1118" 
d="M610 1069q185 0 309.5 -147.5t124.5 -397.5q0 -246 -125 -392t-311 -146q-153 0 -256.5 80t-152.5 210h-4v-276h-62v1464h62v-680h4q48 125 153 205t258 80zM596 39q170 0 276.5 131.5t106.5 353.5q0 227 -106.5 359.5t-276.5 132.5q-81 0 -153.5 -34t-127.5 -96
t-87.5 -156t-32.5 -206q0 -219 117 -352t284 -133z" />
    <glyph glyph-name="c" unicode="c" horiz-adv-x="1048" 
d="M563 -25q-217 0 -353 150.5t-136 394.5q0 241 136 391t353 150q175 0 290.5 -104t133.5 -255h-65q-3 48 -27 99.5t-66 98.5t-112 77.5t-154 30.5q-100 0 -182 -40.5t-134 -109t-80 -155.5t-28 -183q0 -97 28 -185t80 -156.5t134 -109t182 -40.5q85 0 154.5 30t112 77.5
t66 100.5t26.5 105h65q-11 -153 -128.5 -260t-295.5 -107z" />
    <glyph glyph-name="d" unicode="d" horiz-adv-x="1118" 
d="M924 770v694h61v-1464h-61v262h-4q-48 -124 -153.5 -204.5t-258.5 -80.5q-185 0 -309.5 147.5t-124.5 397.5q0 246 125 392.5t311 146.5q153 0 257 -80t153 -211h4zM522 31q81 0 153.5 34t128 96t88 155.5t32.5 205.5q0 219 -117.5 352.5t-284.5 133.5
q-170 0 -276.5 -131.5t-106.5 -354.5q0 -227 106.5 -359t276.5 -132z" />
    <glyph glyph-name="e" unicode="e" horiz-adv-x="1062" 
d="M991 532h-852v-12q0 -103 26 -191t76 -155.5t129.5 -106t180.5 -38.5q87 0 155 27.5t109 72.5t64 90.5t34 93.5h66q-37 -148 -146 -243t-284 -95q-219 0 -347 149.5t-128 391.5q0 249 131.5 397t347.5 148q105 0 189.5 -37t138.5 -102t83 -151t29 -185q0 -36 -2 -54z
M549 1008q-93 0 -170 -34.5t-127.5 -93t-79.5 -134t-33 -160.5h789q0 85 -22.5 159.5t-67.5 134t-119 94t-170 34.5z" />
    <glyph glyph-name="f" unicode="f" horiz-adv-x="475" 
d="M395 1423q-91 0 -122 -39.5t-31 -166.5v-173h227v-53h-227v-991h-62v991h-149v53h149v183q0 100 23.5 155t66 75t117.5 20q28 0 82 -7v-51q-54 4 -74 4z" />
    <glyph glyph-name="g" unicode="g" horiz-adv-x="1114" 
d="M922 799v248h61v-990q0 -215 -118.5 -323.5t-327.5 -108.5q-191 0 -304.5 85.5t-126.5 211.5h62q19 -104 112.5 -174t260.5 -70q178 0 279.5 89.5t101.5 267.5v262h-4q-45 -115 -152 -185.5t-244 -70.5q-88 0 -166.5 31.5t-141 92.5t-99.5 162t-37 230q0 125 37 223.5
t99.5 158.5t141 91t166.5 31q138 0 244 -70t152 -192h4zM537 94q71 0 137.5 28.5t123 83t90.5 145.5t34 206q0 110 -34 199t-90.5 142.5t-123.5 81.5t-137 28q-82 0 -152.5 -28t-125 -82t-85.5 -141.5t-31 -199.5q0 -116 31 -206.5t85.5 -145.5t125 -83t152.5 -28z" />
    <glyph glyph-name="h" unicode="h" horiz-adv-x="1034" 
d="M588 1061q140 0 230.5 -83t90.5 -237v-741h-61v741q0 52 -12.5 96t-41.5 84.5t-85.5 63.5t-135.5 23q-82 0 -155 -32.5t-120.5 -82.5t-75 -107t-27.5 -108v-678h-62v1464h62v-624h4q127 221 389 221z" />
    <glyph glyph-name="i" unicode="i" horiz-adv-x="327" 
d="M221 1266h-115v114h115v-114zM195 0h-62v1044h62v-1044z" />
    <glyph glyph-name="j" unicode="j" horiz-adv-x="327" 
d="M221 1266h-115v114h115v-114zM41 -369q-31 0 -82 7v51q50 -4 68 -4q59 0 82.5 35.5t23.5 132.5v1191h62v-1185q0 -125 -40.5 -176.5t-113.5 -51.5z" />
    <glyph glyph-name="k" unicode="k" horiz-adv-x="917" 
d="M944 0h-76l-452 610l-221 -211v-399h-62v1464h62v-993l591 573h86l-413 -395z" />
    <glyph glyph-name="l" unicode="l" horiz-adv-x="327" 
d="M195 0h-62v1464h62v-1464z" />
    <glyph glyph-name="m" unicode="m" horiz-adv-x="1622" 
d="M1200 1059q136 0 216.5 -82t80.5 -238v-739h-61v739q0 267 -236 267q-81 0 -150.5 -32.5t-112.5 -83t-67 -107t-24 -107.5v-676h-62v739q0 267 -235 267q-81 0 -150.5 -32.5t-112.5 -83t-67 -107t-24 -107.5v-676h-62v1044h62v-200h4q42 92 132.5 153.5t217.5 61.5
q108 0 185.5 -57t101.5 -164h4q47 96 140 158.5t220 62.5z" />
    <glyph glyph-name="n" unicode="n" horiz-adv-x="1034" 
d="M588 1061q140 0 230.5 -83t90.5 -237v-741h-61v741q0 52 -12.5 96t-41.5 84.5t-85.5 63.5t-135.5 23q-82 0 -155 -32.5t-120.5 -82.5t-75 -107t-27.5 -108v-678h-62v1044h62v-204h4q127 221 389 221z" />
    <glyph glyph-name="o" unicode="o" horiz-adv-x="1110" 
d="M555 -25q-222 0 -351.5 149.5t-129.5 393.5t129.5 393.5t351.5 149.5t351.5 -149.5t129.5 -393.5t-129.5 -393.5t-351.5 -149.5zM555 29q196 0 306 136t110 353t-110 353.5t-306 136.5t-306 -136.5t-110 -353.5t110 -353t306 -136z" />
    <glyph glyph-name="p" unicode="p" horiz-adv-x="1118" 
d="M610 1067q185 0 309.5 -147.5t124.5 -397.5q0 -246 -125 -392t-311 -146q-153 0 -256.5 80t-152.5 210h-4v-636h-62v1406h62v-262h4q48 125 153 205t258 80zM596 37q170 0 276.5 131.5t106.5 353.5q0 227 -106.5 359.5t-276.5 132.5q-81 0 -153.5 -34t-127.5 -96
t-87.5 -156t-32.5 -206q0 -219 117 -352t284 -133z" />
    <glyph glyph-name="q" unicode="q" horiz-adv-x="1116" 
d="M924 770v277h61v-1409h-61v624h-4q-48 -124 -153.5 -204.5t-258.5 -80.5q-185 0 -309.5 147.5t-124.5 397.5q0 246 125 392.5t311 146.5q153 0 257 -80t153 -211h4zM522 31q81 0 153.5 34t128 96t88 155.5t32.5 205.5q0 219 -117.5 352.5t-284.5 133.5
q-170 0 -276.5 -131.5t-106.5 -354.5q0 -227 106.5 -359t276.5 -132z" />
    <glyph glyph-name="r" unicode="r" horiz-adv-x="608" 
d="M516 1059q46 0 76 -6v-54q-35 5 -55 5q-139 0 -240.5 -102t-101.5 -257v-645h-62v1044h62v-225h4q34 104 122 172t195 68z" />
    <glyph glyph-name="s" unicode="s" horiz-adv-x="935" 
d="M492 -23q-197 0 -314.5 100t-122.5 249h66q6 -135 106.5 -215t270.5 -80q147 0 230 66t83 179q0 33 -8.5 60.5t-20.5 47.5t-36 38t-43 28.5t-55 23.5t-58 19l-66 18t-67 19q-47 14 -70 21t-62 20t-58.5 21.5t-49.5 23t-44.5 27.5t-33 31t-27 37.5t-14.5 44.5t-6 53
q0 117 90 184.5t258 67.5q99 0 174 -24.5t120 -67.5t70.5 -92.5t35.5 -108.5h-66q-8 39 -22.5 72t-41.5 64.5t-63 54t-89.5 36t-119.5 13.5q-124 0 -202 -47.5t-78 -143.5q0 -42 17 -74.5t41 -53t70 -40t82.5 -30.5t99.5 -28q23 -6 34 -9q77 -21 126 -37.5t101.5 -42t81 -54
t47.5 -71t19 -96.5q0 -137 -103.5 -220.5t-281.5 -83.5z" />
    <glyph glyph-name="t" unicode="t" horiz-adv-x="501" 
d="M465 1044v-53h-232v-735q0 -127 33 -167t131 -40q18 0 68 4v-51q-43 -6 -76 -6q-119 0 -168 51.5t-49 198.5v745h-154v53h154v349h61v-349h232z" />
    <glyph glyph-name="u" unicode="u" horiz-adv-x="1034" 
d="M840 367v677h61v-1044h-61v199h-4q-128 -215 -390 -215q-140 0 -230.5 82.5t-90.5 236.5v741h61v-741q0 -52 12.5 -96t41.5 -84t85.5 -63t135.5 -23q82 0 155 32.5t121 82.5t75.5 107t27.5 108z" />
    <glyph glyph-name="v" unicode="v" horiz-adv-x="925" 
d="M500 0h-74l-399 1044h67l369 -974h2l371 974h65z" />
    <glyph glyph-name="w" unicode="w" horiz-adv-x="1454" 
d="M446 0h-81l-332 1044h63l307 -968h5l276 968h82l281 -968h4l307 968h63l-331 -1044h-82l-281 965h-4z" />
    <glyph glyph-name="x" unicode="x" horiz-adv-x="911" 
d="M72 0h-78l420 535l-387 509h75l351 -466h4l350 466h76l-387 -509l422 -535h-78l-383 496h-4z" />
    <glyph glyph-name="y" unicode="y" horiz-adv-x="929" 
d="M184 -367q-21 0 -82 7v53q50 -4 80 -4q90 0 140.5 65t115.5 242l-418 1048h66l381 -960h2l367 960h65l-412 -1073q-75 -194 -138.5 -266t-166.5 -72z" />
    <glyph glyph-name="z" unicode="z" horiz-adv-x="851" 
d="M819 0h-790v53l692 934v4h-660v53h738v-53l-693 -934v-4h713v-53z" />
    <glyph glyph-name="braceleft" unicode="{" horiz-adv-x="495" 
d="M457 -240h-23q-56 0 -96.5 16t-65 43.5t-39 72.5t-19.5 94.5t-5 117.5v314q0 102 -46.5 154.5t-115.5 52.5v57q68 -2 115 50t47 155v323q0 68 5 116.5t19.5 92.5t39 70.5t65 41.5t96.5 15h23v-57h-23q-100 0 -130 -63t-30 -255v-297q0 -84 -32.5 -135t-94.5 -84v-4
q63 -33 95 -84.5t32 -136.5v-287q0 -194 30 -259.5t130 -65.5h23v-58z" />
    <glyph glyph-name="bar" unicode="|" horiz-adv-x="401" 
d="M233 -262h-65v1786h65v-1786z" />
    <glyph glyph-name="braceright" unicode="}" horiz-adv-x="495" 
d="M61 -240h-22v58h22q101 0 130.5 62.5t29.5 254.5v297q0 84 32.5 135t94.5 84v4q-62 33 -94.5 85t-32.5 137v286q0 194 -30 260t-130 66h-22v57h22q56 0 96.5 -16t65.5 -43.5t39.5 -72.5t19.5 -94.5t5 -117.5v-313q0 -102 46.5 -154.5t115.5 -52.5v-57q-68 2 -115 -50
t-47 -155v-324q0 -85 -9 -142.5t-32.5 -103.5t-69 -68t-115.5 -22z" />
    <glyph glyph-name="asciitilde" unicode="~" horiz-adv-x="868" 
d="M186 596h-65q6 86 49 135t113 49q43 0 88.5 -21t77 -45.5t70.5 -45.5t71 -21q43 0 68 34t28 91h66q-6 -85 -49 -133.5t-113 -48.5q-43 0 -88 21t-76.5 45.5t-71 45.5t-71.5 21q-44 0 -68 -34.5t-29 -92.5z" />
    <glyph glyph-name="uni00A0" unicode="&#xa0;" horiz-adv-x="471" 
 />
    <glyph glyph-name="exclamdown" unicode="&#xa1;" horiz-adv-x="382" 
d="M248 1085h-113v113h113v-113zM231 -266h-81v495l20 592h41l20 -592v-495z" />
    <glyph glyph-name="cent" unicode="&#xa2;" horiz-adv-x="1110" 
d="M621 1219v-979q80 4 145 35t104.5 78t62 98.5t25.5 101.5h66q-11 -147 -122 -253.5t-281 -113.5v-176h-66v178q-199 15 -321.5 163.5t-122.5 379.5q0 228 122.5 376t321.5 163v176h66v-174q166 -7 275.5 -110.5t127.5 -248.5h-66q-3 46 -25.5 96t-62.5 96.5t-105 78
t-144 35.5zM176 731q0 -191 100.5 -331t278.5 -158v975q-120 -12 -207.5 -84t-129.5 -176t-42 -226z" />
    <glyph glyph-name="sterling" unicode="&#xa3;" horiz-adv-x="1124" 
d="M1022 152l37 -46q-29 -30 -48.5 -47t-52 -39t-71 -32.5t-84.5 -10.5q-52 0 -105 20t-90 43.5t-86.5 43.5t-95.5 20q-141 0 -291 -104l-39 51q93 76 146 182t53 230q0 66 -37 168h-162v53h140q-3 7 -24 53t-27 59.5t-21 53.5t-20.5 63.5t-11 58.5t-5.5 68q0 66 27.5 131.5
t80.5 123.5t144 94t205 36q112 0 200.5 -35t143 -95.5t82.5 -138t28 -165.5h-65q0 177 -106.5 277t-282.5 100q-165 0 -278 -91.5t-113 -250.5q0 -45 12.5 -96t23.5 -79.5t39 -89t35 -77.5h367v-53h-344q34 -90 34 -168q0 -100 -37.5 -195.5t-105.5 -163.5l2 -4
q100 62 207 62q53 0 108.5 -20t94 -43.5t86.5 -43.5t88 -20q66 0 113 29t106 88z" />
    <glyph glyph-name="currency" unicode="&#xa4;" horiz-adv-x="1042" 
d="M897 705q0 -156 -86 -263l125 -131l-41 -43l-123 131q-110 -96 -252 -96q-145 0 -252 94l-123 -129l-39 41l123 131q-88 110 -88 265q0 157 86 264l-121 133l39 41l123 -131q111 94 252 94q142 0 250 -94l125 131l41 -41l-125 -133q86 -111 86 -264zM520 360
q131 0 221 92t90 253t-90 252.5t-221 91.5q-132 0 -222.5 -91.5t-90.5 -252.5t90.5 -253t222.5 -92z" />
    <glyph glyph-name="yen" unicode="&#xa5;" horiz-adv-x="1163" 
d="M1028 1405h74l-479 -811h409v-57h-418v-185h418v-57h-418v-295h-65v295h-418v57h418v185h-418v57h410l-478 811h72l445 -758h4z" />
    <glyph glyph-name="brokenbar" unicode="&#xa6;" horiz-adv-x="401" 
d="M233 786h-65v738h65v-738zM233 -262h-65v764h65v-764z" />
    <glyph glyph-name="section" unicode="&#xa7;" horiz-adv-x="1157" 
d="M1057 432q0 -117 -64.5 -191t-181.5 -96q71 -55 107 -111.5t36 -129.5q0 -127 -90 -207t-262 -80q-381 0 -395 356h65q8 -142 83.5 -220.5t240.5 -78.5q136 0 214.5 59t78.5 163q0 30 -10 59.5t-22.5 51.5t-41 49t-47 43t-61.5 42.5t-63.5 38t-73 41t-70.5 39.5l-113 64
q-59 34 -96 57t-77.5 56t-62.5 65t-36.5 75t-14.5 93q0 117 64.5 190.5t181.5 95.5q-71 55 -107 112t-36 130q0 127 90 207t262 80q104 0 180.5 -26.5t121.5 -76t67.5 -112.5t25.5 -142h-65q-8 142 -83.5 220.5t-240.5 78.5q-136 0 -214.5 -58.5t-78.5 -162.5
q0 -30 10 -59.5t22.5 -51.5t41 -49t47 -43t61.5 -42.5t63.5 -38t73 -41t70.5 -39.5l113 -64q59 -34 96 -57t77.5 -56t62.5 -65t36.5 -75t14.5 -93zM752 186q239 29 239 246q0 55 -17.5 99t-60.5 80.5t-69.5 54t-87.5 50.5q-15 9 -23 13l-117 66q-162 89 -210 120
q-240 -29 -240 -245q0 -55 17.5 -99t60.5 -80.5t69.5 -54t87.5 -50.5q15 -9 23 -13l117 -66q158 -87 211 -121z" />
    <glyph glyph-name="dieresis" unicode="&#xa8;" horiz-adv-x="552" 
d="M201 1266h-115v114h115v-114zM467 1266h-115v114h115v-114z" />
    <glyph glyph-name="copyright" unicode="&#xa9;" horiz-adv-x="1732" 
d="M868 -23q-219 0 -392 96t-269 268t-96 390t96 390.5t269 269t392 96.5q163 0 303 -56.5t239 -155.5t155.5 -240t56.5 -304t-56.5 -303.5t-155.5 -239.5t-239 -155t-303 -56zM868 35q201 0 359 88.5t246 247t88 360.5q0 152 -51.5 282t-142.5 221.5t-220 143.5t-279 52
q-151 0 -280.5 -52t-221 -143.5t-143 -221.5t-51.5 -282q0 -202 88.5 -360.5t247 -247t360.5 -88.5zM874 256q-189 0 -302 132t-113 341t113 343t302 134q153 0 247.5 -78.5t115.5 -203.5h-63q-18 97 -97.5 161t-202.5 64q-160 0 -255 -117t-95 -303t94.5 -301t255.5 -115
q137 0 217.5 74.5t92.5 196.5h61q-10 -151 -110.5 -239.5t-260.5 -88.5z" />
    <glyph glyph-name="ordfeminine" unicode="&#xaa;" horiz-adv-x="841" 
d="M334 668q-118 0 -186 56t-68 155q0 102 69.5 148t243.5 75q49 8 78 14.5t63.5 19t52 28t30 41.5t12.5 61q0 80 -59.5 122t-157.5 42q-114 0 -174 -54t-66 -145h-53q2 47 18.5 88.5t49.5 78.5t92.5 59t138.5 22q118 0 192 -57.5t74 -180.5v-422q0 -51 8.5 -71.5
t36.5 -20.5q21 0 29 2v-45q-28 -4 -37 -4q-45 0 -68.5 30t-23.5 105h-4q-46 -77 -123.5 -112t-167.5 -35zM338 715q132 0 211.5 74.5t79.5 171.5v194q-19 -42 -70.5 -62t-161.5 -36q-40 -6 -60.5 -10t-53.5 -11.5t-50 -15.5t-39 -21t-33 -29t-18.5 -38.5t-7.5 -50.5
q0 -79 52 -122.5t151 -43.5z" />
    <glyph glyph-name="guillemotleft" unicode="&#xab;" horiz-adv-x="917" 
d="M469 276v-81l-385 323v82l385 324v-82l-340 -281v-4zM797 276v-81l-385 323v82l385 324v-82l-340 -281v-4z" />
    <glyph glyph-name="logicalnot" unicode="&#xac;" horiz-adv-x="1030" 
d="M889 301h-66v426h-723v57h789v-483z" />
    <glyph glyph-name="uni00AD" unicode="&#xad;" horiz-adv-x="712" 
d="M631 494h-549v57h549v-57z" />
    <glyph glyph-name="registered" unicode="&#xae;" horiz-adv-x="1171" 
d="M586 518q-132 0 -242 63t-175 175.5t-65 251.5q0 209 140.5 349t341.5 140t341 -140t140 -349q0 -139 -64.5 -251.5t-174.5 -175.5t-242 -63zM586 569q175 0 298.5 123t123.5 316q0 127 -58 228.5t-154 155.5t-210 54q-113 0 -209 -54t-154.5 -155.5t-58.5 -228.5
q0 -128 58.5 -229.5t154.5 -155.5t209 -54zM467 750h-66v530h224q75 0 120.5 -38.5t45.5 -106.5q0 -50 -31 -85.5t-90 -48.5v-2q43 -9 66 -46t27 -77t11.5 -76.5t22.5 -43.5v-6h-62q-18 11 -26 39t-11 59t-9.5 60.5t-28.5 49t-62 19.5h-131v-227zM467 1034h145
q62 0 87.5 22.5t25.5 73.5q0 49 -26 71t-85 22h-147v-189z" />
    <glyph glyph-name="macron" unicode="&#xaf;" horiz-adv-x="630" 
d="M549 1309h-467v57h467v-57z" />
    <glyph glyph-name="degree" unicode="&#xb0;" horiz-adv-x="786" 
d="M393 874q-76 0 -136.5 28.5t-96.5 74.5t-55 99t-19 106t19 106t55 98.5t96.5 74t136.5 28.5q75 0 135.5 -28.5t97 -74t55.5 -98.5t19 -106t-19 -106t-55.5 -99t-97 -74.5t-135.5 -28.5zM393 934q113 0 179.5 70t66.5 178t-66.5 178t-179.5 70t-179.5 -70t-66.5 -178
t66.5 -178t179.5 -70z" />
    <glyph glyph-name="plusminus" unicode="&#xb1;" horiz-adv-x="1064" 
d="M565 260h-65l2 416h-396v57h396l-2 414h65l-2 -414h395v-57h-395zM958 0h-852v57h852v-57z" />
    <glyph glyph-name="uni00B2" unicode="&#xb2;" horiz-adv-x="653" 
d="M592 743h-543q0 217 242 349q10 6 30 16q114 62 152 98q64 59 64 146q0 79 -49.5 133.5t-139.5 54.5q-102 0 -161.5 -65.5t-59.5 -161.5h-57q0 114 75 195t205 81q107 0 176.5 -64.5t69.5 -170.5q0 -32 -7.5 -60.5t-17.5 -50t-31.5 -44.5t-36 -36.5t-45.5 -34t-46.5 -30
t-51.5 -29.5q-110 -62 -145 -89q-102 -78 -102 -185v-4h479v-48z" />
    <glyph glyph-name="uni00B3" unicode="&#xb3;" horiz-adv-x="696" 
d="M358 743q-142 0 -224.5 76t-82.5 209h60q0 -108 63 -172.5t182 -64.5q104 0 160.5 50t56.5 138q0 90 -59.5 138t-136.5 48h-90v52h86q73 0 122.5 45t49.5 122q0 70 -49 119t-140 49q-62 0 -107 -17.5t-68.5 -47.5t-34.5 -64t-11 -73h-57q0 111 72.5 181.5t205.5 70.5
q100 0 173 -59.5t73 -158.5q0 -137 -133 -190v-2q82 -25 123 -81t41 -132q0 -112 -75.5 -174t-199.5 -62z" />
    <glyph glyph-name="acute" unicode="&#xb4;" horiz-adv-x="389" 
d="M145 1225h-59l131 260h84z" />
    <glyph glyph-name="uni00B5" unicode="&#xb5;" horiz-adv-x="1083" 
d="M868 367v677h62v-1044h-62v199h-4q-128 -215 -389 -215q-171 0 -260 114v-460h-61v1406h61v-741q0 -52 12.5 -96t41 -84t85 -63t135.5 -23q82 0 155 32.5t121 82.5t75.5 107t27.5 108z" />
    <glyph glyph-name="paragraph" unicode="&#xb6;" horiz-adv-x="944" 
d="M537 0h-66v788h-82q-165 0 -257.5 81t-92.5 257t92.5 257t257.5 81h387v-1464h-65v1407h-174v-1407z" />
    <glyph glyph-name="periodcentered" unicode="&#xb7;" horiz-adv-x="348" 
d="M231 463h-114v115h114v-115z" />
    <glyph glyph-name="cedilla" unicode="&#xb8;" horiz-adv-x="550" 
d="M276 -379q-106 0 -194 55l27 35q71 -41 157 -41q62 0 99.5 24t37.5 73q0 79 -96 79q-50 0 -96 -22l-25 31l117 145h66l-86 -109v-4q86 20 136 -14.5t50 -103.5q0 -71 -53.5 -109.5t-139.5 -38.5z" />
    <glyph glyph-name="uni00B9" unicode="&#xb9;" horiz-adv-x="352" 
d="M190 745v691q-32 -38 -71 -49t-99 -11v47q90 0 132 35t45 119h49v-832h-56z" />
    <glyph glyph-name="ordmasculine" unicode="&#xba;" horiz-adv-x="882" 
d="M442 668q-169 0 -267.5 112t-98.5 293t99 293.5t267 112.5q167 0 266 -112t99 -294q0 -181 -98.5 -293t-266.5 -112zM442 717q147 0 229.5 99.5t82.5 256.5q0 158 -82.5 257.5t-229.5 99.5q-148 0 -230.5 -99t-82.5 -258q0 -157 82.5 -256.5t230.5 -99.5z" />
    <glyph glyph-name="guillemotright" unicode="&#xbb;" horiz-adv-x="917" 
d="M506 518l-385 -323v81l340 281v4l-340 281v82l385 -324v-82zM834 518l-385 -323v81l339 281v4l-339 281v82l385 -324v-82z" />
    <glyph glyph-name="onequarter" unicode="&#xbc;" horiz-adv-x="1372" 
d="M221 633v690q-32 -38 -70.5 -48.5t-99.5 -10.5v47q90 0 131.5 34.5t44.5 118.5h49v-831h-55zM166 0h-66l928 1464h66zM1212 0h-55v213h-416v49l416 569h55v-569h125v-49h-125v-213zM1157 750l-354 -488h354v488z" />
    <glyph glyph-name="onehalf" unicode="&#xbd;" horiz-adv-x="1449" 
d="M233 633v690q-32 -38 -70.5 -48.5t-99.5 -10.5v47q90 0 132 34.5t45 118.5h49v-831h-56zM178 0h-65l927 1464h66zM1356 0h-543q0 216 242 348q10 5 29 16q114 61 152 97q64 60 64 147q0 79 -49 134t-139 55q-102 0 -161.5 -66t-59.5 -162h-57q0 114 75 195.5t205 81.5
q107 0 176.5 -65t69.5 -171q0 -32 -8 -60.5t-17.5 -50t-31 -44.5t-35.5 -36t-46 -34t-46.5 -29.5t-51.5 -29.5q-111 -62 -147 -90q-100 -79 -100 -185v-4h479v-47z" />
    <glyph glyph-name="threequarters" unicode="&#xbe;" horiz-adv-x="1646" 
d="M375 621q-142 0 -224.5 75.5t-82.5 208.5h59q0 -108 63 -172.5t183 -64.5q104 0 160.5 50t56.5 138q0 90 -59.5 138t-137.5 48h-90v52h86q73 0 122.5 45.5t49.5 122.5q0 70 -48.5 119t-139.5 49q-62 0 -107 -17.5t-68.5 -47.5t-34.5 -64t-11 -74h-58q0 110 73 181t206 71
q100 0 172.5 -59t72.5 -158q0 -138 -133 -191v-2q82 -25 123 -81t41 -132q0 -112 -75 -173.5t-199 -61.5zM494 0h-66l928 1464h65zM1479 0h-56v213h-415v49l415 569h56v-569h125v-49h-125v-213zM1423 750l-354 -488h354v488z" />
    <glyph glyph-name="questiondown" unicode="&#xbf;" horiz-adv-x="915" 
d="M551 1081h-115v115h115v-115zM432 -291q-171 0 -279 90t-108 242q0 30 5 59t11.5 52.5t20.5 49.5t24 43.5t29.5 41t30 35.5t33 33t30.5 27.5t30.5 26t25.5 21.5q102 86 143 170t41 242h66q0 -97 -11 -162t-43 -120.5t-68.5 -94.5t-109.5 -103q-44 -39 -69 -64.5
t-57 -66.5t-47 -86.5t-15 -97.5q0 -121 83.5 -198.5t231.5 -77.5q173 0 276 104.5t103 276.5h68q0 -119 -50.5 -218t-154 -162t-240.5 -63z" />
    <glyph glyph-name="Agrave" unicode="&#xc0;" horiz-adv-x="1255" 
d="M647 1645h-59l-156 260h84zM94 0h-67l561 1464h76l569 -1464h-72l-188 498h-688zM625 1389l-320 -834h645l-321 834h-4z" />
    <glyph glyph-name="Aacute" unicode="&#xc1;" horiz-adv-x="1255" 
d="M659 1645h-59l131 260h84zM94 0h-67l561 1464h76l569 -1464h-72l-188 498h-688zM625 1389l-320 -834h645l-321 834h-4z" />
    <glyph glyph-name="Acircumflex" unicode="&#xc2;" horiz-adv-x="1255" 
d="M489 1657h-79l180 248h76l178 -248h-82l-135 201h-2zM94 0h-67l561 1464h76l569 -1464h-72l-188 498h-688zM625 1389l-320 -834h645l-321 834h-4z" />
    <glyph glyph-name="Atilde" unicode="&#xc3;" horiz-adv-x="1255" 
d="M418 1634h-62q4 79 40.5 120.5t97.5 41.5q48 0 97 -27t92 -54t75 -27q67 0 76 108h61q-4 -80 -40 -121t-97 -41q-46 0 -95 27t-92.5 54.5t-76.5 27.5q-67 0 -76 -109zM94 0h-67l561 1464h76l569 -1464h-72l-188 498h-688zM625 1389l-320 -834h645l-321 834h-4z" />
    <glyph glyph-name="Adieresis" unicode="&#xc4;" horiz-adv-x="1255" 
d="M551 1686h-115v114h115v-114zM817 1686h-115v114h115v-114zM94 0h-67l561 1464h76l569 -1464h-72l-188 498h-688zM625 1389l-320 -834h645l-321 834h-4z" />
    <glyph glyph-name="Aring" unicode="&#xc5;" horiz-adv-x="1255" 
d="M625 1573q-72 0 -120 46t-48 118t48 118t120 46t120 -46t48 -118t-48 -118t-120 -46zM625 1622q54 0 84 31.5t30 83.5t-30 83t-84 31q-55 0 -85 -31t-30 -83t30.5 -83.5t84.5 -31.5zM94 0h-67l561 1464h76l569 -1464h-72l-188 498h-688zM625 1389l-320 -834h645l-321 834
h-4z" />
    <glyph glyph-name="AE" unicode="&#xc6;" horiz-adv-x="1888" 
d="M932 57h897v-57h-963v498h-581l-193 -498h-65l561 1464h1220v-57h-876v-600h805v-57h-805v-693zM631 1407l-326 -852h561v852h-235z" />
    <glyph glyph-name="Ccedilla" unicode="&#xc7;" horiz-adv-x="1396" 
d="M780 -23l-69 -86v-4q86 20 136 -14.5t50 -103.5q0 -71 -53 -109.5t-139 -38.5q-107 0 -195 55l27 35q71 -41 157 -41q62 0 99.5 24t37.5 73q0 79 -96 79q-50 0 -96 -22l-25 31l99 122q-182 8 -323 103.5t-219.5 264t-78.5 384.5q0 220 81.5 392.5t232.5 269t348 96.5
q225 0 374 -124.5t185 -330.5h-70q-29 175 -158 286.5t-333 111.5q-181 0 -317.5 -92.5t-206.5 -250.5t-70 -358q0 -201 71.5 -358t205.5 -246.5t310 -89.5q116 0 211 37.5t157.5 103t100.5 149t48 179.5h69q-30 -229 -177.5 -373t-373.5 -154z" />
    <glyph glyph-name="Egrave" unicode="&#xc8;" horiz-adv-x="1189" 
d="M680 1645h-59l-156 260h84zM1130 0h-962v1464h942v-57h-877v-600h805v-57h-805v-693h897v-57z" />
    <glyph glyph-name="Eacute" unicode="&#xc9;" horiz-adv-x="1189" 
d="M692 1645h-59l131 260h84zM1130 0h-962v1464h942v-57h-877v-600h805v-57h-805v-693h897v-57z" />
    <glyph glyph-name="Ecircumflex" unicode="&#xca;" horiz-adv-x="1189" 
d="M522 1657h-80l181 248h75l179 -248h-82l-136 201h-2zM1130 0h-962v1464h942v-57h-877v-600h805v-57h-805v-693h897v-57z" />
    <glyph glyph-name="Edieresis" unicode="&#xcb;" horiz-adv-x="1189" 
d="M584 1686h-115v114h115v-114zM850 1686h-115v114h115v-114zM1130 0h-962v1464h942v-57h-877v-600h805v-57h-805v-693h897v-57z" />
    <glyph glyph-name="Igrave" unicode="&#xcc;" horiz-adv-x="401" 
d="M221 1645h-59l-156 260h84zM233 0h-65v1464h65v-1464z" />
    <glyph glyph-name="Iacute" unicode="&#xcd;" horiz-adv-x="401" 
d="M233 1645h-59l131 260h84zM233 0h-65v1464h65v-1464z" />
    <glyph glyph-name="Icircumflex" unicode="&#xce;" horiz-adv-x="401" 
d="M63 1657h-79l180 248h76l178 -248h-82l-135 201h-2zM233 0h-65v1464h65v-1464z" />
    <glyph glyph-name="Idieresis" unicode="&#xcf;" horiz-adv-x="401" 
d="M125 1686h-115v114h115v-114zM391 1686h-115v114h115v-114zM233 0h-65v1464h65v-1464z" />
    <glyph glyph-name="Eth" unicode="&#xd0;" horiz-adv-x="1406" 
d="M184 1464h525q124 0 225 -38t171 -104.5t117 -160t69 -202.5t22 -234t-23.5 -233t-72.5 -199t-121.5 -156t-174.5 -101t-227 -36h-510v729h-147v57h147v678zM250 57h442q263 0 407 177.5t144 490.5q0 317 -138 499.5t-398 182.5h-457v-621h528v-57h-528v-672z" />
    <glyph glyph-name="Ntilde" unicode="&#xd1;" horiz-adv-x="1421" 
d="M502 1634h-62q4 79 40.5 120.5t97.5 41.5q48 0 97 -27t92 -54t75 -27q67 0 76 108h61q-4 -80 -40 -121t-97 -41q-46 0 -95 27t-92.5 54.5t-76.5 27.5q-67 0 -76 -109zM233 0h-65v1464h82l934 -1376h4v1376h65v-1464h-82l-933 1372h-5v-1372z" />
    <glyph glyph-name="Ograve" unicode="&#xd2;" horiz-adv-x="1527" 
d="M784 1645h-59l-156 260h84zM764 -23q-198 0 -352 97t-238 269t-84 390t84 389.5t237.5 268t352.5 96.5t352.5 -96.5t237.5 -268t84 -389.5t-84 -390t-238 -269t-352 -97zM764 35q262 0 433 194t171 504t-171 503.5t-433 193.5t-433 -193.5t-171 -503.5t171 -504t433 -194
z" />
    <glyph glyph-name="Oacute" unicode="&#xd3;" horiz-adv-x="1527" 
d="M797 1645h-60l131 260h84zM764 -23q-198 0 -352 97t-238 269t-84 390t84 389.5t237.5 268t352.5 96.5t352.5 -96.5t237.5 -268t84 -389.5t-84 -390t-238 -269t-352 -97zM764 35q262 0 433 194t171 504t-171 503.5t-433 193.5t-433 -193.5t-171 -503.5t171 -504t433 -194z
" />
    <glyph glyph-name="Ocircumflex" unicode="&#xd4;" horiz-adv-x="1527" 
d="M627 1657h-80l180 248h76l178 -248h-82l-135 201h-2zM764 -23q-198 0 -352 97t-238 269t-84 390t84 389.5t237.5 268t352.5 96.5t352.5 -96.5t237.5 -268t84 -389.5t-84 -390t-238 -269t-352 -97zM764 35q262 0 433 194t171 504t-171 503.5t-433 193.5t-433 -193.5
t-171 -503.5t171 -504t433 -194z" />
    <glyph glyph-name="Otilde" unicode="&#xd5;" horiz-adv-x="1527" 
d="M555 1634h-61q4 79 40 120.5t97 41.5q48 0 97 -27t92 -54t75 -27q67 0 76 108h61q-4 -80 -40 -121t-97 -41q-46 0 -95 27t-92.5 54.5t-76.5 27.5q-67 0 -76 -109zM764 -23q-198 0 -352 97t-238 269t-84 390t84 389.5t237.5 268t352.5 96.5t352.5 -96.5t237.5 -268
t84 -389.5t-84 -390t-238 -269t-352 -97zM764 35q262 0 433 194t171 504t-171 503.5t-433 193.5t-433 -193.5t-171 -503.5t171 -504t433 -194z" />
    <glyph glyph-name="Odieresis" unicode="&#xd6;" horiz-adv-x="1527" 
d="M688 1686h-115v114h115v-114zM954 1686h-114v114h114v-114zM764 -23q-198 0 -352 97t-238 269t-84 390t84 389.5t237.5 268t352.5 96.5t352.5 -96.5t237.5 -268t84 -389.5t-84 -390t-238 -269t-352 -97zM764 35q262 0 433 194t171 504t-171 503.5t-433 193.5t-433 -193.5
t-171 -503.5t171 -504t433 -194z" />
    <glyph glyph-name="multiply" unicode="&#xd7;" horiz-adv-x="1064" 
d="M532 623l-327 -328l-43 43l327 328l-327 327l43 43l327 -327l328 327l43 -43l-328 -327l328 -328l-43 -43z" />
    <glyph glyph-name="Oslash" unicode="&#xd8;" horiz-adv-x="1544" 
d="M1419 1456l45 -41l-172 -180q154 -203 154 -502q0 -218 -84 -390t-238 -269t-352 -97q-295 0 -485 209l-168 -176l-41 43l172 180q-152 204 -152 500q0 218 84 389.5t237.5 268t352.5 96.5q295 0 481 -205zM168 733q0 -266 129 -450l909 952q-80 93 -192.5 144t-241.5 51
q-262 0 -433 -193.5t-171 -503.5zM1376 733q0 266 -131 453l-911 -950q83 -96 195.5 -148.5t242.5 -52.5q262 0 433 194t171 504z" />
    <glyph glyph-name="Ugrave" unicode="&#xd9;" horiz-adv-x="1363" 
d="M702 1645h-59l-156 260h84zM682 -23q-526 0 -526 531v956h65v-956q0 -239 114.5 -356t346.5 -117t346.5 117t114.5 356v956h65v-956q0 -531 -526 -531z" />
    <glyph glyph-name="Uacute" unicode="&#xda;" horiz-adv-x="1363" 
d="M715 1645h-60l131 260h84zM682 -23q-526 0 -526 531v956h65v-956q0 -239 114.5 -356t346.5 -117t346.5 117t114.5 356v956h65v-956q0 -531 -526 -531z" />
    <glyph glyph-name="Ucircumflex" unicode="&#xdb;" horiz-adv-x="1363" 
d="M545 1657h-80l180 248h76l178 -248h-82l-135 201h-2zM682 -23q-526 0 -526 531v956h65v-956q0 -239 114.5 -356t346.5 -117t346.5 117t114.5 356v956h65v-956q0 -531 -526 -531z" />
    <glyph glyph-name="Udieresis" unicode="&#xdc;" horiz-adv-x="1363" 
d="M606 1686h-114v114h114v-114zM872 1686h-114v114h114v-114zM682 -23q-526 0 -526 531v956h65v-956q0 -239 114.5 -356t346.5 -117t346.5 117t114.5 356v956h65v-956q0 -531 -526 -531z" />
    <glyph glyph-name="Yacute" unicode="&#xdd;" horiz-adv-x="1214" 
d="M641 1645h-59l131 260h84zM639 0h-66v600l-538 864h76l493 -802h8l498 802h72l-543 -864v-600z" />
    <glyph glyph-name="Thorn" unicode="&#xde;" horiz-adv-x="1216" 
d="M233 0h-65v1464h65v-225h455q463 0 463 -416q0 -415 -463 -415h-455v-408zM233 465h474q180 0 279 88t99 270t-99.5 270.5t-278.5 88.5h-474v-717z" />
    <glyph glyph-name="germandbls" unicode="&#xdf;" horiz-adv-x="1009" 
d="M580 -23q-108 0 -185 29v53q81 -24 166 -24q158 0 238 101.5t80 260.5q0 87 -27 156t-69.5 111.5t-98.5 70.5t-108.5 38.5t-104.5 10.5h-57v54h51q88 0 158.5 31t116.5 102t46 174q0 128 -73.5 208.5t-204.5 80.5q-89 0 -151.5 -28t-97 -83t-49.5 -125.5t-15 -165.5
v-1032h-62v1073q0 200 93 307t282 107q69 0 129 -20t108 -60.5t75.5 -107.5t27.5 -154q0 -247 -207 -332v-4q299 -90 299 -412q0 -182 -100 -301t-260 -119z" />
    <glyph glyph-name="agrave" unicode="&#xe0;" horiz-adv-x="1019" 
d="M532 1225h-59l-156 260h84zM412 -23q-152 0 -245 76t-93 203q0 141 92.5 212.5t300.5 104.5q21 3 59 8.5t60 8.5t55 10t52.5 15.5t42.5 22.5t35.5 32t21 44.5t8.5 59.5q0 114 -78 174t-205 60q-155 0 -238.5 -68.5t-91.5 -189.5h-65q3 46 16 88t42.5 84t72.5 72t111 48.5
t153 18.5q74 0 134 -16.5t108.5 -52.5t75 -99.5t26.5 -149.5v-571q0 -69 14.5 -96t57.5 -27q11 0 39 4v-53q-28 -4 -47 -4q-64 0 -94.5 37t-30.5 135h-4q-119 -191 -385 -191zM428 31q92 0 165.5 29t117.5 77t67 105.5t23 119.5v265q-21 -46 -98 -68.5t-216 -38.5
q-64 -8 -114 -19.5t-95 -31t-74.5 -45.5t-47 -64t-17.5 -86q0 -121 73.5 -182t215.5 -61z" />
    <glyph glyph-name="aacute" unicode="&#xe1;" horiz-adv-x="1019" 
d="M545 1225h-60l131 260h84zM412 -23q-152 0 -245 76t-93 203q0 141 92.5 212.5t300.5 104.5q21 3 59 8.5t60 8.5t55 10t52.5 15.5t42.5 22.5t35.5 32t21 44.5t8.5 59.5q0 114 -78 174t-205 60q-155 0 -238.5 -68.5t-91.5 -189.5h-65q3 46 16 88t42.5 84t72.5 72t111 48.5
t153 18.5q74 0 134 -16.5t108.5 -52.5t75 -99.5t26.5 -149.5v-571q0 -69 14.5 -96t57.5 -27q11 0 39 4v-53q-28 -4 -47 -4q-64 0 -94.5 37t-30.5 135h-4q-119 -191 -385 -191zM428 31q92 0 165.5 29t117.5 77t67 105.5t23 119.5v265q-21 -46 -98 -68.5t-216 -38.5
q-64 -8 -114 -19.5t-95 -31t-74.5 -45.5t-47 -64t-17.5 -86q0 -121 73.5 -182t215.5 -61z" />
    <glyph glyph-name="acircumflex" unicode="&#xe2;" horiz-adv-x="1019" 
d="M375 1237h-80l180 248h76l178 -248h-82l-135 201h-2zM412 -23q-152 0 -245 76t-93 203q0 141 92.5 212.5t300.5 104.5q21 3 59 8.5t60 8.5t55 10t52.5 15.5t42.5 22.5t35.5 32t21 44.5t8.5 59.5q0 114 -78 174t-205 60q-155 0 -238.5 -68.5t-91.5 -189.5h-65q3 46 16 88
t42.5 84t72.5 72t111 48.5t153 18.5q74 0 134 -16.5t108.5 -52.5t75 -99.5t26.5 -149.5v-571q0 -69 14.5 -96t57.5 -27q11 0 39 4v-53q-28 -4 -47 -4q-64 0 -94.5 37t-30.5 135h-4q-119 -191 -385 -191zM428 31q92 0 165.5 29t117.5 77t67 105.5t23 119.5v265
q-21 -46 -98 -68.5t-216 -38.5q-64 -8 -114 -19.5t-95 -31t-74.5 -45.5t-47 -64t-17.5 -86q0 -121 73.5 -182t215.5 -61z" />
    <glyph glyph-name="atilde" unicode="&#xe3;" horiz-adv-x="1019" 
d="M303 1214h-61q4 79 40 120.5t97 41.5q48 0 97 -27t92 -54t75 -27q67 0 76 108h61q-4 -80 -40 -121t-97 -41q-46 0 -95 27t-92.5 54.5t-76.5 27.5q-67 0 -76 -109zM412 -23q-152 0 -245 76t-93 203q0 141 92.5 212.5t300.5 104.5q21 3 59 8.5t60 8.5t55 10t52.5 15.5
t42.5 22.5t35.5 32t21 44.5t8.5 59.5q0 114 -78 174t-205 60q-155 0 -238.5 -68.5t-91.5 -189.5h-65q3 46 16 88t42.5 84t72.5 72t111 48.5t153 18.5q74 0 134 -16.5t108.5 -52.5t75 -99.5t26.5 -149.5v-571q0 -69 14.5 -96t57.5 -27q11 0 39 4v-53q-28 -4 -47 -4
q-64 0 -94.5 37t-30.5 135h-4q-119 -191 -385 -191zM428 31q92 0 165.5 29t117.5 77t67 105.5t23 119.5v265q-21 -46 -98 -68.5t-216 -38.5q-64 -8 -114 -19.5t-95 -31t-74.5 -45.5t-47 -64t-17.5 -86q0 -121 73.5 -182t215.5 -61z" />
    <glyph glyph-name="adieresis" unicode="&#xe4;" horiz-adv-x="1019" 
d="M436 1266h-114v114h114v-114zM702 1266h-114v114h114v-114zM412 -23q-152 0 -245 76t-93 203q0 141 92.5 212.5t300.5 104.5q21 3 59 8.5t60 8.5t55 10t52.5 15.5t42.5 22.5t35.5 32t21 44.5t8.5 59.5q0 114 -78 174t-205 60q-155 0 -238.5 -68.5t-91.5 -189.5h-65
q3 46 16 88t42.5 84t72.5 72t111 48.5t153 18.5q74 0 134 -16.5t108.5 -52.5t75 -99.5t26.5 -149.5v-571q0 -69 14.5 -96t57.5 -27q11 0 39 4v-53q-28 -4 -47 -4q-64 0 -94.5 37t-30.5 135h-4q-119 -191 -385 -191zM428 31q92 0 165.5 29t117.5 77t67 105.5t23 119.5v265
q-21 -46 -98 -68.5t-216 -38.5q-64 -8 -114 -19.5t-95 -31t-74.5 -45.5t-47 -64t-17.5 -86q0 -121 73.5 -182t215.5 -61z" />
    <glyph glyph-name="aring" unicode="&#xe5;" horiz-adv-x="1019" 
d="M510 1153q-72 0 -120 46t-48 118t48 118t120 46t120 -46t48 -118t-48 -118t-120 -46zM510 1202q54 0 84.5 31.5t30.5 83.5t-30.5 83.5t-84.5 31.5t-84.5 -31.5t-30.5 -83.5t30.5 -83.5t84.5 -31.5zM412 -23q-152 0 -245 76t-93 203q0 141 92.5 212.5t300.5 104.5
q21 3 59 8.5t60 8.5t55 10t52.5 15.5t42.5 22.5t35.5 32t21 44.5t8.5 59.5q0 114 -78 174t-205 60q-155 0 -238.5 -68.5t-91.5 -189.5h-65q3 46 16 88t42.5 84t72.5 72t111 48.5t153 18.5q74 0 134 -16.5t108.5 -52.5t75 -99.5t26.5 -149.5v-571q0 -69 14.5 -96t57.5 -27
q11 0 39 4v-53q-28 -4 -47 -4q-64 0 -94.5 37t-30.5 135h-4q-119 -191 -385 -191zM428 31q92 0 165.5 29t117.5 77t67 105.5t23 119.5v265q-21 -46 -98 -68.5t-216 -38.5q-64 -8 -114 -19.5t-95 -31t-74.5 -45.5t-47 -64t-17.5 -86q0 -121 73.5 -182t215.5 -61z" />
    <glyph glyph-name="ae" unicode="&#xe6;" horiz-adv-x="1789" 
d="M1718 532h-852v-12q0 -103 26 -191t76 -155.5t129.5 -106t180.5 -38.5q87 0 155 27.5t109 72.5t64 90.5t34 93.5h66q-37 -148 -146 -243t-284 -95q-159 0 -271.5 81t-164.5 225q-16 -71 -52 -126.5t-80 -88t-98 -53.5t-102 -28.5t-96 -7.5q-152 0 -245 75.5t-93 203.5
q0 140 93 212t300 105q21 3 59 8.5t60 8.5t55 10t52.5 15.5t42.5 22.5t35.5 32t21 44.5t8.5 59.5q0 115 -78 174.5t-205 59.5q-155 0 -238.5 -68.5t-91.5 -189.5h-65q3 46 16 88t42.5 84t72.5 72t111 48.5t153 18.5q142 0 235 -62t107 -196q59 124 167.5 191t252.5 67
q105 0 189.5 -37t138.5 -102t83 -151t29 -185q0 -36 -2 -54zM1276 1008q-93 0 -170 -34.5t-127.5 -93t-79.5 -134t-33 -160.5h789q0 85 -22.5 159.5t-67.5 134t-119 94t-170 34.5zM801 362v265q-21 -46 -98 -68.5t-216 -38.5q-80 -10 -140.5 -26.5t-109.5 -44.5t-74 -72
t-24 -103q-3 -121 71.5 -182t217.5 -61q92 0 165.5 28.5t117.5 76.5t67 105.5t23 120.5z" />
    <glyph glyph-name="ccedilla" unicode="&#xe7;" horiz-adv-x="1048" 
d="M563 29q85 0 154.5 30t112 77.5t66 100.5t26.5 105h65q-11 -149 -123 -255t-282 -112l-68 -84v-4q86 20 136 -14.5t50 -103.5q0 -71 -53 -109.5t-139 -38.5q-107 0 -195 55l27 35q71 -41 158 -41q62 0 99.5 24t37.5 73q0 79 -96 79q-51 0 -97 -22l-24 31l98 122
q-198 17 -320 165.5t-122 377.5q0 241 136 391t353 150q175 0 290.5 -104t133.5 -255h-65q-3 48 -27 99.5t-66 98.5t-112 77.5t-154 30.5q-100 0 -182 -40.5t-134 -109t-80 -155.5t-28 -183q0 -97 28 -185t80 -156.5t134 -109t182 -40.5z" />
    <glyph glyph-name="egrave" unicode="&#xe8;" horiz-adv-x="1062" 
d="M438 1487l131 -260h-59l-156 260h84zM991 532h-852v-12q0 -103 26 -191t76 -155.5t129.5 -106t180.5 -38.5q87 0 155 27.5t109 72.5t64 90.5t34 93.5h66q-37 -148 -146 -243t-284 -95q-219 0 -347 149.5t-128 391.5q0 249 131.5 397t347.5 148q105 0 189.5 -37
t138.5 -102t83 -151t29 -185q0 -36 -2 -54zM549 1008q-93 0 -170 -34.5t-127.5 -93t-79.5 -134t-33 -160.5h789q0 85 -22.5 159.5t-67.5 134t-119 94t-170 34.5z" />
    <glyph glyph-name="eacute" unicode="&#xe9;" horiz-adv-x="1062" 
d="M653 1487h84l-155 -260h-60zM991 532h-852v-12q0 -103 26 -191t76 -155.5t129.5 -106t180.5 -38.5q87 0 155 27.5t109 72.5t64 90.5t34 93.5h66q-37 -148 -146 -243t-284 -95q-219 0 -347 149.5t-128 391.5q0 249 131.5 397t347.5 148q105 0 189.5 -37t138.5 -102
t83 -151t29 -185q0 -36 -2 -54zM549 1008q-93 0 -170 -34.5t-127.5 -93t-79.5 -134t-33 -160.5h789q0 85 -22.5 159.5t-67.5 134t-119 94t-170 34.5z" />
    <glyph glyph-name="ecircumflex" unicode="&#xea;" horiz-adv-x="1062" 
d="M549 1440h-2l-135 -201h-80l180 248h76l178 -248h-82zM991 532h-852v-12q0 -103 26 -191t76 -155.5t129.5 -106t180.5 -38.5q87 0 155 27.5t109 72.5t64 90.5t34 93.5h66q-37 -148 -146 -243t-284 -95q-219 0 -347 149.5t-128 391.5q0 249 131.5 397t347.5 148
q105 0 189.5 -37t138.5 -102t83 -151t29 -185q0 -36 -2 -54zM549 1008q-93 0 -170 -34.5t-127.5 -93t-79.5 -134t-33 -160.5h789q0 85 -22.5 159.5t-67.5 134t-119 94t-170 34.5z" />
    <glyph glyph-name="edieresis" unicode="&#xeb;" horiz-adv-x="1062" 
d="M358 1382h115v-114h-115v114zM625 1382h114v-114h-114v114zM991 532h-852v-12q0 -103 26 -191t76 -155.5t129.5 -106t180.5 -38.5q87 0 155 27.5t109 72.5t64 90.5t34 93.5h66q-37 -148 -146 -243t-284 -95q-219 0 -347 149.5t-128 391.5q0 249 131.5 397t347.5 148
q105 0 189.5 -37t138.5 -102t83 -151t29 -185q0 -36 -2 -54zM549 1008q-93 0 -170 -34.5t-127.5 -93t-79.5 -134t-33 -160.5h789q0 85 -22.5 159.5t-67.5 134t-119 94t-170 34.5z" />
    <glyph glyph-name="igrave" unicode="&#xec;" horiz-adv-x="327" 
d="M184 1225h-59l-156 260h84zM195 0h-62v1044h62v-1044z" />
    <glyph glyph-name="iacute" unicode="&#xed;" horiz-adv-x="327" 
d="M197 1225h-60l131 260h84zM195 0h-62v1044h62v-1044z" />
    <glyph glyph-name="icircumflex" unicode="&#xee;" horiz-adv-x="327" 
d="M27 1237h-80l180 248h76l178 -248h-82l-135 201h-2zM195 0h-62v1044h62v-1044z" />
    <glyph glyph-name="idieresis" unicode="&#xef;" horiz-adv-x="327" 
d="M88 1266h-115v114h115v-114zM354 1266h-114v114h114v-114zM195 0h-62v1044h62v-1044z" />
    <glyph glyph-name="eth" unicode="&#xf0;" horiz-adv-x="1112" 
d="M1026 1352l-287 -76q295 -315 295 -729q0 -164 -55 -291.5t-164.5 -201.5t-259.5 -74q-144 0 -255 73t-169.5 195.5t-58.5 273.5q0 113 33 211.5t93 171t149 114.5t196 42q122 0 225.5 -57t161.5 -158q-41 190 -254 414l-340 -89l-14 54l307 82q-83 83 -185 157h88
q87 -68 162 -141l318 84zM555 33q195 0 304.5 143t109.5 361q0 204 -116.5 337.5t-309.5 133.5q-125 0 -218.5 -67t-140.5 -176t-47 -243q0 -206 114.5 -347.5t303.5 -141.5z" />
    <glyph glyph-name="ntilde" unicode="&#xf1;" horiz-adv-x="1034" 
d="M410 1331q-67 0 -76 -108h-62q4 78 40.5 119.5t97.5 41.5q48 0 97 -27t92 -54t75 -27q67 0 76 108h61q-4 -80 -40 -120.5t-97 -40.5q-46 0 -95 27t-92.5 54t-76.5 27zM588 1061q140 0 230.5 -83t90.5 -237v-741h-61v741q0 52 -12.5 96t-41.5 84.5t-85.5 63.5t-135.5 23
q-82 0 -155 -32.5t-120.5 -82.5t-75 -107t-27.5 -108v-678h-62v1044h62v-204h4q127 221 389 221z" />
    <glyph glyph-name="ograve" unicode="&#xf2;" horiz-adv-x="1110" 
d="M575 1225h-59l-156 260h84zM555 -25q-222 0 -351.5 149.5t-129.5 393.5t129.5 393.5t351.5 149.5t351.5 -149.5t129.5 -393.5t-129.5 -393.5t-351.5 -149.5zM555 29q196 0 306 136t110 353t-110 353.5t-306 136.5t-306 -136.5t-110 -353.5t110 -353t306 -136z" />
    <glyph glyph-name="oacute" unicode="&#xf3;" horiz-adv-x="1110" 
d="M588 1225h-60l131 260h84zM555 -25q-222 0 -351.5 149.5t-129.5 393.5t129.5 393.5t351.5 149.5t351.5 -149.5t129.5 -393.5t-129.5 -393.5t-351.5 -149.5zM555 29q196 0 306 136t110 353t-110 353.5t-306 136.5t-306 -136.5t-110 -353.5t110 -353t306 -136z" />
    <glyph glyph-name="ocircumflex" unicode="&#xf4;" horiz-adv-x="1110" 
d="M418 1237h-80l180 248h76l178 -248h-82l-135 201h-2zM555 -25q-222 0 -351.5 149.5t-129.5 393.5t129.5 393.5t351.5 149.5t351.5 -149.5t129.5 -393.5t-129.5 -393.5t-351.5 -149.5zM555 29q196 0 306 136t110 353t-110 353.5t-306 136.5t-306 -136.5t-110 -353.5
t110 -353t306 -136z" />
    <glyph glyph-name="otilde" unicode="&#xf5;" horiz-adv-x="1110" 
d="M346 1214h-61q4 79 40 120.5t97 41.5q48 0 97 -27t92 -54t75 -27q67 0 76 108h61q-4 -80 -40 -121t-97 -41q-46 0 -95 27t-92.5 54.5t-76.5 27.5q-67 0 -76 -109zM555 -25q-222 0 -351.5 149.5t-129.5 393.5t129.5 393.5t351.5 149.5t351.5 -149.5t129.5 -393.5
t-129.5 -393.5t-351.5 -149.5zM555 29q196 0 306 136t110 353t-110 353.5t-306 136.5t-306 -136.5t-110 -353.5t110 -353t306 -136z" />
    <glyph glyph-name="odieresis" unicode="&#xf6;" horiz-adv-x="1110" 
d="M479 1266h-114v114h114v-114zM745 1266h-114v114h114v-114zM555 -25q-222 0 -351.5 149.5t-129.5 393.5t129.5 393.5t351.5 149.5t351.5 -149.5t129.5 -393.5t-129.5 -393.5t-351.5 -149.5zM555 29q196 0 306 136t110 353t-110 353.5t-306 136.5t-306 -136.5t-110 -353.5
t110 -353t306 -136z" />
    <glyph glyph-name="divide" unicode="&#xf7;" horiz-adv-x="1064" 
d="M590 942h-115v115h115v-115zM958 641h-852v57h852v-57zM590 295h-115v115h115v-115z" />
    <glyph glyph-name="oslash" unicode="&#xf8;" horiz-adv-x="1132" 
d="M1036 1065l43 -43l-135 -143q105 -142 105 -361q0 -244 -130 -393.5t-352 -149.5q-212 0 -342 140l-129 -135l-41 43l131 139q-100 139 -100 356q0 244 129.5 393.5t351.5 149.5q209 0 338 -135zM152 518q0 -185 77 -309l635 674q-112 125 -297 125q-196 0 -305.5 -136.5
t-109.5 -353.5zM983 518q0 186 -82 316l-635 -674q112 -131 301 -131q196 0 306 136t110 353z" />
    <glyph glyph-name="ugrave" unicode="&#xf9;" horiz-adv-x="1034" 
d="M397 1485l131 -260h-59l-156 260h84zM840 367v677h61v-1044h-61v199h-4q-128 -215 -390 -215q-140 0 -230.5 82.5t-90.5 236.5v741h61v-741q0 -52 12.5 -96t41.5 -84t85.5 -63t135.5 -23q82 0 155 32.5t121 82.5t75.5 107t27.5 108z" />
    <glyph glyph-name="uacute" unicode="&#xfa;" horiz-adv-x="1034" 
d="M612 1485h84l-155 -260h-60zM840 367v677h61v-1044h-61v199h-4q-128 -215 -390 -215q-140 0 -230.5 82.5t-90.5 236.5v741h61v-741q0 -52 12.5 -96t41.5 -84t85.5 -63t135.5 -23q82 0 155 32.5t121 82.5t75.5 107t27.5 108z" />
    <glyph glyph-name="ucircumflex" unicode="&#xfb;" horiz-adv-x="1034" 
d="M508 1438h-2l-135 -201h-80l180 248h76l178 -248h-82zM840 367v677h61v-1044h-61v199h-4q-128 -215 -390 -215q-140 0 -230.5 82.5t-90.5 236.5v741h61v-741q0 -52 12.5 -96t41.5 -84t85.5 -63t135.5 -23q82 0 155 32.5t121 82.5t75.5 107t27.5 108z" />
    <glyph glyph-name="udieresis" unicode="&#xfc;" horiz-adv-x="1034" 
d="M317 1380h115v-114h-115v114zM584 1380h114v-114h-114v114zM840 367v677h61v-1044h-61v199h-4q-128 -215 -390 -215q-140 0 -230.5 82.5t-90.5 236.5v741h61v-741q0 -52 12.5 -96t41.5 -84t85.5 -63t135.5 -23q82 0 155 32.5t121 82.5t75.5 107t27.5 108z" />
    <glyph glyph-name="yacute" unicode="&#xfd;" horiz-adv-x="929" 
d="M494 1225h-60l131 260h84zM184 -367q-21 0 -82 7v53q50 -4 80 -4q90 0 140.5 65t115.5 242l-418 1048h66l381 -960h2l367 960h65l-412 -1073q-75 -194 -138.5 -266t-166.5 -72z" />
    <glyph glyph-name="thorn" unicode="&#xfe;" horiz-adv-x="1118" 
d="M610 1067q185 0 309.5 -147.5t124.5 -397.5q0 -246 -125 -392t-311 -146q-153 0 -256.5 80t-152.5 210h-4v-636h-62v1826h62v-682h4q48 125 153 205t258 80zM596 37q170 0 276.5 131.5t106.5 353.5q0 227 -106.5 359.5t-276.5 132.5q-81 0 -153.5 -34t-127.5 -96
t-87.5 -156t-32.5 -206q0 -219 117 -352t284 -133z" />
    <glyph glyph-name="ydieresis" unicode="&#xff;" horiz-adv-x="929" 
d="M385 1266h-115v114h115v-114zM651 1266h-114v114h114v-114zM184 -367q-21 0 -82 7v53q50 -4 80 -4q90 0 140.5 65t115.5 242l-418 1048h66l381 -960h2l367 960h65l-412 -1073q-75 -194 -138.5 -266t-166.5 -72z" />
    <glyph glyph-name="Amacron" unicode="&#x100;" horiz-adv-x="1255" 
d="M860 1720h-467v58h467v-58zM94 0h-67l561 1464h76l569 -1464h-72l-188 498h-688zM625 1389l-320 -834h645l-321 834h-4z" />
    <glyph glyph-name="amacron" unicode="&#x101;" horiz-adv-x="1019" 
d="M745 1300h-466v58h466v-58zM412 -23q-152 0 -245 76t-93 203q0 141 92.5 212.5t300.5 104.5q21 3 59 8.5t60 8.5t55 10t52.5 15.5t42.5 22.5t35.5 32t21 44.5t8.5 59.5q0 114 -78 174t-205 60q-155 0 -238.5 -68.5t-91.5 -189.5h-65q3 46 16 88t42.5 84t72.5 72t111 48.5
t153 18.5q74 0 134 -16.5t108.5 -52.5t75 -99.5t26.5 -149.5v-571q0 -69 14.5 -96t57.5 -27q11 0 39 4v-53q-28 -4 -47 -4q-64 0 -94.5 37t-30.5 135h-4q-119 -191 -385 -191zM428 31q92 0 165.5 29t117.5 77t67 105.5t23 119.5v265q-21 -46 -98 -68.5t-216 -38.5
q-64 -8 -114 -19.5t-95 -31t-74.5 -45.5t-47 -64t-17.5 -86q0 -121 73.5 -182t215.5 -61z" />
    <glyph glyph-name="Abreve" unicode="&#x102;" horiz-adv-x="1255" 
d="M625 1655q-102 0 -167 66t-71 163h57q12 -74 58 -125t123 -51q78 0 124 50.5t58 125.5h57q-6 -98 -70.5 -163.5t-168.5 -65.5zM94 0h-67l561 1464h76l569 -1464h-72l-188 498h-688zM625 1389l-320 -834h645l-321 834h-4z" />
    <glyph glyph-name="abreve" unicode="&#x103;" horiz-adv-x="1019" 
d="M510 1235q-102 0 -167 66t-71 163h58q12 -74 57.5 -125t122.5 -51q78 0 124 50.5t58 125.5h58q-6 -97 -71 -163t-169 -66zM412 -23q-152 0 -245 76t-93 203q0 141 92.5 212.5t300.5 104.5q21 3 59 8.5t60 8.5t55 10t52.5 15.5t42.5 22.5t35.5 32t21 44.5t8.5 59.5
q0 114 -78 174t-205 60q-155 0 -238.5 -68.5t-91.5 -189.5h-65q3 46 16 88t42.5 84t72.5 72t111 48.5t153 18.5q74 0 134 -16.5t108.5 -52.5t75 -99.5t26.5 -149.5v-571q0 -69 14.5 -96t57.5 -27q11 0 39 4v-53q-28 -4 -47 -4q-64 0 -94.5 37t-30.5 135h-4
q-119 -191 -385 -191zM428 31q92 0 165.5 29t117.5 77t67 105.5t23 119.5v265q-21 -46 -98 -68.5t-216 -38.5q-64 -8 -114 -19.5t-95 -31t-74.5 -45.5t-47 -64t-17.5 -86q0 -121 73.5 -182t215.5 -61z" />
    <glyph glyph-name="Aogonek" unicode="&#x104;" horiz-adv-x="1255" 
d="M1180 -303q55 0 106 20v-49q-46 -22 -110 -22q-92 0 -139.5 42t-47.5 111q0 61 51 113.5t125 87.5h-4l-188 498h-688l-191 -498h-67l561 1464h76l569 -1464h-6q-89 -49 -131.5 -96t-42.5 -103q0 -47 32 -75.5t95 -28.5zM625 1389l-320 -834h645l-321 834h-4z" />
    <glyph glyph-name="aogonek" unicode="&#x105;" horiz-adv-x="1019" 
d="M924 -305q55 0 106 20v-49q-46 -22 -110 -22q-92 0 -139.5 42t-47.5 111q0 61 50 112.5t124 86.5q-54 5 -80 43.5t-26 128.5h-4q-119 -191 -385 -191q-152 0 -245 76t-93 203q0 141 92.5 212.5t300.5 104.5q21 3 59 8.5t60 8.5t55 10t52.5 15.5t42.5 22.5t35.5 32
t21 44.5t8.5 59.5q0 114 -78 174t-205 60q-155 0 -238.5 -68.5t-91.5 -189.5h-65q3 46 16 88t42.5 84t72.5 72t111 48.5t153 18.5q74 0 134 -16.5t108.5 -52.5t75 -99.5t26.5 -149.5v-571q0 -69 14.5 -96t57.5 -27q11 0 39 4v-53q-2 0 -8 -1t-9 -1h15q-89 -49 -131.5 -96
t-42.5 -103q0 -47 32 -75.5t95 -28.5zM801 362v265q-21 -46 -98 -68.5t-216 -38.5q-64 -8 -114 -19.5t-95 -31t-74.5 -45.5t-47 -64t-17.5 -86q0 -121 73.5 -182t215.5 -61q92 0 165.5 29t117.5 77t67 105.5t23 119.5z" />
    <glyph glyph-name="Cacute" unicode="&#x106;" horiz-adv-x="1396" 
d="M797 1645h-60l131 260h84zM745 -23q-191 0 -339.5 93.5t-231 264.5t-82.5 394q0 220 81.5 392.5t232.5 269t348 96.5q225 0 374 -124.5t185 -330.5h-70q-29 175 -158 286.5t-333 111.5q-181 0 -317.5 -92.5t-206.5 -250.5t-70 -358q0 -201 71.5 -358t205.5 -246.5
t310 -89.5q116 0 211 37.5t157.5 103t100.5 149t48 179.5h69q-31 -237 -188 -382t-398 -145z" />
    <glyph glyph-name="cacute" unicode="&#x107;" horiz-adv-x="1048" 
d="M596 1227h-59l131 260h84zM563 -25q-217 0 -353 150.5t-136 394.5q0 241 136 391t353 150q175 0 290.5 -104t133.5 -255h-65q-3 48 -27 99.5t-66 98.5t-112 77.5t-154 30.5q-100 0 -182 -40.5t-134 -109t-80 -155.5t-28 -183q0 -97 28 -185t80 -156.5t134 -109t182 -40.5
q85 0 154.5 30t112 77.5t66 100.5t26.5 105h65q-11 -153 -128.5 -260t-295.5 -107z" />
    <glyph glyph-name="Ccircumflex" unicode="&#x108;" horiz-adv-x="1396" 
d="M627 1657h-80l180 248h76l178 -248h-82l-135 201h-2zM745 -23q-191 0 -339.5 93.5t-231 264.5t-82.5 394q0 220 81.5 392.5t232.5 269t348 96.5q225 0 374 -124.5t185 -330.5h-70q-29 175 -158 286.5t-333 111.5q-181 0 -317.5 -92.5t-206.5 -250.5t-70 -358
q0 -201 71.5 -358t205.5 -246.5t310 -89.5q116 0 211 37.5t157.5 103t100.5 149t48 179.5h69q-31 -237 -188 -382t-398 -145z" />
    <glyph glyph-name="ccircumflex" unicode="&#x109;" horiz-adv-x="1048" 
d="M426 1239h-80l180 248h76l178 -248h-82l-135 201h-2zM563 -25q-217 0 -353 150.5t-136 394.5q0 241 136 391t353 150q175 0 290.5 -104t133.5 -255h-65q-3 48 -27 99.5t-66 98.5t-112 77.5t-154 30.5q-100 0 -182 -40.5t-134 -109t-80 -155.5t-28 -183q0 -97 28 -185
t80 -156.5t134 -109t182 -40.5q85 0 154.5 30t112 77.5t66 100.5t26.5 105h65q-11 -153 -128.5 -260t-295.5 -107z" />
    <glyph glyph-name="Cdotaccent" unicode="&#x10a;" horiz-adv-x="1396" 
d="M821 1686h-114v114h114v-114zM745 -23q-191 0 -339.5 93.5t-231 264.5t-82.5 394q0 220 81.5 392.5t232.5 269t348 96.5q225 0 374 -124.5t185 -330.5h-70q-29 175 -158 286.5t-333 111.5q-181 0 -317.5 -92.5t-206.5 -250.5t-70 -358q0 -201 71.5 -358t205.5 -246.5
t310 -89.5q116 0 211 37.5t157.5 103t100.5 149t48 179.5h69q-31 -237 -188 -382t-398 -145z" />
    <glyph glyph-name="cdotaccent" unicode="&#x10b;" horiz-adv-x="1048" 
d="M621 1268h-115v114h115v-114zM563 -25q-217 0 -353 150.5t-136 394.5q0 241 136 391t353 150q175 0 290.5 -104t133.5 -255h-65q-3 48 -27 99.5t-66 98.5t-112 77.5t-154 30.5q-100 0 -182 -40.5t-134 -109t-80 -155.5t-28 -183q0 -97 28 -185t80 -156.5t134 -109
t182 -40.5q85 0 154.5 30t112 77.5t66 100.5t26.5 105h65q-11 -153 -128.5 -260t-295.5 -107z" />
    <glyph glyph-name="Ccaron" unicode="&#x10c;" horiz-adv-x="1396" 
d="M801 1649h-76l-178 247h82l135 -200h2l135 200h80zM745 -23q-191 0 -339.5 93.5t-231 264.5t-82.5 394q0 220 81.5 392.5t232.5 269t348 96.5q225 0 374 -124.5t185 -330.5h-70q-29 175 -158 286.5t-333 111.5q-181 0 -317.5 -92.5t-206.5 -250.5t-70 -358
q0 -201 71.5 -358t205.5 -246.5t310 -89.5q116 0 211 37.5t157.5 103t100.5 149t48 179.5h69q-31 -237 -188 -382t-398 -145z" />
    <glyph glyph-name="ccaron" unicode="&#x10d;" horiz-adv-x="1048" 
d="M600 1231h-76l-178 248h82l135 -201h2l135 201h80zM563 -25q-217 0 -353 150.5t-136 394.5q0 241 136 391t353 150q175 0 290.5 -104t133.5 -255h-65q-3 48 -27 99.5t-66 98.5t-112 77.5t-154 30.5q-100 0 -182 -40.5t-134 -109t-80 -155.5t-28 -183q0 -97 28 -185
t80 -156.5t134 -109t182 -40.5q85 0 154.5 30t112 77.5t66 100.5t26.5 105h65q-11 -153 -128.5 -260t-295.5 -107z" />
    <glyph glyph-name="Dcaron" unicode="&#x10e;" horiz-adv-x="1390" 
d="M606 1649h-76l-178 247h82l135 -200h2l136 200h79zM678 0h-510v1464h524q124 0 225 -38t171 -104.5t117 -160t69 -202.5t22 -234t-23.5 -233t-72.5 -199t-121 -156t-174 -101t-227 -36zM233 57h443q263 0 407 177.5t144 490.5q0 317 -138.5 499.5t-398.5 182.5h-457
v-1350z" />
    <glyph glyph-name="dcaron" unicode="&#x10f;" horiz-adv-x="1134" 
d="M920 770h4v694h61v-1464h-61v262h-4q-48 -124 -153.5 -204.5t-258.5 -80.5q-185 0 -309.5 147.5t-124.5 397.5q0 246 125 392.5t311 146.5q153 0 257 -80t153 -211zM1067 1096l51 368h74l-76 -368h-49zM522 31q81 0 153.5 34t128 96t88 155.5t32.5 205.5
q0 219 -117.5 352.5t-284.5 133.5q-170 0 -276.5 -131.5t-106.5 -354.5q0 -227 106.5 -359t276.5 -132z" />
    <glyph glyph-name="Dcroat" unicode="&#x110;" horiz-adv-x="1406" 
d="M184 1464h525q124 0 225 -38t171 -104.5t117 -160t69 -202.5t22 -234t-23.5 -233t-72.5 -199t-121.5 -156t-174.5 -101t-227 -36h-510v729h-147v57h147v678zM250 57h442q263 0 407 177.5t144 490.5q0 317 -138 499.5t-398 182.5h-457v-621h528v-57h-528v-672z" />
    <glyph glyph-name="dcroat" unicode="&#x111;" horiz-adv-x="1118" 
d="M985 1296h141v-53h-141v-1243h-61v262h-4q-48 -124 -153.5 -204.5t-258.5 -80.5q-185 0 -309.5 147.5t-124.5 397.5q0 246 125 392.5t311 146.5q153 0 257 -80t153 -211h4v473h-277v53h277v168h61v-168zM522 31q81 0 153.5 34t128 96t88 155.5t32.5 205.5
q0 219 -117.5 352.5t-284.5 133.5q-170 0 -276.5 -131.5t-106.5 -354.5q0 -227 106.5 -359t276.5 -132z" />
    <glyph glyph-name="Emacron" unicode="&#x112;" horiz-adv-x="1189" 
d="M893 1720h-467v58h467v-58zM1130 0h-962v1464h942v-57h-877v-600h805v-57h-805v-693h897v-57z" />
    <glyph glyph-name="emacron" unicode="&#x113;" horiz-adv-x="1062" 
d="M315 1360h467v-57h-467v57zM991 532h-852v-12q0 -103 26 -191t76 -155.5t129.5 -106t180.5 -38.5q87 0 155 27.5t109 72.5t64 90.5t34 93.5h66q-37 -148 -146 -243t-284 -95q-219 0 -347 149.5t-128 391.5q0 249 131.5 397t347.5 148q105 0 189.5 -37t138.5 -102t83 -151
t29 -185q0 -36 -2 -54zM549 1008q-93 0 -170 -34.5t-127.5 -93t-79.5 -134t-33 -160.5h789q0 85 -22.5 159.5t-67.5 134t-119 94t-170 34.5z" />
    <glyph glyph-name="Edotaccent" unicode="&#x116;" horiz-adv-x="1189" 
d="M717 1686h-115v114h115v-114zM1130 0h-962v1464h942v-57h-877v-600h805v-57h-805v-693h897v-57z" />
    <glyph glyph-name="edotaccent" unicode="&#x117;" horiz-adv-x="1062" 
d="M492 1382h114v-114h-114v114zM991 532h-852v-12q0 -103 26 -191t76 -155.5t129.5 -106t180.5 -38.5q87 0 155 27.5t109 72.5t64 90.5t34 93.5h66q-37 -148 -146 -243t-284 -95q-219 0 -347 149.5t-128 391.5q0 249 131.5 397t347.5 148q105 0 189.5 -37t138.5 -102
t83 -151t29 -185q0 -36 -2 -54zM549 1008q-93 0 -170 -34.5t-127.5 -93t-79.5 -134t-33 -160.5h789q0 85 -22.5 159.5t-67.5 134t-119 94t-170 34.5z" />
    <glyph glyph-name="Eogonek" unicode="&#x118;" horiz-adv-x="1189" 
d="M1044 -303q56 0 107 20v-49q-46 -22 -111 -22q-92 0 -139 42t-47 111q0 61 51 113.5t125 87.5h-862v1464h942v-57h-877v-600h805v-57h-805v-693h897v-57h-38q-89 -49 -131.5 -96t-42.5 -103q0 -47 31.5 -75.5t94.5 -28.5z" />
    <glyph glyph-name="eogonek" unicode="&#x119;" horiz-adv-x="1062" 
d="M991 532h-852v-12q0 -103 26 -191t76 -155.5t129.5 -106t180.5 -38.5q87 0 155 27.5t109 72.5t64 90.5t34 93.5h66q-28 -115 -101.5 -200t-189.5 -119q-160 -91 -160 -191q0 -47 32 -75.5t95 -28.5q56 0 107 20v-49q-46 -22 -111 -22q-92 0 -139 42t-47 111q0 97 129 176
q-14 -2 -45 -2q-219 0 -347 149.5t-128 391.5q0 249 131.5 397t347.5 148q105 0 189.5 -37t138.5 -102t83 -151t29 -185q0 -36 -2 -54zM549 1008q-93 0 -170 -34.5t-127.5 -93t-79.5 -134t-33 -160.5h789q0 85 -22.5 159.5t-67.5 134t-119 94t-170 34.5z" />
    <glyph glyph-name="Ecaron" unicode="&#x11a;" horiz-adv-x="1189" 
d="M696 1649h-75l-179 247h82l135 -200h3l135 200h80zM1130 0h-962v1464h942v-57h-877v-600h805v-57h-805v-693h897v-57z" />
    <glyph glyph-name="ecaron" unicode="&#x11b;" horiz-adv-x="1062" 
d="M766 1479l-180 -248h-76l-178 248h82l135 -201h2l135 201h80zM991 532h-852v-12q0 -103 26 -191t76 -155.5t129.5 -106t180.5 -38.5q87 0 155 27.5t109 72.5t64 90.5t34 93.5h66q-37 -148 -146 -243t-284 -95q-219 0 -347 149.5t-128 391.5q0 249 131.5 397t347.5 148
q105 0 189.5 -37t138.5 -102t83 -151t29 -185q0 -36 -2 -54zM549 1008q-93 0 -170 -34.5t-127.5 -93t-79.5 -134t-33 -160.5h789q0 85 -22.5 159.5t-67.5 134t-119 94t-170 34.5z" />
    <glyph glyph-name="Gcircumflex" unicode="&#x11c;" horiz-adv-x="1476" 
d="M633 1657h-80l180 248h76l178 -248h-82l-135 201h-2zM758 -23q-160 0 -287.5 57.5t-209.5 159t-125.5 238t-43.5 297.5q0 158 45 295t129.5 240.5t215 163t292.5 59.5q226 0 378.5 -118t190.5 -322h-65q-34 170 -171 276.5t-333 106.5q-150 0 -268.5 -56.5t-192.5 -154
t-112.5 -222.5t-38.5 -268q0 -147 37 -271.5t109 -219.5t187.5 -149t262.5 -54q252 0 397 172t145 461h-507v57h573v-725h-53l-8 387h-5q-39 -177 -180.5 -293.5t-361.5 -116.5z" />
    <glyph glyph-name="gcircumflex" unicode="&#x11d;" horiz-adv-x="1114" 
d="M551 1438h-2l-135 -201h-80l180 248h76l178 -248h-82zM922 799v248h61v-990q0 -215 -118.5 -323.5t-327.5 -108.5q-191 0 -304.5 85.5t-126.5 211.5h62q19 -104 112.5 -174t260.5 -70q178 0 279.5 89.5t101.5 267.5v262h-4q-45 -115 -152 -185.5t-244 -70.5
q-88 0 -166.5 31.5t-141 92.5t-99.5 162t-37 230q0 125 37 223.5t99.5 158.5t141 91t166.5 31q138 0 244 -70t152 -192h4zM537 94q71 0 137.5 28.5t123 83t90.5 145.5t34 206q0 110 -34 199t-90.5 142.5t-123.5 81.5t-137 28q-82 0 -152.5 -28t-125 -82t-85.5 -141.5
t-31 -199.5q0 -116 31 -206.5t85.5 -145.5t125 -83t152.5 -28z" />
    <glyph glyph-name="Gbreve" unicode="&#x11e;" horiz-adv-x="1476" 
d="M768 1655q-102 0 -167 66t-71 163h58q12 -74 57.5 -125t122.5 -51q78 0 124 50.5t58 125.5h58q-6 -97 -71 -163t-169 -66zM758 -23q-160 0 -287.5 57.5t-209.5 159t-125.5 238t-43.5 297.5q0 158 45 295t129.5 240.5t215 163t292.5 59.5q226 0 378.5 -118t190.5 -322h-65
q-34 170 -171 276.5t-333 106.5q-150 0 -268.5 -56.5t-192.5 -154t-112.5 -222.5t-38.5 -268q0 -147 37 -271.5t109 -219.5t187.5 -149t262.5 -54q252 0 397 172t145 461h-507v57h573v-725h-53l-8 387h-5q-39 -177 -180.5 -293.5t-361.5 -116.5z" />
    <glyph glyph-name="gbreve" unicode="&#x11f;" horiz-adv-x="1114" 
d="M549 1235q-102 0 -167 66t-71 163h58q12 -74 57.5 -125t122.5 -51q78 0 124 50.5t58 125.5h57q-6 -98 -70.5 -163.5t-168.5 -65.5zM922 799v248h61v-990q0 -215 -118.5 -323.5t-327.5 -108.5q-191 0 -304.5 85.5t-126.5 211.5h62q19 -104 112.5 -174t260.5 -70
q178 0 279.5 89.5t101.5 267.5v262h-4q-45 -115 -152 -185.5t-244 -70.5q-88 0 -166.5 31.5t-141 92.5t-99.5 162t-37 230q0 125 37 223.5t99.5 158.5t141 91t166.5 31q138 0 244 -70t152 -192h4zM537 94q71 0 137.5 28.5t123 83t90.5 145.5t34 206q0 110 -34 199
t-90.5 142.5t-123.5 81.5t-137 28q-82 0 -152.5 -28t-125 -82t-85.5 -141.5t-31 -199.5q0 -116 31 -206.5t85.5 -145.5t125 -83t152.5 -28z" />
    <glyph glyph-name="Gdotaccent" unicode="&#x120;" horiz-adv-x="1476" 
d="M827 1686h-114v114h114v-114zM758 -23q-160 0 -287.5 57.5t-209.5 159t-125.5 238t-43.5 297.5q0 158 45 295t129.5 240.5t215 163t292.5 59.5q226 0 378.5 -118t190.5 -322h-65q-34 170 -171 276.5t-333 106.5q-150 0 -268.5 -56.5t-192.5 -154t-112.5 -222.5
t-38.5 -268q0 -147 37 -271.5t109 -219.5t187.5 -149t262.5 -54q252 0 397 172t145 461h-507v57h573v-725h-53l-8 387h-5q-39 -177 -180.5 -293.5t-361.5 -116.5z" />
    <glyph glyph-name="gdotaccent" unicode="&#x121;" horiz-adv-x="1114" 
d="M494 1380h114v-114h-114v114zM922 799v248h61v-990q0 -215 -118.5 -323.5t-327.5 -108.5q-191 0 -304.5 85.5t-126.5 211.5h62q19 -104 112.5 -174t260.5 -70q178 0 279.5 89.5t101.5 267.5v262h-4q-45 -115 -152 -185.5t-244 -70.5q-88 0 -166.5 31.5t-141 92.5
t-99.5 162t-37 230q0 125 37 223.5t99.5 158.5t141 91t166.5 31q138 0 244 -70t152 -192h4zM537 94q71 0 137.5 28.5t123 83t90.5 145.5t34 206q0 110 -34 199t-90.5 142.5t-123.5 81.5t-137 28q-82 0 -152.5 -28t-125 -82t-85.5 -141.5t-31 -199.5q0 -116 31 -206.5
t85.5 -145.5t125 -83t152.5 -28z" />
    <glyph glyph-name="uni0122" unicode="&#x122;" horiz-adv-x="1476" 
d="M793 668v57h573v-725h-53l-8 387h-5q-39 -177 -180.5 -293.5t-361.5 -116.5q-160 0 -287.5 57.5t-209.5 159t-125.5 238t-43.5 297.5q0 158 45 295t129.5 240.5t215 163t292.5 59.5q226 0 378.5 -118t190.5 -322h-65q-34 170 -171 276.5t-333 106.5q-150 0 -268.5 -56.5
t-192.5 -154t-112.5 -222.5t-38.5 -268q0 -147 37 -271.5t109 -219.5t187.5 -149t262.5 -54q252 0 397 172t145 461h-507zM786 -209h-59v113h113v-113q0 -38 -1.5 -61.5t-7.5 -50.5t-18 -44t-33.5 -33.5t-52.5 -27.5v55q36 14 47.5 49.5t11.5 112.5z" />
    <glyph glyph-name="uni0123" unicode="&#x123;" horiz-adv-x="1114" 
d="M528 1356h60v-113h-113v113q0 39 3 63.5t13.5 52t34.5 47t62 33.5v-55q-36 -14 -48 -46.5t-12 -94.5zM922 799v248h61v-990q0 -215 -118.5 -323.5t-327.5 -108.5q-191 0 -304.5 85.5t-126.5 211.5h62q19 -104 112.5 -174t260.5 -70q178 0 279.5 89.5t101.5 267.5v262h-4
q-45 -115 -152 -185.5t-244 -70.5q-88 0 -166.5 31.5t-141 92.5t-99.5 162t-37 230q0 125 37 223.5t99.5 158.5t141 91t166.5 31q138 0 244 -70t152 -192h4zM537 94q71 0 137.5 28.5t123 83t90.5 145.5t34 206q0 110 -34 199t-90.5 142.5t-123.5 81.5t-137 28
q-82 0 -152.5 -28t-125 -82t-85.5 -141.5t-31 -199.5q0 -116 31 -206.5t85.5 -145.5t125 -83t152.5 -28z" />
    <glyph glyph-name="Hcircumflex" unicode="&#x124;" horiz-adv-x="1402" 
d="M565 1657h-80l181 248h75l179 -248h-82l-136 201h-2zM233 0h-65v1464h65v-657h936v657h66v-1464h-66v750h-936v-750z" />
    <glyph glyph-name="hcircumflex" unicode="&#x125;" horiz-adv-x="1034" 
d="M299 1565l-135 200h-2l-135 -200h-80l180 247h76l178 -247h-82zM588 1061q140 0 230.5 -83t90.5 -237v-741h-61v741q0 52 -12.5 96t-41.5 84.5t-85.5 63.5t-135.5 23q-82 0 -155 -32.5t-120.5 -82.5t-75 -107t-27.5 -108v-678h-62v1464h62v-624h4q127 221 389 221z" />
    <glyph glyph-name="Hbar" unicode="&#x126;" horiz-adv-x="1417" 
d="M1243 1196h141v-57h-141v-1139h-65v750h-936v-750h-66v1139h-145v57h145v268h66v-268h936v268h65v-268zM242 807h936v332h-936v-332z" />
    <glyph glyph-name="hbar" unicode="&#x127;" horiz-adv-x="1034" 
d="M588 1061q140 0 230.5 -83t90.5 -237v-741h-61v741q0 52 -12.5 96t-41.5 84.5t-85.5 63.5t-135.5 23q-82 0 -155 -32.5t-120.5 -82.5t-75 -107t-27.5 -108v-678h-62v1243h-143v53h143v168h62v-168h321v-53h-321v-403h4q127 221 389 221z" />
    <glyph glyph-name="Itilde" unicode="&#x128;" horiz-adv-x="401" 
d="M-8 1634h-62q4 79 40.5 120.5t97.5 41.5q48 0 97 -27t92 -54t75 -27q67 0 76 108h61q-4 -80 -40 -121t-97 -41q-46 0 -95 27t-92.5 54.5t-76.5 27.5q-67 0 -76 -109zM233 0h-65v1464h65v-1464z" />
    <glyph glyph-name="itilde" unicode="&#x129;" horiz-adv-x="327" 
d="M-45 1214h-61q4 79 40 120.5t97 41.5q48 0 97 -27t92 -54t75 -27q67 0 76 108h61q-4 -80 -40 -121t-97 -41q-46 0 -95 27t-92.5 54.5t-76.5 27.5q-67 0 -76 -109zM195 0h-62v1044h62v-1044z" />
    <glyph glyph-name="Imacron" unicode="&#x12a;" horiz-adv-x="401" 
d="M434 1720h-467v58h467v-58zM233 0h-65v1464h65v-1464z" />
    <glyph glyph-name="imacron" unicode="&#x12b;" horiz-adv-x="327" 
d="M397 1300h-467v58h467v-58zM195 0h-62v1044h62v-1044z" />
    <glyph glyph-name="Iogonek" unicode="&#x12e;" horiz-adv-x="401" 
d="M186 -303q56 0 107 20v-49q-46 -22 -111 -22q-92 0 -139 42t-47 111q0 61 51 113.5t125 87.5h-4v1464h65v-1464q-89 -49 -131.5 -96t-42.5 -103q0 -47 32 -75.5t95 -28.5z" />
    <glyph glyph-name="iogonek" unicode="&#x12f;" horiz-adv-x="327" 
d="M106 1380h115v-114h-115v114zM147 -301q56 0 107 20v-49q-46 -22 -111 -22q-92 0 -139 42t-47 111q0 61 51 113.5t125 87.5v1042h62v-1044h-5q-87 -49 -128.5 -95.5t-41.5 -101.5q0 -47 32 -75.5t95 -28.5z" />
    <glyph glyph-name="Idotaccent" unicode="&#x130;" horiz-adv-x="401" 
d="M258 1686h-115v114h115v-114zM233 0h-65v1464h65v-1464z" />
    <glyph glyph-name="dotlessi" unicode="&#x131;" horiz-adv-x="327" 
d="M195 0h-62v1044h62v-1044z" />
    <glyph glyph-name="Jcircumflex" unicode="&#x134;" horiz-adv-x="970" 
d="M643 1657h-80l180 248h76l178 -248h-82l-135 201h-2zM430 -23q-184 0 -282.5 110t-98.5 286v59h70v-59q0 -160 83.5 -249t227.5 -89q145 0 231.5 89.5t86.5 248.5v1091h65v-1091q0 -176 -99.5 -286t-283.5 -110z" />
    <glyph glyph-name="jcircumflex" unicode="&#x135;" horiz-adv-x="327" 
d="M27 1237h-80l180 248h76l178 -248h-82l-135 201h-2zM41 -369q-31 0 -82 7v51q50 -4 68 -4q59 0 82.5 35.5t23.5 132.5v1191h62v-1185q0 -125 -40.5 -176.5t-113.5 -51.5z" />
    <glyph glyph-name="uni0136" unicode="&#x136;" horiz-adv-x="1239" 
d="M1214 1464l-598 -630l637 -834h-77l-603 786l-340 -358v-428h-65v1464h65v-952l904 952h77zM666 -209h-60v113h113v-113q0 -38 -1.5 -61.5t-7.5 -50.5t-18 -44t-33.5 -33.5t-52.5 -27.5v55q36 14 48 49.5t12 112.5z" />
    <glyph glyph-name="uni0137" unicode="&#x137;" horiz-adv-x="917" 
d="M872 1044l-413 -395l485 -649h-76l-452 610l-221 -211v-399h-62v1464h62v-993l591 573h86zM506 -209h-60v113h113v-113q0 -38 -1.5 -61.5t-7.5 -50.5t-18 -44t-33.5 -33.5t-52.5 -27.5v55q36 14 48 49.5t12 112.5z" />
    <glyph glyph-name="kgreenlandic" unicode="&#x138;" horiz-adv-x="925" 
d="M944 0h-76l-438 592l-235 -223v-369h-62v1044h62v-604l624 604h86l-434 -413z" />
    <glyph glyph-name="Lacute" unicode="&#x139;" horiz-adv-x="1101" 
d="M238 1645h-60l131 260h84zM1073 0h-905v1464h65v-1407h840v-57z" />
    <glyph glyph-name="lacute" unicode="&#x13a;" horiz-adv-x="327" 
d="M197 1552h-60l131 260h84zM195 0h-62v1464h62v-1464z" />
    <glyph glyph-name="uni013B" unicode="&#x13b;" horiz-adv-x="1101" 
d="M233 1464v-1407h840v-57h-905v1464h65zM623 -209h-60v113h113v-113q0 -38 -1.5 -61.5t-7.5 -50.5t-18 -44t-33.5 -33.5t-52.5 -27.5v55q36 14 48 49.5t12 112.5z" />
    <glyph glyph-name="uni013C" unicode="&#x13c;" horiz-adv-x="327" 
d="M133 1464h62v-1464h-62v1464zM106 -209v113h113v-113q0 -38 -1.5 -61.5t-7.5 -50.5t-18 -44t-33.5 -33.5t-52.5 -27.5v55q36 14 48 49.5t12 112.5h-60z" />
    <glyph glyph-name="Lcaron" unicode="&#x13d;" horiz-adv-x="1101" 
d="M1073 0h-905v1464h65v-1407h840v-57zM598 1096h-49l51 368h74z" />
    <glyph glyph-name="lcaron" unicode="&#x13e;" horiz-adv-x="344" 
d="M195 0h-62v1464h62v-1464zM326 1096h-50l52 368h73z" />
    <glyph glyph-name="Lslash" unicode="&#x141;" horiz-adv-x="1200" 
d="M330 625v-568h839v-57h-905v590l-235 -129v69l235 129v805h66v-770l516 283v-70z" />
    <glyph glyph-name="lslash" unicode="&#x142;" horiz-adv-x="446" 
d="M258 797l145 121v-70l-145 -121v-727h-61v678l-148 -123v70l148 123v716h61v-667z" />
    <glyph glyph-name="Nacute" unicode="&#x143;" horiz-adv-x="1421" 
d="M743 1645h-59l131 260h84zM233 0h-65v1464h82l934 -1376h4v1376h65v-1464h-82l-933 1372h-5v-1372z" />
    <glyph glyph-name="nacute" unicode="&#x144;" horiz-adv-x="1034" 
d="M647 1493h84l-156 -260h-59zM588 1061q140 0 230.5 -83t90.5 -237v-741h-61v741q0 52 -12.5 96t-41.5 84.5t-85.5 63.5t-135.5 23q-82 0 -155 -32.5t-120.5 -82.5t-75 -107t-27.5 -108v-678h-62v1044h62v-204h4q127 221 389 221z" />
    <glyph glyph-name="uni0145" unicode="&#x145;" horiz-adv-x="1421" 
d="M1188 88v1376h65v-1464h-82l-933 1372h-5v-1372h-65v1464h82l934 -1376h4zM692 -209h-59v113h112v-113q0 -38 -1.5 -61t-7.5 -50.5t-18 -44.5t-33 -33.5t-52 -27.5v55q36 14 47.5 49.5t11.5 112.5z" />
    <glyph glyph-name="uni0146" unicode="&#x146;" horiz-adv-x="1034" 
d="M588 1061q140 0 230.5 -83t90.5 -237v-741h-61v741q0 52 -12.5 96t-41.5 84.5t-85.5 63.5t-135.5 23q-82 0 -155 -32.5t-120.5 -82.5t-75 -107t-27.5 -108v-678h-62v1044h62v-204h4q127 221 389 221zM524 -209h-59v113h113v-113q0 -38 -1.5 -61.5t-7.5 -50.5t-18 -44
t-33.5 -33.5t-52.5 -27.5v55q36 14 47.5 49.5t11.5 112.5z" />
    <glyph glyph-name="Ncaron" unicode="&#x147;" horiz-adv-x="1421" 
d="M748 1649h-76l-178 247h81l136 -200h2l135 200h80zM233 0h-65v1464h82l934 -1376h4v1376h65v-1464h-82l-933 1372h-5v-1372z" />
    <glyph glyph-name="ncaron" unicode="&#x148;" horiz-adv-x="1034" 
d="M760 1485l-180 -248h-76l-178 248h82l135 -201h2l135 201h80zM588 1061q140 0 230.5 -83t90.5 -237v-741h-61v741q0 52 -12.5 96t-41.5 84.5t-85.5 63.5t-135.5 23q-82 0 -155 -32.5t-120.5 -82.5t-75 -107t-27.5 -108v-678h-62v1044h62v-204h4q127 221 389 221z" />
    <glyph glyph-name="Eng" unicode="&#x14a;" horiz-adv-x="1421" 
d="M901 -362q-79 0 -145 20v53q213 -38 314 34.5t101 254.5l-933 1368h-5v-1368h-65v1464h82l934 -1372h4v1372h65v-1423q0 -107 -28.5 -187t-79 -126t-111.5 -68t-133 -22z" />
    <glyph glyph-name="eng" unicode="&#x14b;" horiz-adv-x="1034" 
d="M588 1061q140 0 230.5 -83t90.5 -237v-833q0 -124 -38.5 -175.5t-118.5 -51.5q-46 0 -84 6v53q108 -20 144 12.5t36 132.5v856q0 52 -12.5 96t-41.5 84.5t-85.5 63.5t-135.5 23q-82 0 -155 -32.5t-120.5 -82.5t-75 -107t-27.5 -108v-678h-62v1044h62v-204h4
q127 221 389 221z" />
    <glyph glyph-name="Omacron" unicode="&#x14c;" horiz-adv-x="1527" 
d="M997 1720h-467v58h467v-58zM764 -23q-198 0 -352 97t-238 269t-84 390t84 389.5t237.5 268t352.5 96.5t352.5 -96.5t237.5 -268t84 -389.5t-84 -390t-238 -269t-352 -97zM764 35q262 0 433 194t171 504t-171 503.5t-433 193.5t-433 -193.5t-171 -503.5t171 -504t433 -194
z" />
    <glyph glyph-name="omacron" unicode="&#x14d;" horiz-adv-x="1110" 
d="M788 1300h-466v58h466v-58zM555 -25q-222 0 -351.5 149.5t-129.5 393.5t129.5 393.5t351.5 149.5t351.5 -149.5t129.5 -393.5t-129.5 -393.5t-351.5 -149.5zM555 29q196 0 306 136t110 353t-110 353.5t-306 136.5t-306 -136.5t-110 -353.5t110 -353t306 -136z" />
    <glyph glyph-name="Ohungarumlaut" unicode="&#x150;" horiz-adv-x="1527" 
d="M666 1636h-60l131 260h84zM926 1636h-60l131 260h84zM764 -23q-198 0 -352 97t-238 269t-84 390t84 389.5t237.5 268t352.5 96.5t352.5 -96.5t237.5 -268t84 -389.5t-84 -390t-238 -269t-352 -97zM764 35q262 0 433 194t171 504t-171 503.5t-433 193.5t-433 -193.5
t-171 -503.5t171 -504t433 -194z" />
    <glyph glyph-name="ohungarumlaut" unicode="&#x151;" horiz-adv-x="1110" 
d="M457 1217h-60l131 260h84zM717 1217h-60l131 260h84zM555 -25q-222 0 -351.5 149.5t-129.5 393.5t129.5 393.5t351.5 149.5t351.5 -149.5t129.5 -393.5t-129.5 -393.5t-351.5 -149.5zM555 29q196 0 306 136t110 353t-110 353.5t-306 136.5t-306 -136.5t-110 -353.5
t110 -353t306 -136z" />
    <glyph glyph-name="OE" unicode="&#x152;" horiz-adv-x="2222" 
d="M1266 750v-693h897v-57h-963v367q-71 -181 -208 -285.5t-312 -104.5q-126 0 -235.5 56.5t-187 156t-121.5 240t-44 303.5t44 303t121.5 239t186.5 155.5t236 56.5q175 0 312 -103.5t208 -283.5v364h942v-57h-876v-600h805v-57h-805zM680 35q106 0 201.5 51t165.5 141
t111.5 221.5t41.5 284.5t-41.5 284.5t-111.5 221.5t-165.5 140.5t-201.5 50.5t-201.5 -50.5t-166.5 -140.5t-112.5 -221.5t-41.5 -284.5t41.5 -284.5t112.5 -221.5t166.5 -141t201.5 -51z" />
    <glyph glyph-name="oe" unicode="&#x153;" horiz-adv-x="1959" 
d="M1888 532h-852v-12q0 -103 26 -191t76 -155.5t129.5 -106t180.5 -38.5q87 0 155 27.5t109 72.5t64 90.5t34 93.5h66q-37 -148 -146 -243t-284 -95q-165 0 -281 87t-164 239q-48 -151 -164.5 -237.5t-281.5 -86.5q-222 0 -351.5 149t-129.5 394q0 244 129.5 392.5
t351.5 148.5q166 0 282.5 -86.5t166.5 -239.5q50 154 167 240t279 86q105 0 189.5 -37t138.5 -102t83 -151t29 -185q0 -36 -2 -54zM555 31q196 0 306 135.5t110 353.5q0 217 -110 352.5t-306 135.5t-306 -135.5t-110 -352.5q0 -218 110 -353.5t306 -135.5zM1446 1008
q-93 0 -170 -34.5t-127.5 -93t-79.5 -134t-33 -160.5h789q0 85 -22.5 159.5t-67.5 134t-119 94t-170 34.5z" />
    <glyph glyph-name="Racute" unicode="&#x154;" horiz-adv-x="1280" 
d="M662 1645h-60l131 260h84zM233 0h-65v1464h534q223 0 344 -100t121 -295q0 -312 -288 -393v-4q71 -15 123.5 -58.5t80.5 -101t46 -124t25.5 -130.5t13 -117t14 -88.5t24.5 -40.5v-12h-67q-15 12 -23 55t-13 100t-13.5 124t-31 131.5t-58.5 117t-102.5 85t-156.5 32.5
h-508v-645zM233 702h449q200 0 310 91t110 276q0 173 -100 255.5t-300 82.5h-469v-705z" />
    <glyph glyph-name="racute" unicode="&#x155;" horiz-adv-x="608" 
d="M487 1485h84l-155 -260h-60zM516 1059q46 0 76 -6v-54q-35 5 -55 5q-139 0 -240.5 -102t-101.5 -257v-645h-62v1044h62v-225h4q34 104 122 172t195 68z" />
    <glyph glyph-name="uni0156" unicode="&#x156;" horiz-adv-x="1280" 
d="M879 676v-4q71 -15 123.5 -58.5t80.5 -101t46 -124t25.5 -130.5t13 -117t14 -88.5t24.5 -40.5v-12h-67q-15 12 -23 55t-13 100t-13.5 124t-31 131.5t-58.5 117t-102.5 85t-156.5 32.5h-508v-645h-65v1464h534q223 0 344 -100t121 -295q0 -312 -288 -393zM233 702h449
q200 0 310 91t110 276q0 173 -100 255.5t-300 82.5h-469v-705zM672 -209h-60v113h113v-113q0 -38 -1.5 -61.5t-7.5 -50.5t-18 -44t-33.5 -33.5t-52.5 -27.5v55q36 14 48 49.5t12 112.5z" />
    <glyph glyph-name="uni0157" unicode="&#x157;" horiz-adv-x="608" 
d="M516 1059q46 0 76 -6v-54q-35 5 -55 5q-139 0 -240.5 -102t-101.5 -257v-645h-62v1044h62v-225h4q34 104 122 172t195 68zM166 -209h-60v113h113v-113q0 -38 -1.5 -61.5t-7.5 -50.5t-18 -44t-33.5 -33.5t-52.5 -27.5v55q36 14 48 49.5t12 112.5z" />
    <glyph glyph-name="Rcaron" unicode="&#x158;" horiz-adv-x="1280" 
d="M666 1649h-76l-178 247h82l135 -200h2l135 200h80zM233 0h-65v1464h534q223 0 344 -100t121 -295q0 -312 -288 -393v-4q71 -15 123.5 -58.5t80.5 -101t46 -124t25.5 -130.5t13 -117t14 -88.5t24.5 -40.5v-12h-67q-15 12 -23 55t-13 100t-13.5 124t-31 131.5t-58.5 117
t-102.5 85t-156.5 32.5h-508v-645zM233 702h449q200 0 310 91t110 276q0 173 -100 255.5t-300 82.5h-469v-705z" />
    <glyph glyph-name="rcaron" unicode="&#x159;" horiz-adv-x="608" 
d="M600 1477l-180 -248h-76l-178 248h82l135 -201h2l135 201h80zM195 819h4q34 104 122 172t195 68q46 0 76 -6v-54q-35 5 -55 5q-139 0 -240.5 -102t-101.5 -257v-645h-62v1044h62v-225z" />
    <glyph glyph-name="Sacute" unicode="&#x15a;" horiz-adv-x="1220" 
d="M641 1645h-59l131 260h84zM657 -23q-122 0 -225.5 30.5t-182.5 90.5t-126.5 155.5t-54.5 217.5h69q13 -210 151 -323t369 -113q203 0 311.5 99.5t110.5 248.5q0 62 -13 110t-43.5 84.5t-69 62.5t-101 47.5t-126 36.5t-155.5 32q-111 20 -189 47.5t-138.5 70.5t-89.5 107
t-29 152q0 169 129.5 260.5t337.5 91.5q220 0 354.5 -108.5t147.5 -305.5h-70q-16 168 -123.5 262t-308.5 94q-182 0 -289.5 -78.5t-107.5 -215.5q0 -48 11 -87.5t28.5 -68.5t49.5 -53t64.5 -40.5t84 -32t97 -25.5t113.5 -23q106 -20 182.5 -43t140 -56.5t102.5 -77.5
t60 -104.5t21 -138.5q0 -174 -132.5 -290t-359.5 -116z" />
    <glyph glyph-name="sacute" unicode="&#x15b;" horiz-adv-x="935" 
d="M500 1225h-60l131 260h84zM492 -23q-197 0 -314.5 100t-122.5 249h66q6 -135 106.5 -215t270.5 -80q147 0 230 66t83 179q0 33 -8.5 60.5t-20.5 47.5t-36 38t-43 28.5t-55 23.5t-58 19l-66 18t-67 19q-47 14 -70 21t-62 20t-58.5 21.5t-49.5 23t-44.5 27.5t-33 31
t-27 37.5t-14.5 44.5t-6 53q0 117 90 184.5t258 67.5q99 0 174 -24.5t120 -67.5t70.5 -92.5t35.5 -108.5h-66q-8 39 -22.5 72t-41.5 64.5t-63 54t-89.5 36t-119.5 13.5q-124 0 -202 -47.5t-78 -143.5q0 -42 17 -74.5t41 -53t70 -40t82.5 -30.5t99.5 -28q23 -6 34 -9
q77 -21 126 -37.5t101.5 -42t81 -54t47.5 -71t19 -96.5q0 -137 -103.5 -220.5t-281.5 -83.5z" />
    <glyph glyph-name="Scircumflex" unicode="&#x15c;" horiz-adv-x="1220" 
d="M471 1657h-80l180 248h76l178 -248h-82l-135 201h-2zM657 -23q-122 0 -225.5 30.5t-182.5 90.5t-126.5 155.5t-54.5 217.5h69q13 -210 151 -323t369 -113q203 0 311.5 99.5t110.5 248.5q0 62 -13 110t-43.5 84.5t-69 62.5t-101 47.5t-126 36.5t-155.5 32
q-111 20 -189 47.5t-138.5 70.5t-89.5 107t-29 152q0 169 129.5 260.5t337.5 91.5q220 0 354.5 -108.5t147.5 -305.5h-70q-16 168 -123.5 262t-308.5 94q-182 0 -289.5 -78.5t-107.5 -215.5q0 -48 11 -87.5t28.5 -68.5t49.5 -53t64.5 -40.5t84 -32t97 -25.5t113.5 -23
q106 -20 182.5 -43t140 -56.5t102.5 -77.5t60 -104.5t21 -138.5q0 -174 -132.5 -290t-359.5 -116z" />
    <glyph glyph-name="scircumflex" unicode="&#x15d;" horiz-adv-x="935" 
d="M330 1237h-80l180 248h76l178 -248h-82l-135 201h-2zM492 -23q-197 0 -314.5 100t-122.5 249h66q6 -135 106.5 -215t270.5 -80q147 0 230 66t83 179q0 33 -8.5 60.5t-20.5 47.5t-36 38t-43 28.5t-55 23.5t-58 19l-66 18t-67 19q-47 14 -70 21t-62 20t-58.5 21.5t-49.5 23
t-44.5 27.5t-33 31t-27 37.5t-14.5 44.5t-6 53q0 117 90 184.5t258 67.5q99 0 174 -24.5t120 -67.5t70.5 -92.5t35.5 -108.5h-66q-8 39 -22.5 72t-41.5 64.5t-63 54t-89.5 36t-119.5 13.5q-124 0 -202 -47.5t-78 -143.5q0 -42 17 -74.5t41 -53t70 -40t82.5 -30.5t99.5 -28
q23 -6 34 -9q77 -21 126 -37.5t101.5 -42t81 -54t47.5 -71t19 -96.5q0 -137 -103.5 -220.5t-281.5 -83.5z" />
    <glyph glyph-name="Scedilla" unicode="&#x15e;" horiz-adv-x="1220" 
d="M670 -23l-68 -86v-4q86 20 136 -14.5t50 -103.5q0 -71 -53 -109.5t-139 -38.5q-107 0 -195 55l27 35q71 -41 158 -41q62 0 99.5 24t37.5 73q0 79 -96 79q-51 0 -97 -22l-24 31l100 125q-232 13 -378.5 138t-159.5 353h69q13 -210 151 -323t369 -113q203 0 311.5 99.5
t110.5 248.5q0 62 -13 110t-43.5 84.5t-69 62.5t-101 47.5t-126 36.5t-155.5 32q-111 20 -189 47.5t-138.5 70.5t-89.5 107t-29 152q0 169 129.5 260.5t337.5 91.5q220 0 354.5 -108.5t147.5 -305.5h-70q-16 168 -123.5 262t-308.5 94q-182 0 -289.5 -78.5t-107.5 -215.5
q0 -48 11 -87.5t28.5 -68.5t49.5 -53t64.5 -40.5t84 -32t97 -25.5t113.5 -23q106 -20 182.5 -43t140 -56.5t102.5 -77.5t60 -104.5t21 -138.5q0 -171 -129 -287t-350 -119z" />
    <glyph glyph-name="scedilla" unicode="&#x15f;" horiz-adv-x="935" 
d="M528 -23l-69 -86v-4q86 20 136 -14.5t50 -103.5q0 -71 -53 -109.5t-139 -38.5q-107 0 -195 55l27 35q71 -41 157 -41q62 0 100 24t38 73q0 79 -97 79q-50 0 -96 -22l-25 31l99 122q-185 9 -293 107.5t-113 241.5h66q6 -135 106.5 -215t270.5 -80q147 0 230 66t83 179
q0 33 -8.5 60.5t-20.5 47.5t-36 38t-43 28.5t-55 23.5t-58 19l-66 18t-67 19q-47 14 -70 21t-62 20t-58.5 21.5t-49.5 23t-44.5 27.5t-33 31t-27 37.5t-14.5 44.5t-6 53q0 117 90 184.5t258 67.5q99 0 174 -24.5t120 -67.5t70.5 -92.5t35.5 -108.5h-66q-8 39 -22.5 72
t-41.5 64.5t-63 54t-89.5 36t-119.5 13.5q-124 0 -202 -47.5t-78 -143.5q0 -42 17 -74.5t41 -53t70 -40t82.5 -30.5t99.5 -28q23 -6 34 -9q77 -21 126 -37.5t101.5 -42t81 -54t47.5 -71t19 -96.5q0 -129 -94 -212t-255 -92z" />
    <glyph glyph-name="Scaron" unicode="&#x160;" horiz-adv-x="1220" 
d="M645 1649h-76l-178 247h82l135 -200h2l135 200h80zM657 -23q-122 0 -225.5 30.5t-182.5 90.5t-126.5 155.5t-54.5 217.5h69q13 -210 151 -323t369 -113q203 0 311.5 99.5t110.5 248.5q0 62 -13 110t-43.5 84.5t-69 62.5t-101 47.5t-126 36.5t-155.5 32q-111 20 -189 47.5
t-138.5 70.5t-89.5 107t-29 152q0 169 129.5 260.5t337.5 91.5q220 0 354.5 -108.5t147.5 -305.5h-70q-16 168 -123.5 262t-308.5 94q-182 0 -289.5 -78.5t-107.5 -215.5q0 -48 11 -87.5t28.5 -68.5t49.5 -53t64.5 -40.5t84 -32t97 -25.5t113.5 -23q106 -20 182.5 -43
t140 -56.5t102.5 -77.5t60 -104.5t21 -138.5q0 -174 -132.5 -290t-359.5 -116z" />
    <glyph glyph-name="scaron" unicode="&#x161;" horiz-adv-x="935" 
d="M504 1229h-76l-178 248h82l135 -201h2l135 201h80zM492 -23q-197 0 -314.5 100t-122.5 249h66q6 -135 106.5 -215t270.5 -80q147 0 230 66t83 179q0 33 -8.5 60.5t-20.5 47.5t-36 38t-43 28.5t-55 23.5t-58 19l-66 18t-67 19q-47 14 -70 21t-62 20t-58.5 21.5t-49.5 23
t-44.5 27.5t-33 31t-27 37.5t-14.5 44.5t-6 53q0 117 90 184.5t258 67.5q99 0 174 -24.5t120 -67.5t70.5 -92.5t35.5 -108.5h-66q-8 39 -22.5 72t-41.5 64.5t-63 54t-89.5 36t-119.5 13.5q-124 0 -202 -47.5t-78 -143.5q0 -42 17 -74.5t41 -53t70 -40t82.5 -30.5t99.5 -28
q23 -6 34 -9q77 -21 126 -37.5t101.5 -42t81 -54t47.5 -71t19 -96.5q0 -137 -103.5 -220.5t-281.5 -83.5z" />
    <glyph glyph-name="uni0162" unicode="&#x162;" horiz-adv-x="1167" 
d="M616 1407v-1407l-86 -109v-4q86 20 136.5 -14.5t50.5 -103.5q0 -71 -53.5 -109.5t-139.5 -38.5q-106 0 -194 55l26 35q71 -41 158 -41q62 0 99.5 24t37.5 73q0 79 -96 79q-50 0 -96 -22l-25 31l117 145v1407h-522v57h1110v-57h-523z" />
    <glyph glyph-name="uni0163" unicode="&#x163;" horiz-adv-x="501" 
d="M303 -84v-4q86 20 136 -15t50 -104q0 -71 -53 -109t-139 -38q-107 0 -195 55l27 35q71 -41 158 -41q62 0 99.5 23.5t37.5 72.5q0 80 -96 80q-49 0 -97 -23l-24 31l98 123q-71 15 -102 70t-31 174v745h-154v53h154v349h61v-349h232v-53h-232v-735q0 -127 33 -167t131 -40
q18 0 68 4v-51q-43 -6 -76 -6h-22z" />
    <glyph glyph-name="Tcaron" unicode="&#x164;" horiz-adv-x="1167" 
d="M621 1649h-76l-178 247h82l135 -200h2l135 200h80zM616 0h-65v1407h-522v57h1110v-57h-523v-1407z" />
    <glyph glyph-name="tcaron" unicode="&#x165;" horiz-adv-x="501" 
d="M412 1464h73l-75 -295h-50zM172 1393h61v-349h232v-53h-232v-735q0 -127 33 -167t131 -40q18 0 68 4v-51q-43 -6 -76 -6q-119 0 -168 51.5t-49 198.5v745h-154v53h154v349z" />
    <glyph glyph-name="Tbar" unicode="&#x166;" horiz-adv-x="1167" 
d="M1139 1464v-57h-523v-621h406v-57h-406v-729h-65v729h-365v57h365v621h-522v57h1110z" />
    <glyph glyph-name="tbar" unicode="&#x167;" horiz-adv-x="526" 
d="M475 1044v-53h-231v-289h231v-53h-231v-393q0 -127 33 -167t131 -40q17 0 67 4v-51q-43 -6 -76 -6q-119 0 -168 51.5t-49 198.5v403h-153v53h153v289h-153v53h153v349h62v-349h231z" />
    <glyph glyph-name="Utilde" unicode="&#x168;" horiz-adv-x="1363" 
d="M473 1634h-61q4 79 40 120.5t97 41.5q48 0 97 -27t92 -54t75 -27q67 0 76 108h61q-4 -80 -40 -121t-97 -41q-46 0 -95 27t-92.5 54.5t-76.5 27.5q-67 0 -76 -109zM682 -23q-526 0 -526 531v956h65v-956q0 -239 114.5 -356t346.5 -117t346.5 117t114.5 356v956h65v-956
q0 -531 -526 -531z" />
    <glyph glyph-name="utilde" unicode="&#x169;" horiz-adv-x="1034" 
d="M375 1323q-67 0 -76 -109h-61q4 79 40 120.5t97 41.5q48 0 97 -27t92 -54t75 -27q67 0 76 108h61q-4 -80 -40 -121t-97 -41q-46 0 -95 27t-92.5 54.5t-76.5 27.5zM840 367v677h61v-1044h-61v199h-4q-128 -215 -390 -215q-140 0 -230.5 82.5t-90.5 236.5v741h61v-741
q0 -52 12.5 -96t41.5 -84t85.5 -63t135.5 -23q82 0 155 32.5t121 82.5t75.5 107t27.5 108z" />
    <glyph glyph-name="Umacron" unicode="&#x16a;" horiz-adv-x="1363" 
d="M915 1720h-466v58h466v-58zM682 -23q-526 0 -526 531v956h65v-956q0 -239 114.5 -356t346.5 -117t346.5 117t114.5 356v956h65v-956q0 -531 -526 -531z" />
    <glyph glyph-name="umacron" unicode="&#x16b;" horiz-adv-x="1034" 
d="M274 1358h467v-58h-467v58zM840 367v677h61v-1044h-61v199h-4q-128 -215 -390 -215q-140 0 -230.5 82.5t-90.5 236.5v741h61v-741q0 -52 12.5 -96t41.5 -84t85.5 -63t135.5 -23q82 0 155 32.5t121 82.5t75.5 107t27.5 108z" />
    <glyph glyph-name="Ubreve" unicode="&#x16c;" horiz-adv-x="1363" 
d="M680 1655q-102 0 -167 66t-71 163h58q12 -74 57.5 -125t122.5 -51q78 0 124 50.5t58 125.5h58q-6 -97 -71 -163t-169 -66zM682 -23q-526 0 -526 531v956h65v-956q0 -239 114.5 -356t346.5 -117t346.5 117t114.5 356v956h65v-956q0 -531 -526 -531z" />
    <glyph glyph-name="ubreve" unicode="&#x16d;" horiz-adv-x="1034" 
d="M506 1235q-102 0 -167 66t-71 163h58q12 -74 57.5 -125t122.5 -51q78 0 124 50.5t58 125.5h57q-6 -98 -70.5 -163.5t-168.5 -65.5zM840 367v677h61v-1044h-61v199h-4q-128 -215 -390 -215q-140 0 -230.5 82.5t-90.5 236.5v741h61v-741q0 -52 12.5 -96t41.5 -84t85.5 -63
t135.5 -23q82 0 155 32.5t121 82.5t75.5 107t27.5 108z" />
    <glyph glyph-name="Uring" unicode="&#x16e;" horiz-adv-x="1363" 
d="M680 1573q-72 0 -120 46t-48 118t48 118t120 46t120 -46t48 -118t-48 -118t-120 -46zM680 1622q54 0 84.5 31.5t30.5 83.5t-30 83t-85 31t-85 -31t-30 -83t30.5 -83.5t84.5 -31.5zM682 -23q-526 0 -526 531v956h65v-956q0 -239 114.5 -356t346.5 -117t346.5 117
t114.5 356v956h65v-956q0 -531 -526 -531z" />
    <glyph glyph-name="uring" unicode="&#x16f;" horiz-adv-x="1034" 
d="M506 1153q-72 0 -120 46t-48 118t48 118t120 46t120 -46t48 -118t-48 -118t-120 -46zM506 1432q-54 0 -84.5 -31.5t-30.5 -83.5t30.5 -83.5t84.5 -31.5t84.5 31.5t30.5 83.5t-30.5 83.5t-84.5 31.5zM840 367v677h61v-1044h-61v199h-4q-128 -215 -390 -215
q-140 0 -230.5 82.5t-90.5 236.5v741h61v-741q0 -52 12.5 -96t41.5 -84t85.5 -63t135.5 -23q82 0 155 32.5t121 82.5t75.5 107t27.5 108z" />
    <glyph glyph-name="Uhungarumlaut" unicode="&#x170;" horiz-adv-x="1363" 
d="M584 1636h-60l131 260h84zM844 1636h-60l131 260h84zM682 -23q-526 0 -526 531v956h65v-956q0 -239 114.5 -356t346.5 -117t346.5 117t114.5 356v956h65v-956q0 -531 -526 -531z" />
    <glyph glyph-name="uhungarumlaut" unicode="&#x171;" horiz-adv-x="1034" 
d="M481 1477h84l-155 -260h-60zM741 1477h84l-155 -260h-60zM840 367v677h61v-1044h-61v199h-4q-128 -215 -390 -215q-140 0 -230.5 82.5t-90.5 236.5v741h61v-741q0 -52 12.5 -96t41.5 -84t85.5 -63t135.5 -23q82 0 155 32.5t121 82.5t75.5 107t27.5 108z" />
    <glyph glyph-name="Uogonek" unicode="&#x172;" horiz-adv-x="1363" 
d="M1143 508v956h65v-956q0 -437 -356 -514q-160 -91 -160 -191q0 -47 32 -75.5t95 -28.5q56 0 107 20v-49q-46 -22 -111 -22q-92 0 -139 42t-47 111q0 100 135 181q-68 -5 -82 -5q-526 0 -526 531v956h65v-956q0 -239 114.5 -356t346.5 -117t346.5 117t114.5 356z" />
    <glyph glyph-name="uogonek" unicode="&#x173;" horiz-adv-x="1034" 
d="M854 -303q56 0 107 20v-49q-46 -22 -111 -22q-92 0 -139 42t-47 111q0 61 51 113.5t125 87.5v199h-4q-128 -215 -390 -215q-140 0 -230.5 82.5t-90.5 236.5v741h61v-741q0 -52 12.5 -96t41.5 -84t85.5 -63t135.5 -23q82 0 155 32.5t121 82.5t75.5 107t27.5 108v677h61
v-1044q-89 -49 -131.5 -96t-42.5 -103q0 -47 32 -75.5t95 -28.5z" />
    <glyph glyph-name="Wcircumflex" unicode="&#x174;" horiz-adv-x="1765" 
d="M745 1657h-79l180 248h76l178 -248h-82l-135 201h-2zM492 0h-72l-379 1464h68l350 -1372h4l381 1372h78l383 -1372h6l348 1372h65l-378 -1464h-72l-387 1364h-8z" />
    <glyph glyph-name="wcircumflex" unicode="&#x175;" horiz-adv-x="1454" 
d="M590 1237h-80l180 248h76l178 -248h-82l-135 201h-2zM446 0h-81l-332 1044h63l307 -968h5l276 968h82l281 -968h4l307 968h63l-331 -1044h-82l-281 965h-4z" />
    <glyph glyph-name="Ycircumflex" unicode="&#x176;" horiz-adv-x="1214" 
d="M471 1657h-80l180 248h76l178 -248h-82l-135 201h-2zM639 0h-66v600l-538 864h76l493 -802h8l498 802h72l-543 -864v-600z" />
    <glyph glyph-name="ycircumflex" unicode="&#x177;" horiz-adv-x="929" 
d="M324 1237h-80l180 248h76l178 -248h-82l-135 201h-2zM184 -367q-21 0 -82 7v53q50 -4 80 -4q90 0 140.5 65t115.5 242l-418 1048h66l381 -960h2l367 960h65l-412 -1073q-75 -194 -138.5 -266t-166.5 -72z" />
    <glyph glyph-name="Ydieresis" unicode="&#x178;" horiz-adv-x="1214" 
d="M532 1686h-114v114h114v-114zM799 1686h-115v114h115v-114zM639 0h-66v600l-538 864h76l493 -802h8l498 802h72l-543 -864v-600z" />
    <glyph glyph-name="Zacute" unicode="&#x179;" horiz-adv-x="1138" 
d="M618 1645h-59l131 260h84zM1106 0h-1081v57l979 1346v4h-941v57h1024v-57l-981 -1346v-4h1000v-57z" />
    <glyph glyph-name="zacute" unicode="&#x17a;" horiz-adv-x="851" 
d="M457 1225h-60l131 260h84zM819 0h-790v53l692 934v4h-660v53h738v-53l-693 -934v-4h713v-53z" />
    <glyph glyph-name="Zdotaccent" unicode="&#x17b;" horiz-adv-x="1138" 
d="M643 1686h-115v114h115v-114zM1106 0h-1081v57l979 1346v4h-941v57h1024v-57l-981 -1346v-4h1000v-57z" />
    <glyph glyph-name="zdotaccent" unicode="&#x17c;" horiz-adv-x="851" 
d="M481 1266h-114v114h114v-114zM819 0h-790v53l692 934v4h-660v53h738v-53l-693 -934v-4h713v-53z" />
    <glyph glyph-name="Zcaron" unicode="&#x17d;" horiz-adv-x="1138" 
d="M623 1649h-76l-178 247h82l135 -200h2l135 200h80zM1106 0h-1081v57l979 1346v4h-941v57h1024v-57l-981 -1346v-4h1000v-57z" />
    <glyph glyph-name="zcaron" unicode="&#x17e;" horiz-adv-x="851" 
d="M461 1229h-76l-178 248h82l135 -201h2l135 201h80zM819 0h-790v53l692 934v4h-660v53h738v-53l-693 -934v-4h713v-53z" />
    <glyph glyph-name="florin" unicode="&#x192;" horiz-adv-x="888" 
d="M778 1477q28 0 82 -7l-10 -51q-54 4 -74 4q-90 0 -130 -40t-64 -166l-54 -275h230v-53h-240l-160 -821q-30 -150 -78 -203t-141 -53q-49 0 -86 12l-2 51q38 -10 84 -10q75 0 106.5 40.5t57.5 172.5l158 811h-178v53h188l55 285q28 146 86 198t170 52z" />
    <glyph glyph-name="uni0218" unicode="&#x218;" horiz-adv-x="1220" 
d="M643 803q106 -20 182.5 -43t140 -56.5t102.5 -77.5t60 -104.5t21 -138.5q0 -174 -132.5 -290t-359.5 -116q-122 0 -225.5 30.5t-182.5 90.5t-126.5 155.5t-54.5 217.5h69q13 -210 151 -323t369 -113q203 0 311.5 99.5t110.5 248.5q0 62 -13 110t-43.5 84.5t-69 62.5
t-101 47.5t-126 36.5t-155.5 32q-111 20 -189 47.5t-138.5 70.5t-89.5 107t-29 152q0 169 129.5 260.5t337.5 91.5q220 0 354.5 -108.5t147.5 -305.5h-70q-16 168 -123.5 262t-308.5 94q-182 0 -289.5 -78.5t-107.5 -215.5q0 -48 11 -87.5t28.5 -68.5t49.5 -53t64.5 -40.5
t84 -32t97 -25.5t113.5 -23zM657 -209h-59v113h113v-113q0 -38 -1.5 -61.5t-7.5 -50.5t-18 -44t-33.5 -33.5t-52.5 -27.5v55q36 14 47.5 49.5t11.5 112.5z" />
    <glyph glyph-name="uni0219" unicode="&#x219;" horiz-adv-x="935" 
d="M502 582q77 -21 126 -37.5t101.5 -42t81 -54t47.5 -71t19 -96.5q0 -137 -103.5 -220.5t-281.5 -83.5q-197 0 -314.5 100t-122.5 249h66q6 -135 106.5 -215t270.5 -80q147 0 230 66t83 179q0 33 -8.5 60.5t-20.5 47.5t-36 38t-43 28.5t-55 23.5t-58 19l-66 18t-67 19
q-47 14 -70 21t-62 20t-58.5 21.5t-49.5 23t-44.5 27.5t-33 31t-27 37.5t-14.5 44.5t-6 53q0 117 90 184.5t258 67.5q99 0 174 -24.5t120 -67.5t70.5 -92.5t35.5 -108.5h-66q-8 39 -22.5 72t-41.5 64.5t-63 54t-89.5 36t-119.5 13.5q-124 0 -202 -47.5t-78 -143.5
q0 -42 17 -74.5t41 -53t70 -40t82.5 -30.5t99.5 -28q23 -6 34 -9zM514 -209h-59v113h112v-113q0 -38 -1.5 -61t-7.5 -50.5t-18 -44.5t-33 -33.5t-52 -27.5v55q36 14 47.5 49.5t11.5 112.5z" />
    <glyph glyph-name="uni021A" unicode="&#x21a;" horiz-adv-x="1167" 
d="M29 1407v57h1110v-57h-523v-1407h-65v1407h-522zM586 -209h-60v113h113v-113q0 -38 -1.5 -61.5t-7.5 -50.5t-18 -44t-33.5 -33.5t-52.5 -27.5v55q36 14 48 49.5t12 112.5z" />
    <glyph glyph-name="uni021B" unicode="&#x21b;" horiz-adv-x="501" 
d="M465 1044v-53h-232v-735q0 -127 33 -167t131 -40q18 0 68 4v-51q-43 -6 -76 -6q-119 0 -168 51.5t-49 198.5v745h-154v53h154v349h61v-349h232zM358 -184h-59v112h113v-112q0 -38 -1.5 -61.5t-7.5 -50.5t-18 -44t-33.5 -33.5t-52.5 -27.5v55q36 14 47.5 49.5t11.5 112.5z
" />
    <glyph glyph-name="uni0237" unicode="&#x237;" horiz-adv-x="327" 
d="M41 -369q-31 0 -82 7v51q50 -4 68 -4q59 0 82.5 35.5t23.5 132.5v1191h62v-1185q0 -125 -40.5 -176.5t-113.5 -51.5z" />
    <glyph glyph-name="circumflex" unicode="&#x2c6;" horiz-adv-x="598" 
d="M162 1237h-80l180 248h76l178 -248h-82l-135 201h-2z" />
    <glyph glyph-name="caron" unicode="&#x2c7;" horiz-adv-x="598" 
d="M336 1237h-76l-178 248h82l135 -201h2l135 201h80z" />
    <glyph glyph-name="breve" unicode="&#x2d8;" horiz-adv-x="641" 
d="M319 1235q-102 0 -166.5 66t-70.5 163h57q12 -74 57.5 -125t122.5 -51q78 0 124.5 51t58.5 125h57q-6 -97 -71 -163t-169 -66z" />
    <glyph glyph-name="dotaccent" unicode="&#x2d9;" horiz-adv-x="268" 
d="M193 1266h-115v114h115v-114z" />
    <glyph glyph-name="ring" unicode="&#x2da;" horiz-adv-x="495" 
d="M246 1153q-72 0 -120 46t-48 118t48 118t120 46t120 -46t48 -118t-48 -118t-120 -46zM246 1202q54 0 84 31.5t30 83.5t-30 83.5t-84 31.5t-84.5 -31.5t-30.5 -83.5t30.5 -83.5t84.5 -31.5z" />
    <glyph glyph-name="ogonek" unicode="&#x2db;" horiz-adv-x="460" 
d="M268 -354q-92 0 -139 42t-47 111q0 61 51 113.5t125 87.5h61q-89 -49 -131.5 -96t-42.5 -103q0 -47 32 -75.5t95 -28.5q56 0 107 20v-49q-46 -22 -111 -22z" />
    <glyph glyph-name="tilde" unicode="&#x2dc;" horiz-adv-x="702" 
d="M143 1223h-61q4 79 40 120t97 41q48 0 97 -27t92 -54t75 -27q67 0 76 108h62q-4 -80 -40.5 -120.5t-97.5 -40.5q-46 0 -95 27t-92.5 54t-76.5 27q-67 0 -76 -108z" />
    <glyph glyph-name="hungarumlaut" unicode="&#x2dd;" horiz-adv-x="649" 
d="M145 1225h-59l131 260h84zM406 1225h-60l131 260h84z" />
    <glyph glyph-name="gravecomb" unicode="&#x300;" 
d="M303 1225h-59l-156 260h84z" />
    <glyph glyph-name="acutecomb" unicode="&#x301;" 
d="M145 1225h-59l131 260h84z" />
    <glyph glyph-name="uni0302" unicode="&#x302;" 
d="M162 1237h-80l180 248h76l178 -248h-82l-135 201h-2z" />
    <glyph glyph-name="tildecomb" unicode="&#x303;" 
d="M143 1223h-61q4 79 40 120t97 41q48 0 97 -27t92 -54t75 -27q67 0 76 108h62q-4 -80 -40.5 -120.5t-97.5 -40.5q-46 0 -95 27t-92.5 54t-76.5 27q-67 0 -76 -108z" />
    <glyph glyph-name="uni0304" unicode="&#x304;" 
d="M549 1309h-467v57h467v-57z" />
    <glyph glyph-name="uni0306" unicode="&#x306;" 
d="M319 1235q-102 0 -166.5 66t-70.5 163h57q12 -74 57.5 -125t122.5 -51q78 0 124.5 51t58.5 125h57q-6 -97 -71 -163t-169 -66z" />
    <glyph glyph-name="uni0307" unicode="&#x307;" 
d="M193 1266h-115v114h115v-114z" />
    <glyph glyph-name="uni0308" unicode="&#x308;" 
d="M201 1266h-115v114h115v-114zM467 1266h-115v114h115v-114z" />
    <glyph glyph-name="uni030A" unicode="&#x30a;" 
d="M246 1153q-72 0 -120 46t-48 118t48 118t120 46t120 -46t48 -118t-48 -118t-120 -46zM246 1202q54 0 84 31.5t30 83.5t-30 83.5t-84 31.5t-84.5 -31.5t-30.5 -83.5t30.5 -83.5t84.5 -31.5z" />
    <glyph glyph-name="uni030B" unicode="&#x30b;" 
d="M145 1225h-59l131 260h84zM406 1225h-60l131 260h84z" />
    <glyph glyph-name="uni030C" unicode="&#x30c;" 
d="M336 1237h-76l-178 248h82l135 -201h2l135 201h80z" />
    <glyph glyph-name="uni0312" unicode="&#x312;" 
d="M170 1561v-56q-36 -14 -47.5 -46t-11.5 -95h59v-113h-113v113q0 39 3 63.5t13.5 52.5t34.5 47.5t62 33.5z" />
    <glyph glyph-name="uni0326" unicode="&#x326;" 
d="M76 -209v113h112v-113q0 -38 -1.5 -61t-7.5 -50.5t-18 -44.5t-33 -33.5t-52 -27.5v55q36 14 47.5 49.5t11.5 112.5h-59z" />
    <glyph glyph-name="uni0327" unicode="&#x327;" 
d="M276 -379q-106 0 -194 55l27 35q71 -41 157 -41q62 0 99.5 24t37.5 73q0 79 -96 79q-50 0 -96 -22l-25 31l117 145h66l-86 -109v-4q86 20 136 -14.5t50 -103.5q0 -71 -53.5 -109.5t-139.5 -38.5z" />
    <glyph glyph-name="uni0328" unicode="&#x328;" 
d="M268 -354q-92 0 -139 42t-47 111q0 61 51 113.5t125 87.5h61q-89 -49 -131.5 -96t-42.5 -103q0 -47 32 -75.5t95 -28.5q56 0 107 20v-49q-46 -22 -111 -22z" />
    <glyph glyph-name="uni0335" unicode="&#x335;" 
d="M918 729h-836v57h836v-57z" />
    <glyph glyph-name="uni0336" unicode="&#x336;" 
d="M1106 709h-1024v57h1024v-57z" />
    <glyph glyph-name="uni0337" unicode="&#x337;" 
d="M1106 1024l-983 -1042l-41 43l981 1042z" />
    <glyph glyph-name="uni0338" unicode="&#x338;" 
d="M1106 1024l-983 -1042l-41 43l981 1042z" />
    <glyph glyph-name="uni0394" unicode="&#x394;" horiz-adv-x="1275" 
d="M596 1464h84l559 -1409v-55h-1202v55zM641 1389h-8l-531 -1332h1069z" />
    <glyph glyph-name="uni03A9" unicode="&#x3a9;" horiz-adv-x="1568" 
d="M639 0h-555v57h399q-181 116 -280 295.5t-99 399.5q0 205 82.5 371.5t239.5 265t360 98.5q202 0 358 -98t238 -264t82 -371q0 -220 -98 -400t-281 -297h400v-57h-555v37q105 54 185.5 117.5t145.5 147.5t99.5 194t34.5 241q0 199 -76.5 356.5t-216.5 247t-318 89.5
t-317.5 -89.5t-216 -247t-76.5 -356.5q0 -131 34.5 -241t99.5 -194t145.5 -147.5t185.5 -117.5v-37z" />
    <glyph glyph-name="uni03BC" unicode="&#x3bc;" horiz-adv-x="1042" 
d="M848 367v677h61v-1044h-61v199h-4q-128 -215 -389 -215q-171 0 -260 114v-460h-62v1406h62v-741q0 -52 12.5 -96t41 -84t85 -63t135.5 -23q82 0 155 32.5t121 82.5t75.5 107t27.5 108z" />
    <glyph glyph-name="pi" unicode="&#x3c0;" horiz-adv-x="1028" 
d="M981 1044v-53h-147v-827q0 -64 19 -89.5t73 -25.5q13 0 49 4v-53q-36 -4 -57 -4q-74 0 -110 36.5t-36 131.5v827h-530v-991h-62v991h-147v53h948z" />
    <glyph glyph-name="uni0400" unicode="&#x400;" horiz-adv-x="1189" 
d="M680 1645h-59l-156 260h84zM1130 0h-962v1464h942v-57h-877v-600h805v-57h-805v-693h897v-57z" />
    <glyph glyph-name="uni0401" unicode="&#x401;" horiz-adv-x="1189" 
d="M584 1686h-115v114h115v-114zM850 1686h-115v114h115v-114zM1130 0h-962v1464h942v-57h-877v-600h805v-57h-805v-693h897v-57z" />
    <glyph glyph-name="uni0402" unicode="&#x402;" horiz-adv-x="1333" 
d="M1071 -369q-50 0 -90 11v55q33 -8 84 -8q59 0 82.5 33.5t23.5 130.5v671q0 174 -93.5 276.5t-250.5 102.5q-180 0 -282.5 -103.5t-102.5 -275.5v-524h-65v1407h-346v57h835v-57h-424v-645h4q42 83 149 139.5t232 56.5q189 0 299.5 -112.5t110.5 -321.5v-706
q0 -96 -46.5 -141.5t-119.5 -45.5z" />
    <glyph glyph-name="uni0403" unicode="&#x403;" horiz-adv-x="972" 
d="M567 1645h-59l131 260h84zM233 0h-65v1464h776v-57h-711v-1407z" />
    <glyph glyph-name="uni0404" unicode="&#x404;" horiz-adv-x="1390" 
d="M1260 463h69q-16 -103 -61.5 -190t-117.5 -154t-177.5 -104.5t-231.5 -37.5q-136 0 -255.5 54.5t-207 151.5t-138 238.5t-50.5 307.5q0 220 80.5 392.5t227 269t333.5 96.5q235 0 389 -117t191 -297h-70q-14 70 -53.5 133t-102 113.5t-154.5 80.5t-202 30
q-167 0 -297 -88.5t-200.5 -241.5t-75.5 -346h655v-58h-655q7 -191 84 -342t208 -235t293 -84q99 0 182 24.5t140.5 65.5t100 96.5t65.5 115.5t31 126z" />
    <glyph glyph-name="uni0405" unicode="&#x405;" horiz-adv-x="1220" 
d="M657 -23q-122 0 -225.5 30.5t-182.5 90.5t-126.5 155.5t-54.5 217.5h69q13 -210 151 -323t369 -113q203 0 311.5 99.5t110.5 248.5q0 62 -13 110t-43.5 84.5t-69 62.5t-101 47.5t-126 36.5t-155.5 32q-111 20 -189 47.5t-138.5 70.5t-89.5 107t-29 152q0 169 129.5 260.5
t337.5 91.5q220 0 354.5 -108.5t147.5 -305.5h-70q-16 168 -123.5 262t-308.5 94q-182 0 -289.5 -78.5t-107.5 -215.5q0 -48 11 -87.5t28.5 -68.5t49.5 -53t64.5 -40.5t84 -32t97 -25.5t113.5 -23q106 -20 182.5 -43t140 -56.5t102.5 -77.5t60 -104.5t21 -138.5
q0 -174 -132.5 -290t-359.5 -116z" />
    <glyph glyph-name="uni0406" unicode="&#x406;" horiz-adv-x="401" 
d="M233 0h-65v1464h65v-1464z" />
    <glyph glyph-name="uni0407" unicode="&#x407;" horiz-adv-x="401" 
d="M125 1686h-115v114h115v-114zM391 1686h-115v114h115v-114zM233 0h-65v1464h65v-1464z" />
    <glyph glyph-name="uni0408" unicode="&#x408;" horiz-adv-x="970" 
d="M430 -23q-184 0 -282.5 110t-98.5 286v59h70v-59q0 -160 83.5 -249t227.5 -89q145 0 231.5 89.5t86.5 248.5v1091h65v-1091q0 -176 -99.5 -286t-283.5 -110z" />
    <glyph glyph-name="uni0409" unicode="&#x409;" horiz-adv-x="1869" 
d="M129 -31q-77 0 -129 25v57q58 -20 139 -20q70 0 108 49t42 162l41 1222h676v-606h362q211 0 327.5 -115.5t116.5 -310.5q0 -205 -119.5 -318.5t-338.5 -113.5h-414v1407h-549l-41 -1188q-5 -127 -58.5 -188.5t-162.5 -61.5zM1006 801v-744h342q190 0 292.5 98.5
t102.5 276.5q0 169 -96.5 269t-270.5 100h-370z" />
    <glyph glyph-name="uni040A" unicode="&#x40a;" horiz-adv-x="1959" 
d="M233 0h-65v1464h65v-635h799v635h66v-635h362q213 0 329 -108t116 -301q0 -203 -119 -311.5t-340 -108.5h-414v772h-799v-772zM1098 772v-715h342q191 0 293 93t102 270q0 167 -95.5 259.5t-271.5 92.5h-370z" />
    <glyph glyph-name="uni040B" unicode="&#x40b;" horiz-adv-x="1331" 
d="M442 0h-65v1407h-346v57h835v-57h-424v-686h4q42 84 149 140.5t232 56.5q189 0 299.5 -113t110.5 -322v-483h-66v483q0 174 -93.5 276.5t-250.5 102.5q-180 0 -282.5 -103.5t-102.5 -275.5v-483z" />
    <glyph glyph-name="uni040C" unicode="&#x40c;" horiz-adv-x="1198" 
d="M709 1905h84l-156 -260h-59zM1186 1464l-625 -751l647 -713h-86l-620 684h-269v-684h-65v1464h65v-727h273l604 727h76z" />
    <glyph glyph-name="uni040D" unicode="&#x40d;" horiz-adv-x="1443" 
d="M764 1645h-59l-156 260h84zM233 0h-65v1464h65v-1362h5l972 1362h66v-1464h-66v1362h-4z" />
    <glyph glyph-name="uni040E" unicode="&#x40e;" horiz-adv-x="1138" 
d="M571 1655q-102 0 -166.5 66t-70.5 163h57q12 -74 57.5 -125t122.5 -51q78 0 124.5 51t58.5 125h57q-6 -97 -71 -163t-169 -66zM406 0h-66l190 406l-473 1058h74l434 -977h4l463 977h68z" />
    <glyph glyph-name="uni040F" unicode="&#x40f;" horiz-adv-x="1341" 
d="M705 -266h-62v266h-475v1464h65v-1407h875v1407h66v-1464h-469v-266z" />
    <glyph glyph-name="uni0410" unicode="&#x410;" horiz-adv-x="1255" 
d="M94 0h-67l561 1464h76l569 -1464h-72l-188 498h-688zM625 1389l-320 -834h645l-321 834h-4z" />
    <glyph glyph-name="uni0411" unicode="&#x411;" horiz-adv-x="1226" 
d="M705 0h-537v1464h893v-57h-828v-549h486q212 0 328 -111t116 -305q0 -206 -120 -324t-338 -118zM233 801v-744h465q188 0 292 103t104 282q0 168 -96 263.5t-271 95.5h-494z" />
    <glyph glyph-name="uni0412" unicode="&#x412;" horiz-adv-x="1310" 
d="M768 0h-600v1464h569q199 0 311.5 -96t112.5 -270q0 -120 -62 -203t-179 -121v-4q141 -31 223 -126.5t82 -237.5q0 -106 -34 -185t-96 -127t-144 -71t-183 -23zM233 797h549q139 0 224.5 84t85.5 217q0 143 -92 226t-263 83h-504v-610zM233 57h529q181 0 287 85t106 264
q0 152 -99 242.5t-265 90.5h-558v-682z" />
    <glyph glyph-name="uni0413" unicode="&#x413;" horiz-adv-x="972" 
d="M233 0h-65v1464h776v-57h-711v-1407z" />
    <glyph glyph-name="uni0414" unicode="&#x414;" horiz-adv-x="1333" 
d="M70 -266h-62v321h98q88 0 133.5 86.5t57.5 282.5l61 1040h799v-1409h107v-321h-62v264h-1132v-264zM254 59v-4h838v1352h-672l-62 -1067q-11 -205 -104 -281z" />
    <glyph glyph-name="uni0415" unicode="&#x415;" horiz-adv-x="1189" 
d="M1130 0h-962v1464h942v-57h-877v-600h805v-57h-805v-693h897v-57z" />
    <glyph glyph-name="uni0416" unicode="&#x416;" horiz-adv-x="1736" 
d="M1712 1464l-545 -753l564 -711h-84l-539 684h-207v-684h-65v684h-207l-539 -684h-86l567 711l-542 753h77l523 -727h207v727h65v-727h211l522 727h78z" />
    <glyph glyph-name="uni0417" unicode="&#x417;" horiz-adv-x="1138" 
d="M578 -29q-226 0 -369 119t-143 307h69q0 -163 119.5 -265.5t308.5 -102.5q183 0 298.5 97t115.5 251q0 141 -100.5 233t-249.5 92h-195v58h186q134 0 226 95.5t92 236.5q0 152 -107.5 243.5t-279.5 91.5q-175 0 -286 -98.5t-111 -255.5h-70q0 181 130.5 296.5
t336.5 115.5q203 0 330 -108t127 -285q0 -131 -65 -221t-171 -132v-4q127 -40 202 -128t75 -230q0 -180 -131.5 -293t-337.5 -113z" />
    <glyph glyph-name="uni0418" unicode="&#x418;" horiz-adv-x="1443" 
d="M233 0h-65v1464h65v-1362h5l972 1362h66v-1464h-66v1362h-4z" />
    <glyph glyph-name="uni0419" unicode="&#x419;" horiz-adv-x="1443" 
d="M741 1655q-102 0 -166.5 66t-70.5 163h57q12 -74 57.5 -125t122.5 -51q78 0 124.5 51t58.5 125h57q-6 -97 -71 -163t-169 -66zM233 0h-65v1464h65v-1362h5l972 1362h66v-1464h-66v1362h-4z" />
    <glyph glyph-name="uni041A" unicode="&#x41a;" horiz-adv-x="1198" 
d="M1186 1464l-625 -751l647 -713h-86l-620 684h-269v-684h-65v1464h65v-727h273l604 727h76z" />
    <glyph glyph-name="uni041B" unicode="&#x41b;" horiz-adv-x="1255" 
d="M129 -31q-77 0 -129 25v57q58 -20 139 -20q70 0 108 49t42 162l41 1222h757v-1464h-65v1407h-631l-41 -1188q-5 -127 -58.5 -188.5t-162.5 -61.5z" />
    <glyph glyph-name="uni041C" unicode="&#x41c;" horiz-adv-x="1693" 
d="M233 0h-65v1464h96l580 -1376h4l582 1376h96v-1464h-66v1368h-4l-575 -1368h-70l-573 1368h-5v-1368z" />
    <glyph glyph-name="uni041D" unicode="&#x41d;" horiz-adv-x="1402" 
d="M233 0h-65v1464h65v-657h936v657h66v-1464h-66v750h-936v-750z" />
    <glyph glyph-name="uni041E" unicode="&#x41e;" horiz-adv-x="1527" 
d="M764 -23q-198 0 -352 97t-238 269t-84 390t84 389.5t237.5 268t352.5 96.5t352.5 -96.5t237.5 -268t84 -389.5t-84 -390t-238 -269t-352 -97zM764 35q262 0 433 194t171 504t-171 503.5t-433 193.5t-433 -193.5t-171 -503.5t171 -504t433 -194z" />
    <glyph glyph-name="uni041F" unicode="&#x41f;" horiz-adv-x="1361" 
d="M233 0h-65v1464h1026v-1464h-66v1407h-895v-1407z" />
    <glyph glyph-name="uni0420" unicode="&#x420;" horiz-adv-x="1208" 
d="M233 0h-65v1464h520q463 0 463 -415q0 -416 -463 -416h-455v-633zM233 690h474q179 0 276.5 88.5t97.5 270.5t-97.5 270t-276.5 88h-474v-717z" />
    <glyph glyph-name="uni0421" unicode="&#x421;" horiz-adv-x="1396" 
d="M745 -23q-191 0 -339.5 93.5t-231 264.5t-82.5 394q0 220 81.5 392.5t232.5 269t348 96.5q225 0 374 -124.5t185 -330.5h-70q-29 175 -158 286.5t-333 111.5q-181 0 -317.5 -92.5t-206.5 -250.5t-70 -358q0 -201 71.5 -358t205.5 -246.5t310 -89.5q116 0 211 37.5
t157.5 103t100.5 149t48 179.5h69q-31 -237 -188 -382t-398 -145z" />
    <glyph glyph-name="uni0422" unicode="&#x422;" horiz-adv-x="1167" 
d="M616 0h-65v1407h-522v57h1110v-57h-523v-1407z" />
    <glyph glyph-name="uni0423" unicode="&#x423;" horiz-adv-x="1138" 
d="M406 0h-66l190 406l-473 1058h74l434 -977h4l463 977h68z" />
    <glyph glyph-name="uni0424" unicode="&#x424;" horiz-adv-x="1388" 
d="M1309 723q0 -227 -158 -362.5t-428 -143.5v-217h-66v217q-267 9 -422 144.5t-155 361.5q0 233 155 373t422 151v217h66v-217q270 -8 428 -148.5t158 -375.5zM723 1194v-924q241 7 380.5 128.5t139.5 324.5q0 211 -139.5 337.5t-380.5 133.5zM145 723q0 -201 137.5 -322.5
t374.5 -130.5v924q-237 -11 -374.5 -136.5t-137.5 -334.5z" />
    <glyph glyph-name="uni0425" unicode="&#x425;" horiz-adv-x="1136" 
d="M84 0h-78l518 758l-485 706h78l450 -655h2l453 655h78l-496 -716l529 -748h-78l-496 700h-2z" />
    <glyph glyph-name="uni0426" unicode="&#x426;" horiz-adv-x="1347" 
d="M1253 -266h-61v266h-1024v1464h65v-1407h875v1407h66v-1407h79v-323z" />
    <glyph glyph-name="uni0427" unicode="&#x427;" horiz-adv-x="1124" 
d="M956 0h-65v702h-4q-42 -83 -149 -139.5t-232 -56.5q-189 0 -299.5 112.5t-110.5 321.5v524h66v-524q0 -174 93.5 -276.5t250.5 -102.5q155 0 249 69t136 175v659h65v-1464z" />
    <glyph glyph-name="uni0428" unicode="&#x428;" horiz-adv-x="1679" 
d="M1511 0h-1343v1464h65v-1407h574v1407h65v-1407h574v1407h65v-1464z" />
    <glyph glyph-name="uni0429" unicode="&#x429;" horiz-adv-x="1685" 
d="M1591 -266h-61v266h-1362v1464h65v-1407h574v1407h65v-1407h574v1407h65v-1407h80v-323z" />
    <glyph glyph-name="uni042A" unicode="&#x42a;" horiz-adv-x="1298" 
d="M784 0h-495v1407h-279v57h344v-606h445q211 0 327.5 -115.5t116.5 -310.5q0 -205 -120 -318.5t-339 -113.5zM354 801v-744h424q190 0 293 98.5t103 276.5q0 169 -96.5 269t-270.5 100h-453z" />
    <glyph glyph-name="uni042B" unicode="&#x42b;" horiz-adv-x="1554" 
d="M623 0h-455v1464h65v-606h404q211 0 327.5 -115.5t116.5 -310.5q0 -205 -119.5 -318.5t-338.5 -113.5zM1386 0h-65v1464h65v-1464zM233 801v-744h383q190 0 293 98.5t103 276.5q0 169 -96.5 269t-270.5 100h-412z" />
    <glyph glyph-name="uni042C" unicode="&#x42c;" horiz-adv-x="1177" 
d="M664 0h-496v1464h65v-606h445q211 0 327.5 -115.5t116.5 -310.5q0 -205 -119.5 -318.5t-338.5 -113.5zM233 801v-744h424q190 0 293 98.5t103 276.5q0 169 -96.5 269t-270.5 100h-453z" />
    <glyph glyph-name="uni042D" unicode="&#x42d;" horiz-adv-x="1390" 
d="M664 1487q187 0 332 -96.5t224.5 -269t79.5 -392.5q0 -166 -47.5 -307t-130.5 -238.5t-199.5 -152t-252.5 -54.5q-127 0 -235 38t-184.5 104t-125.5 154t-64 190h70q10 -82 48.5 -156.5t103 -136.5t164.5 -98.5t223 -36.5q244 0 400 184.5t165 476.5h-655v58h655
q-4 194 -74 346.5t-199 241t-296 88.5q-214 0 -350 -104.5t-166 -252.5h-70q37 179 192.5 296.5t391.5 117.5z" />
    <glyph glyph-name="uni042E" unicode="&#x42e;" horiz-adv-x="1804" 
d="M1137 1487q263 0 418 -205t155 -549q0 -345 -155 -551.5t-418 -206.5q-257 0 -411.5 198.5t-162.5 531.5h-330v-705h-65v1464h65v-702h330q8 331 162.5 528t411.5 197zM1137 33q232 0 367.5 188t135.5 512q0 323 -135.5 510t-367.5 187t-368 -187t-136 -510t136 -511.5
t368 -188.5z" />
    <glyph glyph-name="uni042F" unicode="&#x42f;" horiz-adv-x="1187" 
d="M158 0h-76v12q12 21 20 80t12.5 126t22 145.5t45.5 143.5t86.5 115.5t141.5 65.5v4q-136 39 -211.5 135t-75.5 224q0 205 122.5 309t346.5 104h428v-1464h-66v657h-440q-67 0 -120 -22t-86.5 -58.5t-58 -86.5t-36.5 -102.5t-21 -111.5t-12.5 -107.5t-9 -96t-12.5 -72.5z
M594 715h360v692h-387q-179 0 -276.5 -90t-97.5 -260q0 -152 109 -247t292 -95z" />
    <glyph glyph-name="uni0430" unicode="&#x430;" horiz-adv-x="1019" 
d="M412 -23q-152 0 -245 76t-93 203q0 141 92.5 212.5t300.5 104.5q21 3 59 8.5t60 8.5t55 10t52.5 15.5t42.5 22.5t35.5 32t21 44.5t8.5 59.5q0 114 -78 174t-205 60q-155 0 -238.5 -68.5t-91.5 -189.5h-65q3 46 16 88t42.5 84t72.5 72t111 48.5t153 18.5q74 0 134 -16.5
t108.5 -52.5t75 -99.5t26.5 -149.5v-571q0 -69 14.5 -96t57.5 -27q11 0 39 4v-53q-28 -4 -47 -4q-64 0 -94.5 37t-30.5 135h-4q-119 -191 -385 -191zM428 31q92 0 165.5 29t117.5 77t67 105.5t23 119.5v265q-21 -46 -98 -68.5t-216 -38.5q-64 -8 -114 -19.5t-95 -31
t-74.5 -45.5t-47 -64t-17.5 -86q0 -121 73.5 -182t215.5 -61z" />
    <glyph glyph-name="uni0431" unicode="&#x431;" horiz-adv-x="1034" 
d="M526 -25q-210 0 -319 156.5t-109 452.5q0 315 88 488.5t273 211.5l205 43q82 18 143 57.5t61 81.5h62q0 -64 -59 -117.5t-158 -74.5l-234 -49q-62 -13 -111 -45t-81 -72t-56.5 -96t-38 -105.5t-24.5 -111.5h4q130 266 385 266q190 0 294.5 -140.5t104.5 -390.5
q0 -260 -115 -407.5t-315 -147.5zM526 29q166 0 265.5 132t99.5 369q0 224 -96.5 350t-255.5 126q-103 0 -189.5 -63t-134 -164.5t-47.5 -215.5q0 -252 94 -393t264 -141z" />
    <glyph glyph-name="uni0432" unicode="&#x432;" horiz-adv-x="909" 
d="M520 0h-387v1044h344q154 0 236 -72t82 -198q0 -84 -53 -153t-121 -89v-4q91 -13 155 -79t64 -168q0 -129 -85.5 -205t-234.5 -76zM195 991v-436h313q88 0 154.5 62.5t66.5 156.5q0 101 -66.5 159t-193.5 58h-274zM195 502v-449h327q114 0 183 62.5t69 167.5
q0 104 -75 161.5t-199 57.5h-305z" />
    <glyph glyph-name="uni0433" unicode="&#x433;" horiz-adv-x="688" 
d="M195 0h-62v1044h531v-53h-469v-991z" />
    <glyph glyph-name="uni0434" unicode="&#x434;" horiz-adv-x="964" 
d="M815 1044v-991h94v-319h-53v266h-790v-266h-54v319h41q46 0 77.5 51.5t37.5 128.5l61 811h586zM154 57v-4h608v938h-479l-58 -749q-9 -119 -71 -185z" />
    <glyph glyph-name="uni0435" unicode="&#x435;" horiz-adv-x="1062" 
d="M991 532h-852v-12q0 -103 26 -191t76 -155.5t129.5 -106t180.5 -38.5q87 0 155 27.5t109 72.5t64 90.5t34 93.5h66q-37 -148 -146 -243t-284 -95q-219 0 -347 149.5t-128 391.5q0 249 131.5 397t347.5 148q105 0 189.5 -37t138.5 -102t83 -151t29 -185q0 -36 -2 -54z
M549 1008q-93 0 -170 -34.5t-127.5 -93t-79.5 -134t-33 -160.5h789q0 85 -22.5 159.5t-67.5 134t-119 94t-170 34.5z" />
    <glyph glyph-name="uni0436" unicode="&#x436;" horiz-adv-x="1171" 
d="M102 0h-77l337 518l-348 526h72l326 -499h143v499h61v-499h144l325 499h72l-348 -526l338 -518h-78l-315 492h-138v-492h-61v492h-137z" />
    <glyph glyph-name="uni0437" unicode="&#x437;" horiz-adv-x="888" 
d="M449 -25q-182 0 -286 88t-104 240h66q0 -126 88.5 -200t239.5 -74q137 0 217 69t80 189q0 97 -66 155t-178 58h-189v53h183q101 0 159 58t58 161q0 110 -75.5 173t-203.5 63q-143 0 -224 -67.5t-81 -188.5h-65q0 145 99.5 227t270.5 82q159 0 251.5 -75.5t92.5 -207.5
q0 -172 -155 -246v-2q80 -20 134 -86t54 -157q0 -140 -101.5 -226t-264.5 -86z" />
    <glyph glyph-name="uni0438" unicode="&#x438;" horiz-adv-x="1083" 
d="M195 0h-62v1044h62v-950l694 950h61v-1044h-61v950z" />
    <glyph glyph-name="uni0439" unicode="&#x439;" horiz-adv-x="1083" 
d="M565 1235q-102 0 -166.5 66t-70.5 163h57q12 -74 57.5 -125t122.5 -51q78 0 124.5 51t58.5 125h57q-6 -97 -71 -163t-169 -66zM195 0h-62v1044h62v-950l694 950h61v-1044h-61v950z" />
    <glyph glyph-name="uni043A" unicode="&#x43a;" horiz-adv-x="858" 
d="M786 1044h72l-407 -528l397 -516h-78l-377 492h-198v-492h-62v1044h62v-499h204z" />
    <glyph glyph-name="uni043B" unicode="&#x43b;" horiz-adv-x="915" 
d="M106 -25q-61 0 -100 13v55q44 -14 94 -14q85 0 90 96l43 919h549v-1044h-61v991h-432l-43 -887q-3 -61 -40.5 -95t-99.5 -34z" />
    <glyph glyph-name="uni043C" unicode="&#x43c;" horiz-adv-x="1273" 
d="M195 0h-62v1044h62l442 -944h4l438 944h62v-1044h-62v899h-4l-418 -897h-41l-417 897h-4v-899z" />
    <glyph glyph-name="uni043D" unicode="&#x43d;" horiz-adv-x="1062" 
d="M868 557v487h62v-1044h-62v504h-673v-504h-62v1044h62v-487h673z" />
    <glyph glyph-name="uni043E" unicode="&#x43e;" horiz-adv-x="1110" 
d="M555 -25q-222 0 -351.5 149.5t-129.5 393.5t129.5 393.5t351.5 149.5t351.5 -149.5t129.5 -393.5t-129.5 -393.5t-351.5 -149.5zM555 29q196 0 306 136t110 353t-110 353.5t-306 136.5t-306 -136.5t-110 -353.5t110 -353t306 -136z" />
    <glyph glyph-name="uni043F" unicode="&#x43f;" horiz-adv-x="1042" 
d="M195 0h-62v1044h776v-1044h-61v991h-653v-991z" />
    <glyph glyph-name="uni0440" unicode="&#x440;" horiz-adv-x="1118" 
d="M610 1067q185 0 309.5 -147.5t124.5 -397.5q0 -246 -125 -392t-311 -146q-153 0 -256.5 80t-152.5 210h-4v-636h-62v1406h62v-262h4q48 125 153 205t258 80zM596 37q170 0 276.5 131.5t106.5 353.5q0 227 -106.5 359.5t-276.5 132.5q-81 0 -153.5 -34t-127.5 -96
t-87.5 -156t-32.5 -206q0 -219 117 -352t284 -133z" />
    <glyph glyph-name="uni0441" unicode="&#x441;" horiz-adv-x="1048" 
d="M563 -25q-217 0 -353 150.5t-136 394.5q0 241 136 391t353 150q175 0 290.5 -104t133.5 -255h-65q-3 48 -27 99.5t-66 98.5t-112 77.5t-154 30.5q-100 0 -182 -40.5t-134 -109t-80 -155.5t-28 -183q0 -97 28 -185t80 -156.5t134 -109t182 -40.5q85 0 154.5 30t112 77.5
t66 100.5t26.5 105h65q-11 -153 -128.5 -260t-295.5 -107z" />
    <glyph glyph-name="uni0442" unicode="&#x442;" horiz-adv-x="806" 
d="M434 0h-61v991h-348v53h757v-53h-348v-991z" />
    <glyph glyph-name="uni0443" unicode="&#x443;" horiz-adv-x="929" 
d="M184 -367q-21 0 -82 7v53q50 -4 80 -4q90 0 140.5 65t115.5 242l-418 1048h66l381 -960h2l367 960h65l-412 -1073q-75 -194 -138.5 -266t-166.5 -72z" />
    <glyph glyph-name="uni0444" unicode="&#x444;" horiz-adv-x="1230" 
d="M1157 522q0 -244 -140 -391t-380 -156v-337h-62v337q-232 11 -366.5 157t-134.5 390q0 241 134.5 385.5t366.5 153.5v403h62v-403q240 -9 380 -153.5t140 -385.5zM637 1008v-979q211 11 333 142.5t122 350.5q0 217 -122 347t-333 139zM139 522q0 -219 117 -350.5
t319 -142.5v979q-202 -11 -319 -140.5t-117 -345.5z" />
    <glyph glyph-name="uni0445" unicode="&#x445;" horiz-adv-x="911" 
d="M72 0h-78l420 535l-387 509h75l351 -466h4l350 466h76l-387 -509l422 -535h-78l-383 496h-4z" />
    <glyph glyph-name="uni0446" unicode="&#x446;" horiz-adv-x="1028" 
d="M950 -266h-61v266h-756v1044h62v-991h632v991h62v-991h61v-319z" />
    <glyph glyph-name="uni0447" unicode="&#x447;" horiz-adv-x="942" 
d="M809 0h-61v518l-5 -2q-55 -65 -135 -111.5t-176 -46.5q-170 0 -264 88t-94 261v337h61v-337q0 -148 79.5 -221.5t223.5 -73.5q176 0 310 178v454h61v-1044z" />
    <glyph glyph-name="uni0448" unicode="&#x448;" horiz-adv-x="1347" 
d="M1214 0h-1081v1044h62v-991h448v991h62v-991h448v991h61v-1044z" />
    <glyph glyph-name="uni0449" unicode="&#x449;" horiz-adv-x="1353" 
d="M1276 -266h-62v266h-1081v1044h62v-991h448v991h62v-991h448v991h61v-991h62v-319z" />
    <glyph glyph-name="uni044A" unicode="&#x44a;" horiz-adv-x="935" 
d="M571 0h-366v983h-185v61h246v-442h309q144 0 230 -85t86 -220q0 -131 -89.5 -214t-230.5 -83zM266 549v-496h307q117 0 184.5 66t67.5 180q0 117 -67 183.5t-191 66.5h-301z" />
    <glyph glyph-name="uni044B" unicode="&#x44b;" horiz-adv-x="1148" 
d="M459 0h-326v1044h62v-442h268q144 0 229.5 -85t85.5 -220q0 -131 -89 -214t-230 -83zM1016 0h-62v1044h62v-1044zM195 549v-496h266q117 0 184.5 66t67.5 180q0 117 -67 183.5t-191 66.5h-260z" />
    <glyph glyph-name="uni044C" unicode="&#x44c;" horiz-adv-x="864" 
d="M500 0h-367v1044h62v-442h309q144 0 229.5 -85t85.5 -220q0 -131 -89 -214t-230 -83zM195 549v-496h307q117 0 184.5 66t67.5 180q0 117 -67 183.5t-191 66.5h-301z" />
    <glyph glyph-name="uni044D" unicode="&#x44d;" horiz-adv-x="1026" 
d="M485 1061q218 0 342.5 -149.5t124.5 -411.5q0 -146 -59 -266.5t-163 -189.5t-230 -69q-183 0 -300.5 90.5t-140.5 245.5h66q22 -131 119 -206.5t256 -75.5q109 0 198 62.5t139.5 167t53.5 228.5h-502v54h502q-11 214 -118 340.5t-288 126.5q-135 0 -239.5 -79.5
t-124.5 -197.5h-66q26 143 148 236.5t282 93.5z" />
    <glyph glyph-name="uni044E" unicode="&#x44e;" horiz-adv-x="1335" 
d="M858 1069q185 0 292 -145.5t107 -401.5q0 -251 -107.5 -399t-291.5 -148q-179 0 -286 140.5t-113 380.5h-264v-496h-62v1044h62v-495h264q6 244 112.5 382t286.5 138zM858 29q154 0 244 133.5t90 359.5q0 231 -90 362.5t-244 131.5t-244 -131.5t-90 -362.5
q0 -226 90 -359.5t244 -133.5z" />
    <glyph glyph-name="uni044F" unicode="&#x44f;" horiz-adv-x="917" 
d="M137 0h-67v8q3 10 6.5 67t13.5 119.5t30.5 130t66.5 117t112 62.5v2q-92 22 -144.5 87.5t-52.5 162.5q0 139 91.5 213.5t271.5 74.5h319v-1044h-61v479h-338q-63 0 -109 -31t-69.5 -76t-39 -105t-19 -108.5t-6.5 -97.5t-5 -61zM399 532h324v459h-266q-289 0 -289 -227
q0 -111 62 -171.5t169 -60.5z" />
    <glyph glyph-name="uni0450" unicode="&#x450;" horiz-adv-x="1062" 
d="M438 1487l131 -260h-59l-156 260h84zM991 532h-852v-12q0 -103 26 -191t76 -155.5t129.5 -106t180.5 -38.5q87 0 155 27.5t109 72.5t64 90.5t34 93.5h66q-37 -148 -146 -243t-284 -95q-219 0 -347 149.5t-128 391.5q0 249 131.5 397t347.5 148q105 0 189.5 -37
t138.5 -102t83 -151t29 -185q0 -36 -2 -54zM549 1008q-93 0 -170 -34.5t-127.5 -93t-79.5 -134t-33 -160.5h789q0 85 -22.5 159.5t-67.5 134t-119 94t-170 34.5z" />
    <glyph glyph-name="uni0451" unicode="&#x451;" horiz-adv-x="1062" 
d="M358 1382h115v-114h-115v114zM625 1382h114v-114h-114v114zM991 532h-852v-12q0 -103 26 -191t76 -155.5t129.5 -106t180.5 -38.5q87 0 155 27.5t109 72.5t64 90.5t34 93.5h66q-37 -148 -146 -243t-284 -95q-219 0 -347 149.5t-128 391.5q0 249 131.5 397t347.5 148
q105 0 189.5 -37t138.5 -102t83 -151t29 -185q0 -36 -2 -54zM549 1008q-93 0 -170 -34.5t-127.5 -93t-79.5 -134t-33 -160.5h789q0 85 -22.5 159.5t-67.5 134t-119 94t-170 34.5z" />
    <glyph glyph-name="uni0452" unicode="&#x452;" horiz-adv-x="1034" 
d="M715 -369q-62 0 -115 11v51q50 -8 113 -8q68 0 101.5 36.5t33.5 131.5v888q0 52 -12.5 96t-41.5 84.5t-85.5 63.5t-135.5 23q-82 0 -155 -32.5t-120.5 -82.5t-75 -107t-27.5 -108v-678h-62v1243h-143v53h143v168h62v-168h321v-53h-321v-403h4q127 221 389 221
q140 0 230.5 -83t90.5 -237v-888q0 -222 -194 -222z" />
    <glyph glyph-name="uni0453" unicode="&#x453;" horiz-adv-x="688" 
d="M399 1225h-59l131 260h84zM195 0h-62v1044h531v-53h-469v-991z" />
    <glyph glyph-name="uni0454" unicode="&#x454;" horiz-adv-x="1024" 
d="M551 29q151 0 238.5 74.5t109.5 207.5h66q-23 -155 -132.5 -245.5t-281.5 -90.5q-139 0 -249.5 70.5t-170 191.5t-59.5 269q0 258 133.5 406.5t347.5 148.5q164 0 276.5 -92t139.5 -238h-66q-21 121 -116 199t-234 78q-190 0 -300.5 -126t-119.5 -341h502v-54h-502
q4 -125 55 -228.5t146.5 -166.5t216.5 -63z" />
    <glyph glyph-name="uni0455" unicode="&#x455;" horiz-adv-x="935" 
d="M492 -23q-197 0 -314.5 100t-122.5 249h66q6 -135 106.5 -215t270.5 -80q147 0 230 66t83 179q0 33 -8.5 60.5t-20.5 47.5t-36 38t-43 28.5t-55 23.5t-58 19l-66 18t-67 19q-47 14 -70 21t-62 20t-58.5 21.5t-49.5 23t-44.5 27.5t-33 31t-27 37.5t-14.5 44.5t-6 53
q0 117 90 184.5t258 67.5q99 0 174 -24.5t120 -67.5t70.5 -92.5t35.5 -108.5h-66q-8 39 -22.5 72t-41.5 64.5t-63 54t-89.5 36t-119.5 13.5q-124 0 -202 -47.5t-78 -143.5q0 -42 17 -74.5t41 -53t70 -40t82.5 -30.5t99.5 -28q23 -6 34 -9q77 -21 126 -37.5t101.5 -42t81 -54
t47.5 -71t19 -96.5q0 -137 -103.5 -220.5t-281.5 -83.5z" />
    <glyph glyph-name="uni0456" unicode="&#x456;" horiz-adv-x="327" 
d="M221 1266h-115v114h115v-114zM195 0h-62v1044h62v-1044z" />
    <glyph glyph-name="uni0457" unicode="&#x457;" horiz-adv-x="327" 
d="M129 1266h-115v114h115v-114zM313 1266h-114v114h114v-114zM195 0h-62v1044h62v-1044z" />
    <glyph glyph-name="uni0458" unicode="&#x458;" horiz-adv-x="327" 
d="M221 1266h-115v114h115v-114zM41 -369q-31 0 -82 7v51q50 -4 68 -4q59 0 82.5 35.5t23.5 132.5v1191h62v-1185q0 -125 -40.5 -176.5t-113.5 -51.5z" />
    <glyph glyph-name="uni0459" unicode="&#x459;" horiz-adv-x="1361" 
d="M106 -25q-61 0 -100 13v55q44 -14 94 -14q85 0 90 96l43 919h500v-442h268q144 0 230 -85t86 -220q0 -131 -89.5 -214t-230.5 -83h-325v991h-383l-43 -887q-3 -61 -40.5 -95t-99.5 -34zM733 549v-496h266q117 0 184.5 66t67.5 180q0 117 -67 183.5t-191 66.5h-260z" />
    <glyph glyph-name="uni045A" unicode="&#x45a;" horiz-adv-x="1417" 
d="M788 582h269q146 0 230.5 -79.5t84.5 -213.5q0 -130 -88.5 -209.5t-230.5 -79.5h-326v528h-532v-528h-62v1044h62v-462h532v462h61v-462zM788 53h267q118 0 185 62.5t67 175.5q0 116 -66 176.5t-192 60.5h-261v-475z" />
    <glyph glyph-name="uni045B" unicode="&#x45b;" horiz-adv-x="1034" 
d="M588 1061q140 0 230.5 -83t90.5 -237v-741h-61v741q0 52 -12.5 96t-41.5 84.5t-85.5 63.5t-135.5 23q-82 0 -155 -32.5t-120.5 -82.5t-75 -107t-27.5 -108v-678h-62v1243h-143v53h143v168h62v-168h321v-53h-321v-403h4q127 221 389 221z" />
    <glyph glyph-name="uni045C" unicode="&#x45c;" horiz-adv-x="858" 
d="M555 1485h84l-156 -260h-59zM786 1044h72l-407 -528l397 -516h-78l-377 492h-198v-492h-62v1044h62v-499h204z" />
    <glyph glyph-name="uni045D" unicode="&#x45d;" horiz-adv-x="1083" 
d="M588 1225h-60l-155 260h84zM195 0h-62v1044h62v-950l694 950h61v-1044h-61v950z" />
    <glyph glyph-name="uni045E" unicode="&#x45e;" horiz-adv-x="929" 
d="M459 1235q-102 0 -167 66t-71 163h58q12 -74 57.5 -125t122.5 -51q78 0 124 50.5t58 125.5h57q-6 -98 -70.5 -163.5t-168.5 -65.5zM184 -367q-21 0 -82 7v53q50 -4 80 -4q90 0 140.5 65t115.5 242l-418 1048h66l381 -960h2l367 960h65l-412 -1073q-75 -194 -138.5 -266
t-166.5 -72z" />
    <glyph glyph-name="uni045F" unicode="&#x45f;" horiz-adv-x="1021" 
d="M545 -266h-62v266h-350v1044h62v-991h632v991h62v-1044h-344v-266z" />
    <glyph glyph-name="uni0490" unicode="&#x490;" horiz-adv-x="972" 
d="M233 0h-65v1464h715v203h61v-260h-711v-1407z" />
    <glyph glyph-name="uni0491" unicode="&#x491;" horiz-adv-x="688" 
d="M195 0h-62v1044h477v226h54v-279h-469v-991z" />
    <glyph glyph-name="uni0492" unicode="&#x492;" horiz-adv-x="1017" 
d="M985 1464v-57h-711v-664h467v-53h-467v-690h-65v690h-213v53h213v721h776z" />
    <glyph glyph-name="uni0493" unicode="&#x493;" horiz-adv-x="716" 
d="M692 1044v-53h-469v-436h328v-49h-328v-506h-61v506h-164v49h164v489h530z" />
    <glyph glyph-name="uni0496" unicode="&#x496;" horiz-adv-x="1736" 
d="M1683 59v2h62v-327h-62v266h-36l-539 684h-207v-684h-65v684h-207l-539 -684h-86l567 711l-542 753h77l523 -727h207v727h65v-727h211l522 727h78l-545 -753z" />
    <glyph glyph-name="uni0497" unicode="&#x497;" horiz-adv-x="1171" 
d="M1157 1044l-348 -526l297 -457h49v-327h-53v266h-33l-315 492h-138v-492h-61v492h-137l-316 -492h-77l337 518l-348 526h72l326 -499h143v499h61v-499h144l325 499h72z" />
    <glyph glyph-name="uni049A" unicode="&#x49a;" horiz-adv-x="1198" 
d="M561 713l592 -652h57v-327h-61v266h-27l-620 684h-269v-684h-65v1464h65v-727h273l604 727h76z" />
    <glyph glyph-name="uni049B" unicode="&#x49b;" horiz-adv-x="858" 
d="M858 1044l-407 -528l350 -455h49v-327h-53v266h-27l-377 492h-198v-492h-62v1044h62v-499h204l387 499h72z" />
    <glyph glyph-name="uni04A2" unicode="&#x4a2;" horiz-adv-x="1402" 
d="M1235 1464v-1403h37v-327h-62v266h-41v750h-936v-750h-65v1464h65v-657h936v657h66z" />
    <glyph glyph-name="uni04A3" unicode="&#x4a3;" horiz-adv-x="1062" 
d="M930 1044v-983h33v-327h-54v266h-41v504h-673v-504h-62v1044h62v-487h673v487h62z" />
    <glyph glyph-name="uni04AE" unicode="&#x4ae;" horiz-adv-x="1214" 
d="M639 0h-66v600l-538 864h76l493 -802h8l498 802h72l-543 -864v-600z" />
    <glyph glyph-name="uni04AF" unicode="&#x4af;" horiz-adv-x="923" 
d="M502 -362h-62v444l-422 962h66l387 -880h4l359 880h65l-397 -962v-444z" />
    <glyph glyph-name="uni04B0" unicode="&#x4b0;" horiz-adv-x="1220" 
d="M1186 1464l-543 -864v-113h361v-53h-361v-434h-65v434h-349v53h349v113l-539 864h76l493 -802h8l498 802h72z" />
    <glyph glyph-name="uni04B1" unicode="&#x4b1;" horiz-adv-x="923" 
d="M899 1044l-397 -962v-141h286v-50h-286v-253h-62v253h-286v50h286v141l-422 962h66l387 -880h4l359 880h65z" />
    <glyph glyph-name="uni04B2" unicode="&#x4b2;" horiz-adv-x="1136" 
d="M604 748l486 -687h59v-327h-62v266h-32l-496 700h-2l-473 -700h-78l518 758l-485 706h78l450 -655h2l453 655h78z" />
    <glyph glyph-name="uni04B3" unicode="&#x4b3;" horiz-adv-x="911" 
d="M496 535l372 -474h50v-327h-54v266h-24l-383 496h-4l-381 -496h-78l420 535l-387 509h75l351 -466h4l350 466h76z" />
    <glyph glyph-name="uni04B6" unicode="&#x4b6;" horiz-adv-x="1124" 
d="M956 1464v-1403h43v-327h-61v266h-47v702h-4q-42 -83 -149 -139.5t-232 -56.5q-189 0 -299.5 112.5t-110.5 321.5v524h66v-524q0 -174 93.5 -276.5t250.5 -102.5q155 0 249 69t136 175v659h65z" />
    <glyph glyph-name="uni04B7" unicode="&#x4b7;" horiz-adv-x="942" 
d="M809 1044v-983h25v-327h-54v266h-32v518l-5 -2q-55 -65 -135 -111.5t-176 -46.5q-170 0 -264 88t-94 261v337h61v-337q0 -148 79.5 -221.5t223.5 -73.5q176 0 310 178v454h61z" />
    <glyph glyph-name="uni04BA" unicode="&#x4ba;" horiz-adv-x="1146" 
d="M233 0h-65v1468h65v-686h5q42 84 148.5 140.5t231.5 56.5q203 0 317 -111.5t114 -322.5v-545h-66v545q0 176 -97 277.5t-268 101.5q-180 0 -282.5 -103.5t-102.5 -275.5v-545z" />
    <glyph glyph-name="uni04BB" unicode="&#x4bb;" horiz-adv-x="1034" 
d="M588 1061q140 0 230.5 -83t90.5 -237v-741h-61v741q0 52 -12.5 96t-41.5 84.5t-85.5 63.5t-135.5 23q-82 0 -155 -32.5t-120.5 -82.5t-75 -107t-27.5 -108v-678h-62v1464h62v-624h4q127 221 389 221z" />
    <glyph glyph-name="uni04D8" unicode="&#x4d8;" horiz-adv-x="1433" 
d="M717 1487q189 0 331 -95.5t217.5 -265.5t75.5 -391q0 -347 -168 -553.5t-454 -206.5q-192 0 -336 87.5t-220.5 244.5t-76.5 363q0 7 2.5 37.5t3.5 48.5h1180q-6 302 -156.5 488t-398.5 186q-202 0 -347 -109t-177 -270h-72q35 187 199 311.5t397 124.5zM719 33
q247 0 395.5 180t157.5 485h-1120q0 -311 152.5 -488t414.5 -177z" />
    <glyph glyph-name="uni04D9" unicode="&#x4d9;" horiz-adv-x="1056" 
d="M545 1061q194 0 315 -146.5t121 -392.5q0 -261 -126 -404t-329 -143q-193 0 -324.5 130t-131.5 329q0 34 6 84h839v4q0 221 -103 353.5t-267 132.5q-146 0 -250 -71t-143 -194h-66q30 136 156 227t303 91zM526 29q162 0 268 113t119 323h-782q0 -202 113.5 -319
t281.5 -117z" />
    <glyph glyph-name="uni04E2" unicode="&#x4e2;" horiz-adv-x="1443" 
d="M977 1720h-467v58h467v-58zM233 0h-65v1464h65v-1362h5l972 1362h66v-1464h-66v1362h-4z" />
    <glyph glyph-name="uni04E3" unicode="&#x4e3;" horiz-adv-x="1083" 
d="M801 1300h-467v58h467v-58zM195 0h-62v1044h62v-950l694 950h61v-1044h-61v950z" />
    <glyph glyph-name="uni04E8" unicode="&#x4e8;" horiz-adv-x="1527" 
d="M764 1487q199 0 352.5 -96.5t237.5 -268t84 -389.5t-84 -390t-238 -269t-352 -97t-352 97t-238 269t-84 390t84 389.5t237.5 268t352.5 96.5zM764 1430q-126 0 -235.5 -48.5t-189.5 -135t-127.5 -212t-51.5 -274.5h1208q-4 149 -51.5 274.5t-127.5 212t-189.5 135
t-235.5 48.5zM764 35q126 0 235.5 49t189.5 135.5t127.5 212.5t51.5 275h-1208q4 -149 51.5 -275t127.5 -212.5t189.5 -135.5t235.5 -49z" />
    <glyph glyph-name="uni04E9" unicode="&#x4e9;" horiz-adv-x="1110" 
d="M555 1061q222 0 351.5 -149.5t129.5 -393.5t-129.5 -393.5t-351.5 -149.5t-351.5 149.5t-129.5 393.5t129.5 393.5t351.5 149.5zM555 1008q-190 0 -299 -128.5t-117 -334.5h832q-8 206 -117 334.5t-299 128.5zM555 29q190 0 299 128.5t117 334.5h-832q8 -206 117 -334.5
t299 -128.5z" />
    <glyph glyph-name="uni04EE" unicode="&#x4ee;" horiz-adv-x="1138" 
d="M807 1720h-467v58h467v-58zM406 0h-66l190 406l-473 1058h74l434 -977h4l463 977h68z" />
    <glyph glyph-name="uni04EF" unicode="&#x4ef;" horiz-adv-x="929" 
d="M694 1300h-467v58h467v-58zM184 -367q-21 0 -82 7v53q50 -4 80 -4q90 0 140.5 65t115.5 242l-418 1048h66l381 -960h2l367 960h65l-412 -1073q-75 -194 -138.5 -266t-166.5 -72z" />
    <glyph glyph-name="uni139A" unicode="&#x139a;" horiz-adv-x="1355" 
 />
    <glyph glyph-name="Wgrave" unicode="&#x1e80;" horiz-adv-x="1765" 
d="M903 1645h-59l-156 260h84zM492 0h-72l-379 1464h68l350 -1372h4l381 1372h78l383 -1372h6l348 1372h65l-378 -1464h-72l-387 1364h-8z" />
    <glyph glyph-name="wgrave" unicode="&#x1e81;" horiz-adv-x="1454" 
d="M748 1225h-60l-156 260h84zM446 0h-81l-332 1044h63l307 -968h5l276 968h82l281 -968h4l307 968h63l-331 -1044h-82l-281 965h-4z" />
    <glyph glyph-name="Wacute" unicode="&#x1e82;" horiz-adv-x="1765" 
d="M915 1645h-59l131 260h84zM492 0h-72l-379 1464h68l350 -1372h4l381 1372h78l383 -1372h6l348 1372h65l-378 -1464h-72l-387 1364h-8z" />
    <glyph glyph-name="wacute" unicode="&#x1e83;" horiz-adv-x="1454" 
d="M760 1225h-60l131 260h84zM446 0h-81l-332 1044h63l307 -968h5l276 968h82l281 -968h4l307 968h63l-331 -1044h-82l-281 965h-4z" />
    <glyph glyph-name="Wdieresis" unicode="&#x1e84;" horiz-adv-x="1765" 
d="M807 1686h-115v114h115v-114zM1073 1686h-115v114h115v-114zM492 0h-72l-379 1464h68l350 -1372h4l381 1372h78l383 -1372h6l348 1372h65l-378 -1464h-72l-387 1364h-8z" />
    <glyph glyph-name="wdieresis" unicode="&#x1e85;" horiz-adv-x="1454" 
d="M651 1266h-114v114h114v-114zM918 1266h-115v114h115v-114zM446 0h-81l-332 1044h63l307 -968h5l276 968h82l281 -968h4l307 968h63l-331 -1044h-82l-281 965h-4z" />
    <glyph glyph-name="Ygrave" unicode="&#x1ef2;" horiz-adv-x="1214" 
d="M629 1645h-60l-155 260h84zM639 0h-66v600l-538 864h76l493 -802h8l498 802h72l-543 -864v-600z" />
    <glyph glyph-name="ygrave" unicode="&#x1ef3;" horiz-adv-x="929" 
d="M481 1225h-59l-156 260h84zM184 -367q-21 0 -82 7v53q50 -4 80 -4q90 0 140.5 65t115.5 242l-418 1048h66l381 -960h2l367 960h65l-412 -1073q-75 -194 -138.5 -266t-166.5 -72z" />
    <glyph glyph-name="uni2000" unicode="&#x2000;" horiz-adv-x="1024" 
 />
    <glyph glyph-name="uni2001" unicode="&#x2001;" horiz-adv-x="2048" 
 />
    <glyph glyph-name="uni2002" unicode="&#x2002;" horiz-adv-x="1024" 
 />
    <glyph glyph-name="uni2003" unicode="&#x2003;" horiz-adv-x="2048" 
 />
    <glyph glyph-name="uni2004" unicode="&#x2004;" horiz-adv-x="681" 
 />
    <glyph glyph-name="uni2005" unicode="&#x2005;" horiz-adv-x="512" 
 />
    <glyph glyph-name="uni2006" unicode="&#x2006;" horiz-adv-x="342" 
 />
    <glyph glyph-name="uni2007" unicode="&#x2007;" horiz-adv-x="1228" 
 />
    <glyph glyph-name="uni2008" unicode="&#x2008;" horiz-adv-x="339" 
 />
    <glyph glyph-name="uni2009" unicode="&#x2009;" horiz-adv-x="256" 
 />
    <glyph glyph-name="uni200A" unicode="&#x200a;" horiz-adv-x="86" 
 />
    <glyph glyph-name="uni200B" unicode="&#x200b;" 
 />
    <glyph glyph-name="endash" unicode="&#x2013;" horiz-adv-x="1187" 
d="M1106 494h-1024v57h1024v-57z" />
    <glyph glyph-name="emdash" unicode="&#x2014;" horiz-adv-x="2211" 
d="M2130 494h-2048v57h2048v-57z" />
    <glyph glyph-name="quoteleft" unicode="&#x2018;" horiz-adv-x="321" 
d="M156 1247h61v-114h-115v114q0 38 1.5 61.5t7.5 50.5t18 44t33.5 33.5t52.5 27.5v-55q-36 -14 -47.5 -49.5t-11.5 -112.5z" />
    <glyph glyph-name="quoteright" unicode="&#x2019;" horiz-adv-x="309" 
d="M109 1133v55q36 14 47.5 49.5t11.5 112.5h-62v114h115v-114q0 -38 -1.5 -61t-7.5 -50.5t-18 -44.5t-33 -33.5t-52 -27.5z" />
    <glyph glyph-name="quotesinglbase" unicode="&#x201a;" horiz-adv-x="313" 
d="M100 -217v55q36 14 48 49.5t12 112.5h-62v115h115v-115q0 -38 -1.5 -61.5t-7.5 -50.5t-18 -44t-33.5 -33.5t-52.5 -27.5z" />
    <glyph glyph-name="quotedblleft" unicode="&#x201c;" horiz-adv-x="530" 
d="M215 1464v-55q-36 -14 -47.5 -49.5t-11.5 -112.5h61v-114h-115v114q0 38 1.5 61.5t7.5 50.5t18 44t33.5 33.5t52.5 27.5zM365 1247h61v-114h-115v114q0 38 1.5 61.5t7.5 50.5t18 44t33.5 33.5t52.5 27.5v-55q-36 -14 -47.5 -49.5t-11.5 -112.5z" />
    <glyph glyph-name="quotedblright" unicode="&#x201d;" horiz-adv-x="518" 
d="M109 1133v55q36 14 47.5 49.5t11.5 112.5h-62v114h115v-114q0 -38 -1.5 -61t-7.5 -50.5t-18 -44.5t-33 -33.5t-52 -27.5zM317 1133v55q36 14 48 49.5t12 112.5h-62v114h115v-114q0 -38 -1.5 -61.5t-7.5 -50.5t-18 -44t-33.5 -33.5t-52.5 -27.5z" />
    <glyph glyph-name="quotedblbase" unicode="&#x201e;" horiz-adv-x="522" 
d="M100 -217v55q36 14 48 49.5t12 112.5h-62v115h115v-115q0 -38 -1.5 -61.5t-7.5 -50.5t-18 -44t-33.5 -33.5t-52.5 -27.5zM309 -217v55q36 14 48 49.5t12 112.5h-62v115h115v-115q0 -38 -1.5 -61.5t-7.5 -50.5t-18 -44t-33.5 -33.5t-52.5 -27.5z" />
    <glyph glyph-name="dagger" unicode="&#x2020;" horiz-adv-x="956" 
d="M512 -362h-66v1300h-417v57h417v469h66v-469h416v-57h-416v-1300z" />
    <glyph glyph-name="daggerdbl" unicode="&#x2021;" horiz-adv-x="1052" 
d="M553 -362h-66v645h-409v57h409v598h-417v57h417v469h66v-469h416v-57h-416v-598h428v-57h-428v-645z" />
    <glyph glyph-name="bullet" unicode="&#x2022;" horiz-adv-x="585" 
d="M416 492h-246v245h246v-245z" />
    <glyph glyph-name="ellipsis" unicode="&#x2026;" horiz-adv-x="978" 
d="M227 0h-114v115h114v-115zM547 0h-115v115h115v-115zM866 0h-114v115h114v-115z" />
    <glyph glyph-name="perthousand" unicode="&#x2030;" horiz-adv-x="2131" 
d="M344 657q-141 0 -215 106t-74 271t74 271t215 106t214 -106t73 -271t-73 -271t-214 -106zM344 0h-72l838 1403h72zM344 715q49 0 88 18.5t63.5 48.5t40.5 72.5t22.5 86.5t6.5 93q0 63 -11 116.5t-35 101t-69 75t-106 27.5q-62 0 -107 -27.5t-69.5 -75t-35.5 -101
t-11 -116.5t11 -116.5t35.5 -101t69.5 -74.5t107 -27zM1112 -23q-141 0 -215 106t-74 271t74 271t215 106t214 -106t73 -271t-73 -271t-214 -106zM1794 -23q-141 0 -215 106t-74 271t74 271t215 106t214 -106t73 -271t-73 -271t-214 -106zM1112 35q49 0 88 18.5t63.5 48.5
t40.5 72.5t22.5 86.5t6.5 93q0 63 -11 116.5t-35 101t-69 75t-106 27.5q-62 0 -107 -27.5t-69.5 -75t-35.5 -101t-11 -116.5t11 -116.5t35.5 -101t69.5 -74.5t107 -27zM1794 35q49 0 88 18.5t63.5 48.5t40.5 72.5t22.5 86.5t6.5 93q0 63 -11 116.5t-35 101t-69 75t-106 27.5
q-62 0 -107 -27.5t-69.5 -75t-35.5 -101t-11 -116.5t11 -116.5t35.5 -101t69.5 -74.5t107 -27z" />
    <glyph glyph-name="guilsinglleft" unicode="&#x2039;" horiz-adv-x="589" 
d="M469 276v-81l-385 323v82l385 324v-82l-340 -281v-4z" />
    <glyph glyph-name="guilsinglright" unicode="&#x203a;" horiz-adv-x="589" 
d="M506 518l-385 -323v81l340 281v4l-340 281v82l385 -324v-82z" />
    <glyph glyph-name="fraction" unicode="&#x2044;" horiz-adv-x="327" 
d="M-270 0h-66l928 1464h65z" />
    <glyph glyph-name="uni2070" unicode="&#x2070;" horiz-adv-x="745" 
d="M373 741q-101 0 -171.5 59t-103 154t-32.5 217t32.5 217t103 154.5t171.5 59.5q102 0 172.5 -60t102.5 -155t32 -216q0 -120 -32 -215t-102.5 -155t-172.5 -60zM373 793q82 0 138 51.5t80.5 134.5t24.5 192q0 169 -61 274t-182 105t-182.5 -106t-61.5 -273t61.5 -272.5
t182.5 -105.5z" />
    <glyph glyph-name="uni2074" unicode="&#x2074;" horiz-adv-x="665" 
d="M508 745h-55v213h-416v50l416 569h55v-569h125v-50h-125v-213zM453 1495l-355 -487h355v487z" />
    <glyph glyph-name="uni2075" unicode="&#x2075;" horiz-adv-x="653" 
d="M326 733q-132 0 -202.5 70t-72.5 168h55q5 -86 61 -138.5t157 -52.5q98 0 159.5 61.5t61.5 180.5q0 111 -58.5 166t-152.5 55q-68 0 -123 -27.5t-86 -72.5h-57l88 434h405v-47h-360l-68 -320v-2q75 84 211 84q118 0 188 -76t70 -194q0 -132 -75.5 -210.5t-200.5 -78.5z
" />
    <glyph glyph-name="uni2076" unicode="&#x2076;" horiz-adv-x="700" 
d="M365 739q-146 0 -220.5 104t-74.5 298q0 225 78 340.5t227 115.5q99 0 165.5 -59t73.5 -156h-59q-6 75 -53 120.5t-127 45.5q-250 0 -250 -407v-39h2q23 89 94 137.5t152 48.5q121 0 193.5 -75.5t72.5 -196.5t-74.5 -199t-199.5 -78zM365 786q101 0 159 63.5t58 166.5
q0 101 -57 163t-154 62q-90 0 -158 -63.5t-68 -178.5q0 -86 59 -149.5t161 -63.5z" />
    <glyph glyph-name="uni2077" unicode="&#x2077;" horiz-adv-x="581" 
d="M209 745h-57q0 96 18 197.5t55.5 208t103.5 206t154 171.5v2h-481v47h551v-41q-94 -73 -163.5 -173t-107.5 -207.5t-55.5 -209.5t-17.5 -201z" />
    <glyph glyph-name="uni2078" unicode="&#x2078;" horiz-adv-x="710" 
d="M356 743q-123 0 -209 65t-86 179q0 156 172 219v2q-133 57 -133 183q0 97 72 154t184 57q110 0 182 -57t72 -154q0 -123 -131 -183v-2q170 -65 170 -219q0 -114 -86 -179t-207 -65zM356 1231q87 0 142 42.5t55 117.5q0 77 -55 119t-142 42q-89 0 -143.5 -42t-54.5 -119
q0 -75 55 -117.5t143 -42.5zM356 791q101 0 167.5 53.5t66.5 144.5q0 88 -67 141.5t-167 53.5t-167.5 -53.5t-67.5 -141.5q0 -91 67 -144.5t168 -53.5z" />
    <glyph glyph-name="uni2079" unicode="&#x2079;" horiz-adv-x="696" 
d="M324 743q-99 0 -165 58.5t-73 154.5h57q6 -74 55 -119.5t126 -45.5q249 0 249 407v43h-2q-22 -91 -92 -140.5t-153 -49.5q-121 0 -194 75.5t-73 196.5q0 122 75 200.5t200 78.5q146 0 220.5 -104.5t74.5 -297.5q0 -225 -78.5 -341t-226.5 -116zM328 1100q90 0 157.5 62
t67.5 177q0 86 -58.5 149.5t-160.5 63.5q-101 0 -158 -62.5t-57 -164.5t56 -163.5t153 -61.5z" />
    <glyph glyph-name="uni2080" unicode="&#x2080;" horiz-adv-x="745" 
d="M373 -219q-101 0 -171.5 59t-103 154t-32.5 217t32.5 217t103 154t171.5 59q102 0 172.5 -60t102.5 -155t32 -215t-32 -215t-102.5 -155t-172.5 -60zM373 -168q121 0 182 105t61 274t-61 274t-182 105t-182.5 -106t-61.5 -273t61.5 -273t182.5 -106z" />
    <glyph glyph-name="uni2081" unicode="&#x2081;" horiz-adv-x="352" 
d="M190 -205v690q-32 -38 -70.5 -48.5t-99.5 -10.5v47q90 0 132 35t45 119h49v-832h-56z" />
    <glyph glyph-name="uni2082" unicode="&#x2082;" horiz-adv-x="653" 
d="M592 -205h-543q0 216 242 348q121 66 151 88q86 62 94 149q1 11 1 23q0 79 -49.5 134t-139.5 55q-102 0 -161.5 -65.5t-59.5 -161.5h-57q0 114 75 195t205 81q107 0 176.5 -64.5t69.5 -170.5q0 -32 -7.5 -60.5t-17.5 -50t-31.5 -44.5t-36 -36.5t-45.5 -34t-46.5 -30
t-51.5 -29.5q-111 -62 -147 -90q-100 -79 -100 -185v-4h479v-47z" />
    <glyph glyph-name="uni2083" unicode="&#x2083;" horiz-adv-x="696" 
d="M358 -217q-142 0 -224.5 76t-82.5 209h60q0 -108 63 -173t182 -65q104 0 160.5 50t56.5 138q0 90 -59.5 138.5t-136.5 48.5h-90v51h86q73 0 122.5 45.5t49.5 122.5q0 70 -49 119t-140 49q-62 0 -107 -17.5t-68.5 -47.5t-34.5 -64t-11 -74h-57q0 111 72.5 181.5
t205.5 70.5q100 0 173 -59t73 -158q0 -138 -133 -191v-2q82 -25 123 -81t41 -132q0 -112 -75.5 -173.5t-199.5 -61.5z" />
    <glyph glyph-name="uni2084" unicode="&#x2084;" horiz-adv-x="665" 
d="M508 -205h-55v213h-416v49l416 570h55v-570h125v-49h-125v-213zM453 545l-355 -488h355v488z" />
    <glyph glyph-name="uni2085" unicode="&#x2085;" horiz-adv-x="653" 
d="M326 -217q-132 0 -202.5 69.5t-72.5 167.5h55q5 -86 61 -138t157 -52q98 0 159.5 61.5t61.5 180.5q0 111 -58.5 166t-152.5 55q-68 0 -123 -27.5t-86 -72.5h-57l88 434h405v-47h-360l-68 -320v-2q75 84 211 84q118 0 188 -76t70 -194q0 -132 -75.5 -210.5t-200.5 -78.5z
" />
    <glyph glyph-name="uni2086" unicode="&#x2086;" horiz-adv-x="700" 
d="M365 -217q-146 0 -220.5 103.5t-74.5 297.5q0 225 78.5 341t226.5 116q99 0 165.5 -59t73.5 -156h-59q-6 75 -53 120.5t-127 45.5q-128 0 -189 -106.5t-61 -301.5v-39h2q23 90 94.5 138.5t151.5 48.5q120 0 193 -76t73 -197t-74.5 -198.5t-199.5 -77.5zM365 -170
q101 0 159 63t58 166q0 101 -57 163.5t-154 62.5q-90 0 -158 -63.5t-68 -178.5q0 -86 59 -149.5t161 -63.5z" />
    <glyph glyph-name="uni2087" unicode="&#x2087;" horiz-adv-x="581" 
d="M209 -205h-57q0 96 18 197.5t55.5 208t103.5 206t154 171.5v2h-481v47h551v-41q-94 -73 -163.5 -173t-107.5 -207.5t-55.5 -209.5t-17.5 -201z" />
    <glyph glyph-name="uni2088" unicode="&#x2088;" horiz-adv-x="710" 
d="M356 -217q-123 0 -209 65t-86 179q0 156 172 219v2q-133 57 -133 182q0 97 72 154t184 57q110 0 182 -57t72 -154q0 -122 -131 -182v-2q170 -65 170 -219q0 -114 -86 -179t-207 -65zM356 270q87 0 142 42.5t55 117.5q0 77 -55 119.5t-142 42.5q-89 0 -143.5 -42.5
t-54.5 -119.5q0 -75 55 -117.5t143 -42.5zM356 -170q101 0 167.5 54t66.5 145q0 87 -66.5 140.5t-167.5 53.5q-100 0 -167.5 -53t-67.5 -141q0 -91 67 -145t168 -54z" />
    <glyph glyph-name="uni2089" unicode="&#x2089;" horiz-adv-x="696" 
d="M324 -217q-99 0 -165 58.5t-73 154.5h57q6 -74 55 -120t126 -46q249 0 249 408v43h-2q-22 -92 -92 -141.5t-153 -49.5q-121 0 -194 75.5t-73 196.5q0 122 75 200.5t200 78.5q146 0 220.5 -104t74.5 -297q0 -225 -78.5 -341t-226.5 -116zM328 139q90 0 157.5 62.5
t67.5 177.5q0 86 -58.5 149.5t-160.5 63.5q-101 0 -158 -62.5t-57 -164.5t56 -164t153 -62z" />
    <glyph glyph-name="Euro" unicode="&#x20ac;" horiz-adv-x="1318" 
d="M752 35q122 0 213.5 63t137.5 163.5t52 225.5h66q-24 -236 -143 -373t-326 -137q-210 0 -344.5 153t-165.5 419h-133v57h129q-5 78 -5 96q0 20 5 97h-129v57h133q31 266 165 417.5t345 151.5q103 0 187.5 -35.5t141.5 -97.5t92 -141t48 -170h-66q-10 74 -39 141t-77 123
t-122 89.5t-165 33.5q-186 0 -301.5 -137t-143.5 -375h504v-57h-508q-4 -62 -4 -97q0 -34 4 -96h508v-57h-504q28 -239 143.5 -376.5t301.5 -137.5z" />
    <glyph glyph-name="trademark" unicode="&#x2122;" horiz-adv-x="1347" 
d="M315 899h-65v508h-209v57h483v-57h-209v-508zM686 899h-65v565h102l190 -495h2l191 495h102v-565h-65v481h-4l-185 -481h-80l-184 481h-4v-481z" />
    <glyph glyph-name="uni2126" unicode="&#x2126;" horiz-adv-x="1568" 
d="M639 0h-555v57h399q-181 116 -280 295.5t-99 399.5q0 205 82.5 371.5t239.5 265t360 98.5q202 0 358 -98t238 -264t82 -371q0 -220 -98 -400t-281 -297h400v-57h-555v37q105 54 185.5 117.5t145.5 147.5t99.5 194t34.5 241q0 199 -76.5 356.5t-216.5 247t-318 89.5
t-317.5 -89.5t-216 -247t-76.5 -356.5q0 -131 34.5 -241t99.5 -194t145.5 -147.5t185.5 -117.5v-37z" />
    <glyph glyph-name="oneeighth" unicode="&#x215b;" horiz-adv-x="1409" 
d="M221 633v690q-32 -38 -70.5 -48.5t-99.5 -10.5v47q90 0 131.5 34.5t44.5 118.5h49v-831h-55zM166 0h-66l928 1464h66zM1061 -12q-123 0 -209 64.5t-86 178.5q0 82 47 137t125 83v2q-133 57 -133 182q0 97 72 154t184 57q110 0 182 -57t72 -154q0 -122 -131 -182v-2
q170 -65 170 -220q0 -114 -85.5 -178.5t-207.5 -64.5zM1061 475q87 0 141.5 42.5t54.5 117.5q0 77 -55 119.5t-141 42.5q-89 0 -144 -42.5t-55 -119.5q0 -75 55.5 -117.5t143.5 -42.5zM1061 35q101 0 167 53.5t66 144.5q0 88 -66.5 141.5t-166.5 53.5t-168 -53.5t-68 -141.5
q0 -91 67 -144.5t169 -53.5z" />
    <glyph glyph-name="threeeighths" unicode="&#x215c;" horiz-adv-x="1650" 
d="M375 621q-142 0 -224.5 75.5t-82.5 208.5h59q0 -108 63 -172.5t183 -64.5q104 0 160.5 50t56.5 138q0 90 -59.5 138t-137.5 48h-90v52h86q73 0 122.5 45.5t49.5 122.5q0 70 -48.5 119t-139.5 49q-62 0 -107 -17.5t-68.5 -47.5t-34.5 -64t-11 -74h-58q0 110 73 181t206 71
q100 0 172.5 -59t72.5 -158q0 -138 -133 -191v-2q82 -25 123 -81t41 -132q0 -112 -75 -173.5t-199 -61.5zM420 0h-66l928 1464h66zM1294 -12q-123 0 -209 64.5t-86 178.5q0 82 47 137t125 83v2q-133 57 -133 182q0 97 72 154t184 57q110 0 182 -57t72 -154q0 -122 -131 -182
v-2q170 -65 170 -220q0 -114 -85.5 -178.5t-207.5 -64.5zM1294 475q87 0 142 42.5t55 117.5q0 77 -55 119.5t-142 42.5q-89 0 -143.5 -42.5t-54.5 -119.5q0 -75 55 -117.5t143 -42.5zM1294 35q101 0 167.5 53.5t66.5 144.5q0 88 -67 141.5t-167 53.5t-167.5 -53.5
t-67.5 -141.5q0 -91 67 -144.5t168 -53.5z" />
    <glyph glyph-name="fiveeighths" unicode="&#x215d;" horiz-adv-x="1599" 
d="M326 621q-132 0 -202.5 69.5t-72.5 167.5h55q5 -86 61 -138t157 -52q98 0 159.5 61t61.5 180q0 111 -58.5 166t-152.5 55q-68 0 -123 -27.5t-86 -72.5h-57l88 434h405v-47h-360l-68 -319v-2q75 84 211 84q118 0 188 -76.5t70 -194.5q0 -132 -75.5 -210t-200.5 -78zM377 0
h-66l928 1464h66zM1251 -12q-123 0 -209 64.5t-86 178.5q0 82 47 137t125 83v2q-133 57 -133 182q0 97 72 154t184 57q110 0 182 -57t72 -154q0 -122 -131 -182v-2q170 -65 170 -220q0 -114 -85.5 -178.5t-207.5 -64.5zM1251 475q87 0 142 42.5t55 117.5q0 77 -55 119.5
t-142 42.5q-89 0 -143.5 -42.5t-54.5 -119.5q0 -75 55 -117.5t143 -42.5zM1251 35q101 0 167.5 53.5t66.5 144.5q0 88 -67 141.5t-167 53.5t-167.5 -53.5t-67.5 -141.5q0 -91 67 -144.5t168 -53.5z" />
    <glyph glyph-name="seveneighths" unicode="&#x215e;" horiz-adv-x="1480" 
d="M258 633h-57q0 96 18 197.5t55.5 207.5t103.5 205.5t154 171.5v2h-481v47h551v-41q-94 -73 -163.5 -172.5t-107.5 -207t-55.5 -209.5t-17.5 -201zM207 0h-66l928 1464h66zM1122 -12q-123 0 -209 64.5t-86 178.5q0 82 47 137t125 83v2q-133 57 -133 182q0 97 72 154
t184 57q110 0 182 -57t72 -154q0 -122 -131 -182v-2q170 -65 170 -220q0 -114 -85.5 -178.5t-207.5 -64.5zM1122 475q87 0 142 42.5t55 117.5q0 77 -55 119.5t-142 42.5q-89 0 -143.5 -42.5t-54.5 -119.5q0 -75 55 -117.5t143 -42.5zM1122 35q101 0 167.5 53.5t66.5 144.5
q0 88 -67 141.5t-167 53.5t-167.5 -53.5t-67.5 -141.5q0 -91 67 -144.5t168 -53.5z" />
    <glyph glyph-name="arrowleft" unicode="&#x2190;" horiz-adv-x="1601" 
d="M651 147l-43 -43l-512 553l512 553l43 -43l-438 -477h1298v-65h-1298z" />
    <glyph glyph-name="arrowup" unicode="&#x2191;" horiz-adv-x="1183" 
d="M625 0h-66v1298l-477 -438l-43 43l553 512l553 -512l-43 -43l-477 438v-1298z" />
    <glyph glyph-name="arrowright" unicode="&#x2192;" horiz-adv-x="1601" 
d="M1505 657l-512 -553l-43 43l439 478h-1299v65h1299l-439 477l43 43z" />
    <glyph glyph-name="arrowdown" unicode="&#x2193;" horiz-adv-x="1179" 
d="M1143 430l-553 -512l-553 512l43 43l477 -438v1298h66v-1298l477 438z" />
    <glyph glyph-name="arrowboth" unicode="&#x2194;" horiz-adv-x="2308" 
d="M653 147l-43 -43l-512 553l512 553l43 -43l-438 -477h1878l-438 477l43 43l512 -553l-512 -553l-43 43l438 478h-1878z" />
    <glyph glyph-name="arrowupdn" unicode="&#x2195;" horiz-adv-x="1220" 
d="M1163 150l-553 -512l-553 512l43 43l478 -439v1739l-478 -438l-43 43l553 512l553 -512l-43 -43l-477 438v-1739l477 439z" />
    <glyph glyph-name="uni2196" unicode="&#x2196;" horiz-adv-x="1193" 
d="M1135 256l-48 -47l-915 915l2 -645h-63v754h759v-62h-655z" />
    <glyph glyph-name="uni2197" unicode="&#x2197;" horiz-adv-x="1193" 
d="M1022 1124l-916 -915l-47 47l920 915h-655v62h759v-754h-63z" />
    <glyph glyph-name="uni2198" unicode="&#x2198;" horiz-adv-x="1181" 
d="M1075 86h-760v61h656l-920 916l47 47l916 -915l-2 645h63v-754z" />
    <glyph glyph-name="uni2199" unicode="&#x2199;" horiz-adv-x="1181" 
d="M866 86h-760v754h64l-2 -645l915 915l47 -47l-919 -916h655v-61z" />
    <glyph glyph-name="partialdiff" unicode="&#x2202;" horiz-adv-x="1026" 
d="M459 -20q-182 0 -293 124t-111 316q0 229 128.5 381.5t326.5 152.5q129 0 222 -68t134 -184q-7 107 -28.5 196.5t-66.5 176t-111 151.5t-167 114.5t-231 74.5v58q670 -114 670 -869q0 -103 -19 -196t-58 -171.5t-95 -135.5t-133 -89t-168 -32zM459 37q68 0 127.5 22
t102.5 59t76.5 85t53.5 102.5t30.5 107.5t10.5 103q0 159 -93.5 270t-256.5 111q-170 0 -279.5 -135.5t-109.5 -339.5q0 -105 38 -191t116 -140t184 -54z" />
    <glyph glyph-name="emptyset" unicode="&#x2205;" horiz-adv-x="1728" 
d="M1552 1350l-133 -133q195 -205 195 -510q0 -214 -99 -382t-269 -258t-380 -90q-299 0 -510 179l-133 -133l-43 43l133 133q-94 95 -145 225t-51 283q0 214 99 382t269.5 258.5t380.5 90.5q298 0 508 -178l135 135zM182 707q0 -282 174 -465l973 972q-190 166 -463 166
q-146 0 -272.5 -49.5t-217 -137.5t-142.5 -214t-52 -272zM866 35q145 0 271 49t216.5 136t142.5 213t52 274q0 277 -174 464l-975 -972q191 -164 467 -164z" />
    <glyph glyph-name="uni2206" unicode="&#x2206;" horiz-adv-x="1271" 
d="M594 1464h84l559 -1409v-55h-1202v55zM639 1389h-8l-531 -1332h1069z" />
    <glyph glyph-name="product" unicode="&#x220f;" horiz-adv-x="1396" 
d="M233 -205h-65v1669h1061v-1669h-66v1612h-930v-1612z" />
    <glyph glyph-name="summation" unicode="&#x2211;" horiz-adv-x="1146" 
d="M1094 -205h-1035v60l639 809v2l-639 739v59h1024v-57h-942v-2l621 -719v-41l-625 -790v-2h957v-58z" />
    <glyph glyph-name="minus" unicode="&#x2212;" horiz-adv-x="1064" 
d="M958 639h-852v57h852v-57z" />
    <glyph glyph-name="uni2219" unicode="&#x2219;" horiz-adv-x="577" 
d="M346 657h-115v115h115v-115z" />
    <glyph glyph-name="radical" unicode="&#x221a;" horiz-adv-x="1224" 
d="M629 -205h-66l-299 758h-170v57h213l285 -725h2l516 1579h66z" />
    <glyph glyph-name="infinity" unicode="&#x221e;" horiz-adv-x="1517" 
d="M1108 965q145 0 222 -97t77 -245q0 -69 -18 -129.5t-53.5 -108.5t-93 -76t-130.5 -28q-58 0 -109 22t-93.5 64t-75.5 88.5t-68 109.5q-81 -144 -161 -214t-195 -70q-76 0 -135.5 29.5t-94.5 79t-53 109t-18 124.5q0 66 17.5 125.5t52.5 109t94 78.5t135 29
q60 0 113.5 -22t97.5 -64t79 -89t70 -110q38 68 69.5 114t73 88t90.5 62.5t107 20.5zM410 338q99 0 168.5 67.5t152.5 215.5q-36 67 -68 114t-72 88.5t-85.5 62.5t-97.5 21q-61 0 -107.5 -24t-73.5 -65t-40 -90t-13 -105q0 -75 22.5 -137t77.5 -105t136 -43zM1112 338
q79 0 132.5 43t75 105t21.5 137q0 59 -13 109t-39.5 90t-72.5 62.5t-108 22.5q-50 0 -91 -19t-79 -62t-65.5 -86t-69.5 -117q30 -54 53 -91t54 -77t60 -63t65.5 -38.5t76.5 -15.5z" />
    <glyph glyph-name="integral" unicode="&#x222b;" horiz-adv-x="712" 
d="M178 -352q-75 0 -133 20v58q101 -19 133 -19q81 0 114.5 61.5t33.5 227.5v1169q0 80 8.5 137t30.5 106t65.5 74t108.5 25q75 0 133 -20v-57q-95 18 -133 18q-81 0 -114.5 -61.5t-33.5 -227.5v-1169q0 -80 -8.5 -137t-30.5 -106t-65.5 -74t-108.5 -25z" />
    <glyph glyph-name="approxequal" unicode="&#x2248;" horiz-adv-x="1142" 
d="M201 680h-66q7 91 56.5 132.5t140.5 41.5q80 0 244.5 -47t234.5 -47q69 0 100 24.5t37 89.5h66q-7 -91 -57.5 -131.5t-145.5 -40.5q-88 0 -256.5 47.5t-222.5 47.5q-64 0 -94.5 -27.5t-36.5 -89.5zM201 397h-66q7 91 56.5 132.5t140.5 41.5q80 0 244.5 -47t234.5 -47
q69 0 100 25.5t37 91.5h66q-7 -92 -57.5 -133t-145.5 -41q-88 0 -256.5 47t-222.5 47q-65 0 -95 -27t-36 -90z" />
    <glyph glyph-name="notequal" unicode="&#x2260;" horiz-adv-x="1064" 
d="M958 840v-58h-335l-113 -231h448v-57h-475l-118 -246h-68l119 246h-310v57h336l113 231h-449v58h476l120 250h68l-121 -250h309z" />
    <glyph glyph-name="lessequal" unicode="&#x2264;" horiz-adv-x="1026" 
d="M905 324v-66l-801 338v82l801 342v-66l-733 -315v-4zM905 0h-801v57h801v-57z" />
    <glyph glyph-name="greaterequal" unicode="&#x2265;" horiz-adv-x="1024" 
d="M920 606l-799 -346v66l723 313v2l-723 313v66l799 -348v-66zM920 0h-799v57h799v-57z" />
    <glyph glyph-name="uni2266" unicode="&#x2266;" horiz-adv-x="1095" 
d="M973 440v-65l-852 338v82l852 342v-66l-785 -315v-4zM973 289h-852v57h852v-57zM973 0h-852v57h852v-57z" />
    <glyph glyph-name="uni2267" unicode="&#x2267;" horiz-adv-x="1095" 
d="M975 713l-852 -338v65l784 312v4l-784 315v66l852 -342v-82zM975 289h-852v57h852v-57zM975 0h-852v57h852v-57z" />
    <glyph glyph-name="uni2460" unicode="&#x2460;" horiz-adv-x="1732" 
d="M868 -23q-219 0 -392 96t-269 268t-96 390t96 390.5t269 269t392 96.5q163 0 303 -56.5t239 -155.5t155.5 -240t56.5 -304t-56.5 -303.5t-155.5 -239.5t-239 -155t-303 -56zM868 35q201 0 359 88.5t246 247t88 360.5q0 152 -51.5 282t-142.5 221.5t-220 143.5t-279 52
q-151 0 -280.5 -52t-221 -143.5t-143 -221.5t-51.5 -282q0 -202 88.5 -360.5t247 -247t360.5 -88.5zM842 317v691q-32 -38 -71 -49t-99 -11v47q90 0 131.5 35t44.5 119h49v-832h-55z" />
    <glyph glyph-name="uni2461" unicode="&#x2461;" horiz-adv-x="1732" 
d="M868 -23q-219 0 -392 96t-269 268t-96 390t96 390.5t269 269t392 96.5q163 0 303 -56.5t239 -155.5t155.5 -240t56.5 -304t-56.5 -303.5t-155.5 -239.5t-239 -155t-303 -56zM868 35q201 0 359 88.5t246 247t88 360.5q0 152 -51.5 282t-142.5 221.5t-220 143.5t-279 52
q-151 0 -280.5 -52t-221 -143.5t-143 -221.5t-51.5 -282q0 -202 88.5 -360.5t247 -247t360.5 -88.5zM1124 317h-542q0 218 241 349q121 66 151 88q86 62 94 149q1 11 1 23q0 79 -49 133.5t-139 54.5q-102 0 -162 -65.5t-60 -161.5h-57q0 114 75.5 195t205.5 81
q107 0 176 -64.5t69 -170.5q0 -44 -14.5 -82.5t-32.5 -63.5t-55.5 -54t-60.5 -43t-72 -42q-110 -62 -145 -88q-102 -80 -103 -186v-4h479v-48z" />
    <glyph glyph-name="uni2462" unicode="&#x2462;" horiz-adv-x="1732" 
d="M868 -23q-219 0 -392 96t-269 268t-96 390t96 390.5t269 269t392 96.5q163 0 303 -56.5t239 -155.5t155.5 -240t56.5 -304t-56.5 -303.5t-155.5 -239.5t-239 -155t-303 -56zM868 35q201 0 359 88.5t246 247t88 360.5q0 152 -51.5 282t-142.5 221.5t-220 143.5t-279 52
q-151 0 -280.5 -52t-221 -143.5t-143 -221.5t-51.5 -282q0 -202 88.5 -360.5t247 -247t360.5 -88.5zM877 303q-142 0 -225 76t-83 209h60q0 -108 63 -173t182 -65q104 0 161 50.5t57 138.5q0 90 -59.5 138t-137.5 48h-90v51h86q73 0 122.5 45.5t49.5 122.5q0 70 -49 119
t-140 49q-62 0 -107 -17.5t-68.5 -47.5t-34.5 -64t-11 -74h-57q0 111 72.5 181.5t205.5 70.5q100 0 173 -59t73 -158q0 -137 -133 -190v-2q82 -25 123 -81t41 -132q0 -112 -75 -174t-199 -62z" />
    <glyph glyph-name="uni2463" unicode="&#x2463;" horiz-adv-x="1732" 
d="M868 -23q-219 0 -392 96t-269 268t-96 390t96 390.5t269 269t392 96.5q163 0 303 -56.5t239 -155.5t155.5 -240t56.5 -304t-56.5 -303.5t-155.5 -239.5t-239 -155t-303 -56zM868 35q201 0 359 88.5t246 247t88 360.5q0 152 -51.5 282t-142.5 221.5t-220 143.5t-279 52
q-151 0 -280.5 -52t-221 -143.5t-143 -221.5t-51.5 -282q0 -202 88.5 -360.5t247 -247t360.5 -88.5zM983 315h-55v213h-416v50l416 569h55v-569h125v-50h-125v-213zM928 1065l-355 -487h355v487z" />
    <glyph glyph-name="uni2464" unicode="&#x2464;" horiz-adv-x="1732" 
d="M868 -23q-219 0 -392 96t-269 268t-96 390t96 390.5t269 269t392 96.5q163 0 303 -56.5t239 -155.5t155.5 -240t56.5 -304t-56.5 -303.5t-155.5 -239.5t-239 -155t-303 -56zM868 35q201 0 359 88.5t246 247t88 360.5q0 152 -51.5 282t-142.5 221.5t-220 143.5t-279 52
q-151 0 -280.5 -52t-221 -143.5t-143 -221.5t-51.5 -282q0 -202 88.5 -360.5t247 -247t360.5 -88.5zM866 303q-132 0 -202 70t-72 168h55q5 -87 60.5 -139t156.5 -52q98 0 159.5 61.5t61.5 180.5q0 111 -58.5 166t-152.5 55q-68 0 -122.5 -27.5t-85.5 -72.5h-58l88 434h406
v-47h-361l-67 -320v-2q75 84 211 84q118 0 188 -76t70 -194q0 -131 -76 -210t-201 -79z" />
    <glyph glyph-name="uni2465" unicode="&#x2465;" horiz-adv-x="1732" 
d="M868 -23q-219 0 -392 96t-269 268t-96 390t96 390.5t269 269t392 96.5q163 0 303 -56.5t239 -155.5t155.5 -240t56.5 -304t-56.5 -303.5t-155.5 -239.5t-239 -155t-303 -56zM868 35q201 0 359 88.5t246 247t88 360.5q0 152 -51.5 282t-142.5 221.5t-220 143.5t-279 52
q-151 0 -280.5 -52t-221 -143.5t-143 -221.5t-51.5 -282q0 -202 88.5 -360.5t247 -247t360.5 -88.5zM877 303q-146 0 -220.5 104t-74.5 298q0 225 78 340.5t227 115.5q99 0 165.5 -59t73.5 -156h-59q-6 75 -53 120.5t-127 45.5q-250 0 -250 -407v-39h2q23 89 94 137.5
t152 48.5q121 0 193.5 -75.5t72.5 -196.5t-74.5 -199t-199.5 -78zM877 350q101 0 159 63.5t58 166.5q0 101 -57 163t-154 62q-90 0 -158 -63.5t-68 -178.5q0 -86 59 -149.5t161 -63.5z" />
    <glyph glyph-name="uni2466" unicode="&#x2466;" horiz-adv-x="1732" 
d="M868 -23q-219 0 -392 96t-269 268t-96 390t96 390.5t269 269t392 96.5q163 0 303 -56.5t239 -155.5t155.5 -240t56.5 -304t-56.5 -303.5t-155.5 -239.5t-239 -155t-303 -56zM868 35q201 0 359 88.5t246 247t88 360.5q0 152 -51.5 282t-142.5 221.5t-220 143.5t-279 52
q-151 0 -280.5 -52t-221 -143.5t-143 -221.5t-51.5 -282q0 -202 88.5 -360.5t247 -247t360.5 -88.5zM793 293h-58q0 96 18 197.5t55.5 207.5t104 205.5t154.5 171.5v2h-481v47h551v-41q-94 -73 -163.5 -172.5t-107.5 -207t-55.5 -209.5t-17.5 -201z" />
    <glyph glyph-name="uni2467" unicode="&#x2467;" horiz-adv-x="1732" 
d="M868 -23q-219 0 -392 96t-269 268t-96 390t96 390.5t269 269t392 96.5q163 0 303 -56.5t239 -155.5t155.5 -240t56.5 -304t-56.5 -303.5t-155.5 -239.5t-239 -155t-303 -56zM868 35q201 0 359 88.5t246 247t88 360.5q0 152 -51.5 282t-142.5 221.5t-220 143.5t-279 52
q-151 0 -280.5 -52t-221 -143.5t-143 -221.5t-51.5 -282q0 -202 88.5 -360.5t247 -247t360.5 -88.5zM868 303q-123 0 -209 65t-86 179q0 156 172 219v2q-133 57 -133 182q0 97 72 154t184 57q110 0 182 -57t72 -154q0 -122 -131 -182v-2q170 -65 170 -219q0 -114 -86 -179
t-207 -65zM868 791q87 0 142 42t55 117q0 77 -55 119.5t-142 42.5q-89 0 -143.5 -42.5t-54.5 -119.5q0 -75 55 -117t143 -42zM868 350q101 0 167.5 54t66.5 145q0 87 -66.5 140.5t-167.5 53.5q-100 0 -167.5 -53t-67.5 -141q0 -91 67 -145t168 -54z" />
    <glyph glyph-name="uni2468" unicode="&#x2468;" horiz-adv-x="1732" 
d="M868 -23q-219 0 -392 96t-269 268t-96 390t96 390.5t269 269t392 96.5q163 0 303 -56.5t239 -155.5t155.5 -240t56.5 -304t-56.5 -303.5t-155.5 -239.5t-239 -155t-303 -56zM868 35q201 0 359 88.5t246 247t88 360.5q0 152 -51.5 282t-142.5 221.5t-220 143.5t-279 52
q-151 0 -280.5 -52t-221 -143.5t-143 -221.5t-51.5 -282q0 -202 88.5 -360.5t247 -247t360.5 -88.5zM840 303q-99 0 -165 58.5t-73 154.5h57q6 -74 55 -120t126 -46q128 0 189 106.5t61 301.5v43h-3q-22 -92 -92 -141.5t-153 -49.5q-121 0 -194 76t-73 197q0 122 75 200
t200 78q146 0 220.5 -104t74.5 -297q0 -225 -78.5 -341t-226.5 -116zM844 659q90 0 157.5 62.5t67.5 177.5q0 86 -58.5 149.5t-160.5 63.5q-101 0 -158 -62.5t-57 -164.5t56 -164t153 -62z" />
    <glyph glyph-name="uni24EA" unicode="&#x24ea;" horiz-adv-x="1732" 
d="M868 -23q-219 0 -392 96t-269 268t-96 390t96 390.5t269 269t392 96.5q163 0 303 -56.5t239 -155.5t155.5 -240t56.5 -304t-56.5 -303.5t-155.5 -239.5t-239 -155t-303 -56zM868 35q201 0 359 88.5t246 247t88 360.5q0 152 -51.5 282t-142.5 221.5t-220 143.5t-279 52
q-151 0 -280.5 -52t-221 -143.5t-143 -221.5t-51.5 -282q0 -202 88.5 -360.5t247 -247t360.5 -88.5zM866 301q-101 0 -171.5 59t-103 154t-32.5 217t32.5 217t103 154t171.5 59q102 0 173 -60t103 -155t32 -215t-32 -215t-103 -155t-173 -60zM866 352q82 0 138 51.5t81 135
t25 192.5t-25 192.5t-81 135t-138 51.5q-121 0 -182 -105.5t-61 -273.5t61 -273.5t182 -105.5z" />
    <glyph glyph-name="upblock" unicode="&#x2580;" horiz-adv-x="1746" 
d="M1606 731h-1465v733h1465v-733z" />
    <glyph glyph-name="dnblock" unicode="&#x2584;" horiz-adv-x="1751" 
d="M1608 0h-1465v733h1465v-733z" />
    <glyph glyph-name="block" unicode="&#x2588;" horiz-adv-x="1800" 
d="M1632 0h-1464v1464h1464v-1464z" />
    <glyph glyph-name="filledbox" unicode="&#x25a0;" horiz-adv-x="1800" 
d="M1632 0h-1464v1464h1464v-1464z" />
    <glyph glyph-name="uni25A1" unicode="&#x25a1;" horiz-adv-x="1800" 
d="M1632 0h-1464v1464h1464v-1464zM229 1403v-1342h1342v1342h-1342z" />
    <glyph glyph-name="uni25AA" unicode="&#x25aa;" horiz-adv-x="503" 
d="M375 532h-246v246h246v-246z" />
    <glyph glyph-name="uni25AB" unicode="&#x25ab;" horiz-adv-x="655" 
d="M512 471h-369v369h369v-369zM205 778v-246h246v246h-246z" />
    <glyph glyph-name="triagup" unicode="&#x25b2;" horiz-adv-x="1699" 
d="M1669 0h-1638l819 1464z" />
    <glyph glyph-name="triagrt" unicode="&#x25ba;" horiz-adv-x="1736" 
d="M1655 731l-1465 -819v1638z" />
    <glyph glyph-name="triagdn" unicode="&#x25bc;" horiz-adv-x="1699" 
d="M1669 1464l-819 -1464l-819 1464h1638z" />
    <glyph glyph-name="triaglf" unicode="&#x25c4;" horiz-adv-x="1736" 
d="M1546 1550v-1638l-1464 819z" />
    <glyph glyph-name="lozenge" unicode="&#x25ca;" horiz-adv-x="1089" 
d="M588 0h-78l-416 733l412 731h78l411 -731zM160 733l387 -674h2l381 674l-385 672h-2z" />
    <glyph glyph-name="circle" unicode="&#x25cb;" horiz-adv-x="1732" 
d="M868 -23q-219 0 -392 96t-269 268t-96 390t96 390.5t269 269t392 96.5q163 0 303 -56.5t239 -155.5t155.5 -240t56.5 -304t-56.5 -303.5t-155.5 -239.5t-239 -155t-303 -56zM868 35q201 0 359 88.5t246 247t88 360.5q0 152 -51.5 282t-142.5 221.5t-220 143.5t-279 52
q-151 0 -280.5 -52t-221 -143.5t-143 -221.5t-51.5 -282q0 -202 88.5 -360.5t247 -247t360.5 -88.5z" />
    <glyph glyph-name="uni25CF" unicode="&#x25cf;" horiz-adv-x="1730" 
d="M866 -23q-154 0 -294 60t-241 161t-160.5 240.5t-59.5 292.5q0 205 101 379t275 275.5t379 101.5q153 0 293 -60t240.5 -161.5t160.5 -241.5t60 -293t-60 -292.5t-161 -240.5t-240.5 -161t-292.5 -60z" />
    <glyph glyph-name="uni2B0E" unicode="&#x2b0e;" horiz-adv-x="1331" 
d="M725 113l477 438l43 -43l-553 -512l-553 512l43 43l477 -438v870h-602v66h668v-936z" />
    <glyph glyph-name="uni2B0F" unicode="&#x2b0f;" horiz-adv-x="1345" 
d="M150 541l552 512l553 -512l-43 -43l-477 438v-936h-667v66h602v870l-477 -438z" />
    <glyph glyph-name="uni2B10" unicode="&#x2b10;" horiz-adv-x="1341" 
d="M1276 1040v-65h-602v-871l477 439l43 -43l-553 -512l-553 512l43 43l477 -439v936h668z" />
    <glyph glyph-name="uni2B11" unicode="&#x2b11;" horiz-adv-x="1337" 
d="M672 932v-871h602v-65h-668v936l-477 -438l-43 43l553 512l553 -512l-43 -43z" />
    <glyph glyph-name="uni2BA0" unicode="&#x2ba0;" horiz-adv-x="1251" 
d="M1073 553v602h66v-668h-936l438 -477l-43 -43l-512 553l512 553l43 -43l-438 -477h870z" />
    <glyph glyph-name="uni2BA1" unicode="&#x2ba1;" horiz-adv-x="1251" 
d="M610 1036l43 43l512 -553l-512 -553l-43 43l439 478h-936v667h65v-602h871z" />
    <glyph glyph-name="uni2BA2" unicode="&#x2ba2;" horiz-adv-x="1253" 
d="M645 1053l-438 -478h936v-667h-66v602h-870l438 -477l-43 -43l-512 553l512 553z" />
    <glyph glyph-name="uni2BA3" unicode="&#x2ba3;" horiz-adv-x="1253" 
d="M608 1053l43 43l512 -553l-512 -553l-43 43l439 477h-871v-602h-65v667h936z" />
    <glyph glyph-name="uni2BA4" unicode="&#x2ba4;" horiz-adv-x="1337" 
d="M672 932v-871h602v-65h-668v936l-477 -438l-43 43l553 512l553 -512l-43 -43z" />
    <glyph glyph-name="uni2BA5" unicode="&#x2ba5;" horiz-adv-x="1345" 
d="M150 541l552 512l553 -512l-43 -43l-477 438v-936h-667v66h602v870l-477 -438z" />
    <glyph glyph-name="uni2BA6" unicode="&#x2ba6;" horiz-adv-x="1341" 
d="M1276 1040v-65h-602v-871l477 439l43 -43l-553 -512l-553 512l43 43l477 -439v936h668z" />
    <glyph glyph-name="uni2BA7" unicode="&#x2ba7;" horiz-adv-x="1331" 
d="M725 113l477 438l43 -43l-553 -512l-553 512l43 43l477 -438v870h-602v66h668v-936z" />
    <glyph glyph-name="fi" unicode="&#xfb01;" horiz-adv-x="800" 
d="M180 1044v183q0 100 23.5 155t66 75t117.5 20q28 0 82 -7v-51q-54 4 -74 4q-91 0 -122 -39.5t-31 -166.5v-173h227v-53h-227v-991h-62v991h-149v53h149zM580 1266v114h114v-114h-114zM668 0h-62v1044h62v-1044z" />
    <glyph glyph-name="fl" unicode="&#xfb02;" horiz-adv-x="800" 
d="M180 1044v183q0 100 23.5 155t66 75t117.5 20q28 0 82 -7v-51q-54 4 -74 4q-91 0 -122 -39.5t-31 -166.5v-173h227v-53h-227v-991h-62v991h-149v53h149zM606 0v1464h62v-1464h-62z" />
    <glyph glyph-name="uniFEFF" unicode="&#xfeff;" 
 />
    <glyph glyph-name="u1F150" unicode="&#x1f150;" horiz-adv-x="1142" 
d="M571 600q-188 0 -318 128.5t-130 320.5t130 320t318 128q123 0 225.5 -57.5t163 -161t60.5 -229.5t-60.5 -229.5t-163 -161.5t-225.5 -58z" />
    <glyph glyph-name="Adieresis.ss02" horiz-adv-x="1255" 
d="M494 1677q-31 0 -48.5 19t-17.5 47t17.5 46.5t48.5 18.5t49 -19t18 -46q0 -28 -18 -47t-49 -19zM758 1677q-31 0 -48.5 19t-17.5 47t17.5 46.5t48.5 18.5t49 -19t18 -46q0 -28 -18 -47t-49 -19zM94 0h-67l561 1464h76l569 -1464h-72l-188 498h-688zM625 1389l-320 -834
h645l-321 834h-4z" />
    <glyph glyph-name="Cdotaccent.ss02" horiz-adv-x="1396" 
d="M762 1679q-31 0 -48.5 19t-17.5 47t17.5 46.5t48.5 18.5t49 -19t18 -46q0 -28 -18 -47t-49 -19zM745 -23q-191 0 -339.5 93.5t-231 264.5t-82.5 394q0 220 81.5 392.5t232.5 269t348 96.5q225 0 374 -124.5t185 -330.5h-70q-29 175 -158 286.5t-333 111.5
q-181 0 -317.5 -92.5t-206.5 -250.5t-70 -358q0 -201 71.5 -358t205.5 -246.5t310 -89.5q116 0 211 37.5t157.5 103t100.5 149t48 179.5h69q-31 -237 -188 -382t-398 -145z" />
    <glyph glyph-name="Edieresis.ss02" horiz-adv-x="1189" 
d="M526 1677q-31 0 -48 19t-17 47t17 46.5t48 18.5t49.5 -19t18.5 -46t-18.5 -46.5t-49.5 -19.5zM791 1677q-31 0 -48.5 19t-17.5 47t17.5 46.5t48.5 18.5t49 -19t18 -46q0 -28 -18 -47t-49 -19zM1130 0h-962v1464h942v-57h-877v-600h805v-57h-805v-693h897v-57z" />
    <glyph glyph-name="Edotaccent.ss02" horiz-adv-x="1189" 
d="M657 1679q-31 0 -48 19t-17 47t17 46.5t48 18.5t49.5 -19t18.5 -46t-18.5 -46.5t-49.5 -19.5zM1130 0h-962v1464h942v-57h-877v-600h805v-57h-805v-693h897v-57z" />
    <glyph glyph-name="uni0122.ss02" horiz-adv-x="1476" 
d="M758 -23q-160 0 -287.5 57.5t-209.5 159t-125.5 238t-43.5 297.5q0 158 45 295t129.5 240.5t215 163t292.5 59.5q226 0 378.5 -118t190.5 -322h-65q-34 170 -171 276.5t-333 106.5q-150 0 -268.5 -56.5t-192.5 -154t-112.5 -222.5t-38.5 -268q0 -147 37 -271.5
t109 -219.5t187.5 -149t262.5 -54q252 0 397 172t145 461h-507v57h573v-725h-53l-8 387h-5q-39 -177 -180.5 -293.5t-361.5 -116.5zM723 -412v54q70 36 76 129q-41 -7 -61.5 13t-20.5 52q0 29 16.5 48.5t46.5 19.5q68 0 68 -101q0 -73 -34.5 -134t-90.5 -81z" />
    <glyph glyph-name="Gdotaccent.ss02" horiz-adv-x="1476" 
d="M768 1679q-31 0 -48.5 19t-17.5 47t17.5 46.5t48.5 18.5t49.5 -19t18.5 -46t-18.5 -46.5t-49.5 -19.5zM758 -23q-160 0 -287.5 57.5t-209.5 159t-125.5 238t-43.5 297.5q0 158 45 295t129.5 240.5t215 163t292.5 59.5q226 0 378.5 -118t190.5 -322h-65
q-34 170 -171 276.5t-333 106.5q-150 0 -268.5 -56.5t-192.5 -154t-112.5 -222.5t-38.5 -268q0 -147 37 -271.5t109 -219.5t187.5 -149t262.5 -54q252 0 397 172t145 461h-507v57h573v-725h-53l-8 387h-5q-39 -177 -180.5 -293.5t-361.5 -116.5z" />
    <glyph glyph-name="Idieresis.ss02" horiz-adv-x="401" 
d="M68 1677q-31 0 -48.5 19t-17.5 47t17.5 46.5t48.5 18.5t49 -19t18 -46q0 -28 -18 -47t-49 -19zM332 1677q-31 0 -48.5 19t-17.5 47t17.5 46.5t48.5 18.5t49 -19t18 -46q0 -28 -18 -47t-49 -19zM233 0h-65v1464h65v-1464z" />
    <glyph glyph-name="Idotaccent.ss02" horiz-adv-x="401" 
d="M199 1679q-31 0 -48.5 19t-17.5 47t17.5 46.5t48.5 18.5t49 -19t18 -46q0 -28 -18 -47t-49 -19zM233 0h-65v1464h65v-1464z" />
    <glyph glyph-name="uni0136.ss02" horiz-adv-x="1239" 
d="M1214 1464l-598 -630l637 -834h-77l-603 786l-340 -358v-428h-65v1464h65v-952l904 952h77zM659 -96q68 0 68 -101q0 -73 -34.5 -134t-90.5 -81v54q70 36 76 129q-41 -7 -61.5 13t-20.5 52q0 29 16.5 48.5t46.5 19.5z" />
    <glyph glyph-name="uni013B.ss02" horiz-adv-x="1101" 
d="M1073 0h-905v1464h65v-1407h840v-57zM559 -412v54q70 36 76 129q-41 -7 -61.5 13t-20.5 52q0 29 16.5 48.5t46.5 19.5q68 0 68 -101q0 -73 -34.5 -134t-90.5 -81z" />
    <glyph glyph-name="uni0145.ss02" horiz-adv-x="1421" 
d="M233 0h-65v1464h82l934 -1376h4v1376h65v-1464h-82l-933 1372h-5v-1372zM629 -412v54q70 36 76 129q-41 -7 -61.5 13t-20.5 52q0 29 16.5 48.5t46.5 19.5q68 0 68 -101q0 -73 -34.5 -134t-90.5 -81z" />
    <glyph glyph-name="Odieresis.ss02" horiz-adv-x="1527" 
d="M631 1677q-31 0 -48.5 19t-17.5 47t17.5 46.5t48.5 18.5t49 -19t18 -46q0 -28 -18 -47t-49 -19zM895 1677q-31 0 -48.5 19t-17.5 47t17.5 46.5t48.5 18.5t49.5 -19t18.5 -46t-18.5 -46.5t-49.5 -19.5zM764 -23q-198 0 -352 97t-238 269t-84 390t84 389.5t237.5 268
t352.5 96.5t352.5 -96.5t237.5 -268t84 -389.5t-84 -390t-238 -269t-352 -97zM764 35q262 0 433 194t171 504t-171 503.5t-433 193.5t-433 -193.5t-171 -503.5t171 -504t433 -194z" />
    <glyph glyph-name="uni0156.ss02" horiz-adv-x="1280" 
d="M233 0h-65v1464h534q223 0 344 -100t121 -295q0 -312 -288 -393v-4q71 -15 123.5 -58.5t80.5 -101t46 -124t25.5 -130.5t13 -117t14 -88.5t24.5 -40.5v-12h-67q-15 12 -23 55t-13 100t-13.5 124t-31 131.5t-58.5 117t-102.5 85t-156.5 32.5h-508v-645zM233 702h449
q200 0 310 91t110 276q0 173 -100 255.5t-300 82.5h-469v-705zM608 -412v54q70 36 76 129q-41 -7 -61.5 13t-20.5 52q0 29 17 48.5t47 19.5q67 0 67 -101q0 -73 -34.5 -134t-90.5 -81z" />
    <glyph glyph-name="uni0218.ss02" horiz-adv-x="1220" 
d="M657 -23q-122 0 -225.5 30.5t-182.5 90.5t-126.5 155.5t-54.5 217.5h69q13 -210 151 -323t369 -113q203 0 311.5 99.5t110.5 248.5q0 62 -13 110t-43.5 84.5t-69 62.5t-101 47.5t-126 36.5t-155.5 32q-111 20 -189 47.5t-138.5 70.5t-89.5 107t-29 152q0 169 129.5 260.5
t337.5 91.5q220 0 354.5 -108.5t147.5 -305.5h-70q-16 168 -123.5 262t-308.5 94q-182 0 -289.5 -78.5t-107.5 -215.5q0 -48 11 -87.5t28.5 -68.5t49.5 -53t64.5 -40.5t84 -32t97 -25.5t113.5 -23q106 -20 182.5 -43t140 -56.5t102.5 -77.5t60 -104.5t21 -138.5
q0 -174 -132.5 -290t-359.5 -116zM594 -412v54q70 36 76 129q-41 -7 -61.5 13t-20.5 52q0 29 16.5 48.5t46.5 19.5q68 0 68 -101q0 -73 -34.5 -134t-90.5 -81z" />
    <glyph glyph-name="uni021A.ss02" horiz-adv-x="1167" 
d="M616 0h-65v1407h-522v57h1110v-57h-523v-1407zM522 -412v54q70 36 76 129q-41 -7 -61.5 13t-20.5 52q0 29 17 48.5t47 19.5q67 0 67 -101q0 -73 -34.5 -134t-90.5 -81z" />
    <glyph glyph-name="Udieresis.ss02" horiz-adv-x="1363" 
d="M549 1677q-31 0 -48.5 19t-17.5 47t17.5 46.5t48.5 18.5t49 -19t18 -46q0 -28 -18 -47t-49 -19zM813 1677q-31 0 -48 19t-17 47t17 46.5t48 18.5t49.5 -19t18.5 -46t-18.5 -46.5t-49.5 -19.5zM682 -23q-526 0 -526 531v956h65v-956q0 -239 114.5 -356t346.5 -117
t346.5 117t114.5 356v956h65v-956q0 -531 -526 -531z" />
    <glyph glyph-name="Wdieresis.ss02" horiz-adv-x="1765" 
d="M750 1677q-31 0 -48.5 19t-17.5 47t17.5 46.5t48.5 18.5t49 -19t18 -46q0 -28 -18 -47t-49 -19zM1014 1677q-31 0 -48.5 19t-17.5 47t17.5 46.5t48.5 18.5t49 -19t18 -46q0 -28 -18 -47t-49 -19zM492 0h-72l-379 1464h68l350 -1372h4l381 1372h78l383 -1372h6l348 1372
h65l-378 -1464h-72l-387 1364h-8z" />
    <glyph glyph-name="Ydieresis.ss02" horiz-adv-x="1214" 
d="M475 1677q-31 0 -48 19t-17 47t17 46.5t48 18.5t49.5 -19t18.5 -46t-18.5 -46.5t-49.5 -19.5zM739 1677q-31 0 -48 19t-17 47t17 46.5t48 18.5t49.5 -19t18.5 -46t-18.5 -46.5t-49.5 -19.5zM639 0h-66v600l-538 864h76l493 -802h8l498 802h72l-543 -864v-600z" />
    <glyph glyph-name="Zdotaccent.ss02" horiz-adv-x="1138" 
d="M584 1679q-31 0 -48.5 19t-17.5 47t17.5 46.5t48.5 18.5t49 -19t18 -46q0 -28 -18 -47t-49 -19zM1106 0h-1081v57l979 1346v4h-941v57h1024v-57l-981 -1346v-4h1000v-57z" />
    <glyph glyph-name="i.latn_TRK" horiz-adv-x="327" 
d="M221 1266h-115v114h115v-114zM195 0h-62v1044h62v-1044z" />
    <glyph glyph-name="a.ss01" horiz-adv-x="1118" 
d="M924 770v274h61v-1044h-61v262h-4q-48 -124 -153.5 -204.5t-258.5 -80.5q-185 0 -309.5 147.5t-124.5 397.5q0 246 125 392.5t311 146.5q153 0 257 -80t153 -211h4zM522 31q81 0 153.5 34t128 96t88 155.5t32.5 205.5q0 219 -117.5 352.5t-284.5 133.5
q-170 0 -276.5 -131.5t-106.5 -354.5q0 -227 106.5 -359t276.5 -132z" />
    <glyph glyph-name="aacute.ss01" horiz-adv-x="1118" 
d="M651 1485h84l-155 -260h-60zM924 770v274h61v-1044h-61v262h-4q-48 -124 -153.5 -204.5t-258.5 -80.5q-185 0 -309.5 147.5t-124.5 397.5q0 246 125 392.5t311 146.5q153 0 257 -80t153 -211h4zM522 31q81 0 153.5 34t128 96t88 155.5t32.5 205.5q0 219 -117.5 352.5
t-284.5 133.5q-170 0 -276.5 -131.5t-106.5 -354.5q0 -227 106.5 -359t276.5 -132z" />
    <glyph glyph-name="abreve.ss01" horiz-adv-x="1118" 
d="M545 1235q-102 0 -167 66t-71 163h58q12 -74 57.5 -125t122.5 -51q78 0 124 50.5t58 125.5h57q-6 -98 -70.5 -163.5t-168.5 -65.5zM924 770v274h61v-1044h-61v262h-4q-48 -124 -153.5 -204.5t-258.5 -80.5q-185 0 -309.5 147.5t-124.5 397.5q0 246 125 392.5t311 146.5
q153 0 257 -80t153 -211h4zM522 31q81 0 153.5 34t128 96t88 155.5t32.5 205.5q0 219 -117.5 352.5t-284.5 133.5q-170 0 -276.5 -131.5t-106.5 -354.5q0 -227 106.5 -359t276.5 -132z" />
    <glyph glyph-name="acircumflex.ss01" horiz-adv-x="1118" 
d="M547 1438h-2l-135 -201h-80l180 248h76l178 -248h-82zM924 770v274h61v-1044h-61v262h-4q-48 -124 -153.5 -204.5t-258.5 -80.5q-185 0 -309.5 147.5t-124.5 397.5q0 246 125 392.5t311 146.5q153 0 257 -80t153 -211h4zM522 31q81 0 153.5 34t128 96t88 155.5
t32.5 205.5q0 219 -117.5 352.5t-284.5 133.5q-170 0 -276.5 -131.5t-106.5 -354.5q0 -227 106.5 -359t276.5 -132z" />
    <glyph glyph-name="adieresis.ss01" horiz-adv-x="1118" 
d="M356 1380h115v-114h-115v114zM623 1380h114v-114h-114v114zM924 770v274h61v-1044h-61v262h-4q-48 -124 -153.5 -204.5t-258.5 -80.5q-185 0 -309.5 147.5t-124.5 397.5q0 246 125 392.5t311 146.5q153 0 257 -80t153 -211h4zM522 31q81 0 153.5 34t128 96t88 155.5
t32.5 205.5q0 219 -117.5 352.5t-284.5 133.5q-170 0 -276.5 -131.5t-106.5 -354.5q0 -227 106.5 -359t276.5 -132z" />
    <glyph glyph-name="agrave.ss01" horiz-adv-x="1118" 
d="M436 1485l131 -260h-59l-156 260h84zM924 770v274h61v-1044h-61v262h-4q-48 -124 -153.5 -204.5t-258.5 -80.5q-185 0 -309.5 147.5t-124.5 397.5q0 246 125 392.5t311 146.5q153 0 257 -80t153 -211h4zM522 31q81 0 153.5 34t128 96t88 155.5t32.5 205.5
q0 219 -117.5 352.5t-284.5 133.5q-170 0 -276.5 -131.5t-106.5 -354.5q0 -227 106.5 -359t276.5 -132z" />
    <glyph glyph-name="amacron.ss01" horiz-adv-x="1118" 
d="M313 1358h467v-58h-467v58zM924 770v274h61v-1044h-61v262h-4q-48 -124 -153.5 -204.5t-258.5 -80.5q-185 0 -309.5 147.5t-124.5 397.5q0 246 125 392.5t311 146.5q153 0 257 -80t153 -211h4zM522 31q81 0 153.5 34t128 96t88 155.5t32.5 205.5q0 219 -117.5 352.5
t-284.5 133.5q-170 0 -276.5 -131.5t-106.5 -354.5q0 -227 106.5 -359t276.5 -132z" />
    <glyph glyph-name="aogonek.ss01" horiz-adv-x="1118" 
d="M938 -303q55 0 106 20v-49q-46 -22 -110 -22q-92 0 -139 42t-47 111q0 61 51 113.5t125 87.5v262h-4q-48 -124 -153.5 -204.5t-258.5 -80.5q-185 0 -309.5 147.5t-124.5 397.5q0 246 125 392.5t311 146.5q153 0 257 -80t153 -211h4v274h61v-1044q-89 -49 -131.5 -96
t-42.5 -103q0 -47 32 -75.5t95 -28.5zM522 31q81 0 153.5 34t128 96t88 155.5t32.5 205.5q0 219 -117.5 352.5t-284.5 133.5q-170 0 -276.5 -131.5t-106.5 -354.5q0 -227 106.5 -359t276.5 -132z" />
    <glyph glyph-name="aring.ss01" horiz-adv-x="1118" 
d="M545 1153q-72 0 -120 46t-48 118t48 118t120 46t120 -46t48 -118t-48 -118t-120 -46zM545 1432q-54 0 -84.5 -31.5t-30.5 -83.5t30.5 -83.5t84.5 -31.5t84 31.5t30 83.5t-30 83.5t-84 31.5zM924 770v274h61v-1044h-61v262h-4q-48 -124 -153.5 -204.5t-258.5 -80.5
q-185 0 -309.5 147.5t-124.5 397.5q0 246 125 392.5t311 146.5q153 0 257 -80t153 -211h4zM522 31q81 0 153.5 34t128 96t88 155.5t32.5 205.5q0 219 -117.5 352.5t-284.5 133.5q-170 0 -276.5 -131.5t-106.5 -354.5q0 -227 106.5 -359t276.5 -132z" />
    <glyph glyph-name="atilde.ss01" horiz-adv-x="1118" 
d="M414 1323q-67 0 -76 -109h-62q4 79 40.5 120.5t97.5 41.5q48 0 97 -27t92 -54t75 -27q67 0 76 108h61q-4 -80 -40 -121t-97 -41q-46 0 -95 27t-92.5 54.5t-76.5 27.5zM924 770v274h61v-1044h-61v262h-4q-48 -124 -153.5 -204.5t-258.5 -80.5q-185 0 -309.5 147.5
t-124.5 397.5q0 246 125 392.5t311 146.5q153 0 257 -80t153 -211h4zM522 31q81 0 153.5 34t128 96t88 155.5t32.5 205.5q0 219 -117.5 352.5t-284.5 133.5q-170 0 -276.5 -131.5t-106.5 -354.5q0 -227 106.5 -359t276.5 -132z" />
    <glyph glyph-name="adieresis.ss02" horiz-adv-x="1019" 
d="M379 1257q-31 0 -48.5 19t-17.5 47t17.5 47t48.5 19t49 -19t18 -47t-18 -47t-49 -19zM643 1257q-31 0 -48 19t-17 47t17 47t48 19t49.5 -19.5t18.5 -46.5t-18.5 -46.5t-49.5 -19.5zM412 -23q-152 0 -245 76t-93 203q0 141 92.5 212.5t300.5 104.5q21 3 59 8.5t60 8.5
t55 10t52.5 15.5t42.5 22.5t35.5 32t21 44.5t8.5 59.5q0 114 -78 174t-205 60q-155 0 -238.5 -68.5t-91.5 -189.5h-65q3 46 16 88t42.5 84t72.5 72t111 48.5t153 18.5q74 0 134 -16.5t108.5 -52.5t75 -99.5t26.5 -149.5v-571q0 -69 14.5 -96t57.5 -27q11 0 39 4v-53
q-28 -4 -47 -4q-64 0 -94.5 37t-30.5 135h-4q-119 -191 -385 -191zM428 31q92 0 165.5 29t117.5 77t67 105.5t23 119.5v265q-21 -46 -98 -68.5t-216 -38.5q-64 -8 -114 -19.5t-95 -31t-74.5 -45.5t-47 -64t-17.5 -86q0 -121 73.5 -182t215.5 -61z" />
    <glyph glyph-name="cdotaccent.ss02" horiz-adv-x="1048" 
d="M561 1262q-31 0 -48 18.5t-17 46.5t17 47t48 19t49.5 -19.5t18.5 -46.5t-18.5 -46t-49.5 -19zM563 -25q-217 0 -353 150.5t-136 394.5q0 241 136 391t353 150q175 0 290.5 -104t133.5 -255h-65q-3 48 -27 99.5t-66 98.5t-112 77.5t-154 30.5q-100 0 -182 -40.5t-134 -109
t-80 -155.5t-28 -183q0 -97 28 -185t80 -156.5t134 -109t182 -40.5q85 0 154.5 30t112 77.5t66 100.5t26.5 105h65q-11 -153 -128.5 -260t-295.5 -107z" />
    <glyph glyph-name="edieresis.ss02" horiz-adv-x="1062" 
d="M416 1260q-31 0 -48.5 18.5t-17.5 46.5t17.5 47t48.5 19t49 -19t18 -47q0 -27 -18 -46t-49 -19zM680 1260q-31 0 -48.5 18.5t-17.5 46.5t17.5 47t48.5 19t49.5 -19.5t18.5 -46.5t-18.5 -46t-49.5 -19zM991 532h-852v-12q0 -103 26 -191t76 -155.5t129.5 -106t180.5 -38.5
q87 0 155 27.5t109 72.5t64 90.5t34 93.5h66q-37 -148 -146 -243t-284 -95q-219 0 -347 149.5t-128 391.5q0 249 131.5 397t347.5 148q105 0 189.5 -37t138.5 -102t83 -151t29 -185q0 -36 -2 -54zM549 1008q-93 0 -170 -34.5t-127.5 -93t-79.5 -134t-33 -160.5h789
q0 85 -22.5 159.5t-67.5 134t-119 94t-170 34.5z" />
    <glyph glyph-name="edotaccent.ss02" horiz-adv-x="1062" 
d="M547 1262q-31 0 -48.5 18.5t-17.5 46.5t17.5 47t48.5 19t49 -19t18 -47q0 -27 -18 -46t-49 -19zM991 532h-852v-12q0 -103 26 -191t76 -155.5t129.5 -106t180.5 -38.5q87 0 155 27.5t109 72.5t64 90.5t34 93.5h66q-37 -148 -146 -243t-284 -95q-219 0 -347 149.5
t-128 391.5q0 249 131.5 397t347.5 148q105 0 189.5 -37t138.5 -102t83 -151t29 -185q0 -36 -2 -54zM549 1008q-93 0 -170 -34.5t-127.5 -93t-79.5 -134t-33 -160.5h789q0 85 -22.5 159.5t-67.5 134t-119 94t-170 34.5z" />
    <glyph glyph-name="uni0123.ss02" horiz-adv-x="1114" 
d="M559 1251q-72 0 -72 95q0 64 31 112t84 70v-51q-29 -11 -48 -43.5t-19 -75.5q33 8 56 -5.5t23 -45.5q0 -26 -15 -41t-40 -15zM922 799v248h61v-990q0 -215 -118.5 -323.5t-327.5 -108.5q-191 0 -304.5 85.5t-126.5 211.5h62q19 -104 112.5 -174t260.5 -70
q178 0 279.5 89.5t101.5 267.5v262h-4q-45 -115 -152 -185.5t-244 -70.5q-88 0 -166.5 31.5t-141 92.5t-99.5 162t-37 230q0 125 37 223.5t99.5 158.5t141 91t166.5 31q138 0 244 -70t152 -192h4zM537 94q71 0 137.5 28.5t123 83t90.5 145.5t34 206q0 110 -34 199
t-90.5 142.5t-123.5 81.5t-137 28q-82 0 -152.5 -28t-125 -82t-85.5 -141.5t-31 -199.5q0 -116 31 -206.5t85.5 -145.5t125 -83t152.5 -28z" />
    <glyph glyph-name="gdotaccent.ss02" horiz-adv-x="1114" 
d="M549 1260q-31 0 -48.5 18.5t-17.5 46.5t17.5 47t48.5 19t49 -19t18 -47q0 -27 -18 -46t-49 -19zM922 799v248h61v-990q0 -215 -118.5 -323.5t-327.5 -108.5q-191 0 -304.5 85.5t-126.5 211.5h62q19 -104 112.5 -174t260.5 -70q178 0 279.5 89.5t101.5 267.5v262h-4
q-45 -115 -152 -185.5t-244 -70.5q-88 0 -166.5 31.5t-141 92.5t-99.5 162t-37 230q0 125 37 223.5t99.5 158.5t141 91t166.5 31q138 0 244 -70t152 -192h4zM537 94q71 0 137.5 28.5t123 83t90.5 145.5t34 206q0 110 -34 199t-90.5 142.5t-123.5 81.5t-137 28
q-82 0 -152.5 -28t-125 -82t-85.5 -141.5t-31 -199.5q0 -116 31 -206.5t85.5 -145.5t125 -83t152.5 -28z" />
    <glyph glyph-name="i.ss02" horiz-adv-x="327" 
d="M164 1260q-31 0 -48.5 18.5t-17.5 46.5t17.5 47t48.5 19t49 -19t18 -47q0 -27 -18 -46t-49 -19zM195 0h-62v1044h62v-1044z" />
    <glyph glyph-name="idieresis.ss02" horiz-adv-x="327" 
d="M31 1257q-31 0 -48.5 19t-17.5 47t17.5 47t48.5 19t49 -19t18 -47t-18 -47t-49 -19zM295 1257q-31 0 -48.5 19t-17.5 47t17.5 47t48.5 19t49 -19t18 -47t-18 -47t-49 -19zM195 0h-62v1044h62v-1044z" />
    <glyph glyph-name="iogonek.ss02" horiz-adv-x="327" 
d="M162 1260q-31 0 -48.5 18.5t-17.5 46.5t17.5 47t48.5 19t49 -19t18 -47q0 -27 -18 -46t-49 -19zM147 -301q56 0 107 20v-49q-46 -22 -111 -22q-92 0 -139 42t-47 111q0 61 51 113.5t125 87.5v1042h62v-1044h-5q-87 -49 -128.5 -95.5t-41.5 -101.5q0 -47 32 -75.5
t95 -28.5z" />
    <glyph glyph-name="j.ss02" horiz-adv-x="327" 
d="M162 1260q-31 0 -48.5 18.5t-17.5 46.5t17.5 47t48.5 19t49 -19t18 -47q0 -27 -18 -46t-49 -19zM41 -369q-31 0 -82 7v51q50 -4 68 -4q59 0 82.5 35.5t23.5 132.5v1191h62v-1185q0 -125 -40.5 -176.5t-113.5 -51.5z" />
    <glyph glyph-name="uni0137.ss02" horiz-adv-x="917" 
d="M872 1044l-413 -395l485 -649h-76l-452 610l-221 -211v-399h-62v1464h62v-993l591 573h86zM500 -96q67 0 67 -101q0 -73 -34.5 -134t-90.5 -81v54q70 36 76 129q-41 -7 -61.5 13t-20.5 52q0 29 17 48.5t47 19.5z" />
    <glyph glyph-name="uni013C.ss02" horiz-adv-x="327" 
d="M195 0h-62v1464h62v-1464zM102 -412v54q70 36 76 129q-41 -7 -61.5 13t-20.5 52q0 29 17 48.5t47 19.5q67 0 67 -101q0 -73 -34.5 -134t-90.5 -81z" />
    <glyph glyph-name="uni0146.ss02" horiz-adv-x="1034" 
d="M588 1061q140 0 230.5 -83t90.5 -237v-741h-61v741q0 52 -12.5 96t-41.5 84.5t-85.5 63.5t-135.5 23q-82 0 -155 -32.5t-120.5 -82.5t-75 -107t-27.5 -108v-678h-62v1044h62v-204h4q127 221 389 221zM518 -96q68 0 68 -101q0 -73 -34.5 -134t-90.5 -81v54q70 36 76 129
q-41 -7 -61.5 13t-20.5 52q0 29 16.5 48.5t46.5 19.5z" />
    <glyph glyph-name="odieresis.ss02" horiz-adv-x="1110" 
d="M422 1257q-31 0 -48.5 19t-17.5 47t17.5 47t48.5 19t49 -19t18 -47t-18 -47t-49 -19zM686 1257q-31 0 -48 19t-17 47t17 47t48 19t49.5 -19.5t18.5 -46.5t-18.5 -46.5t-49.5 -19.5zM555 -25q-222 0 -351.5 149.5t-129.5 393.5t129.5 393.5t351.5 149.5t351.5 -149.5
t129.5 -393.5t-129.5 -393.5t-351.5 -149.5zM555 29q196 0 306 136t110 353t-110 353.5t-306 136.5t-306 -136.5t-110 -353.5t110 -353t306 -136z" />
    <glyph glyph-name="uni0157.ss02" horiz-adv-x="608" 
d="M516 1059q46 0 76 -6v-54q-35 5 -55 5q-139 0 -240.5 -102t-101.5 -257v-645h-62v1044h62v-225h4q34 104 122 172t195 68zM160 -96q67 0 67 -101q0 -73 -34.5 -134t-90.5 -81v54q70 36 76 129q-41 -7 -61.5 13t-20.5 52q0 29 17 48.5t47 19.5z" />
    <glyph glyph-name="uni0219.ss02" horiz-adv-x="935" 
d="M492 -23q-197 0 -314.5 100t-122.5 249h66q6 -135 106.5 -215t270.5 -80q147 0 230 66t83 179q0 33 -8.5 60.5t-20.5 47.5t-36 38t-43 28.5t-55 23.5t-58 19l-66 18t-67 19q-47 14 -70 21t-62 20t-58.5 21.5t-49.5 23t-44.5 27.5t-33 31t-27 37.5t-14.5 44.5t-6 53
q0 117 90 184.5t258 67.5q99 0 174 -24.5t120 -67.5t70.5 -92.5t35.5 -108.5h-66q-8 39 -22.5 72t-41.5 64.5t-63 54t-89.5 36t-119.5 13.5q-124 0 -202 -47.5t-78 -143.5q0 -42 17 -74.5t41 -53t70 -40t82.5 -30.5t99.5 -28q23 -6 34 -9q77 -21 126 -37.5t101.5 -42t81 -54
t47.5 -71t19 -96.5q0 -137 -103.5 -220.5t-281.5 -83.5zM451 -412v54q69 35 75 129q-41 -7 -61.5 13t-20.5 52q0 29 17 48.5t47 19.5q67 0 67 -101q0 -74 -34 -134.5t-90 -80.5z" />
    <glyph glyph-name="uni021B.ss02" horiz-adv-x="501" 
d="M465 1044v-53h-232v-735q0 -127 33 -167t131 -40q18 0 68 4v-51q-43 -6 -76 -6q-119 0 -168 51.5t-49 198.5v745h-154v53h154v349h61v-349h232zM352 -72q68 0 68 -100q0 -73 -34.5 -134t-90.5 -81v53q70 36 76 129q-41 -7 -61.5 13.5t-20.5 52.5q0 29 16.5 48t46.5 19z
" />
    <glyph glyph-name="udieresis.ss02" horiz-adv-x="1034" 
d="M375 1257q-31 0 -48.5 19t-17.5 47t17.5 47t48.5 19t49 -19t18 -47t-18 -47t-49 -19zM639 1257q-31 0 -48.5 19t-17.5 47t17.5 47t48.5 19t49.5 -19.5t18.5 -46.5t-18.5 -46.5t-49.5 -19.5zM840 367v677h61v-1044h-61v199h-4q-128 -215 -390 -215q-140 0 -230.5 82.5
t-90.5 236.5v741h61v-741q0 -52 12.5 -96t41.5 -84t85.5 -63t135.5 -23q82 0 155 32.5t121 82.5t75.5 107t27.5 108z" />
    <glyph glyph-name="wdieresis.ss02" horiz-adv-x="1454" 
d="M594 1257q-31 0 -48.5 19t-17.5 47t17.5 47t48.5 19t49.5 -19.5t18.5 -46.5t-18.5 -46.5t-49.5 -19.5zM858 1257q-31 0 -48 19t-17 47t17 47t48 19t49.5 -19.5t18.5 -46.5t-18.5 -46.5t-49.5 -19.5zM446 0h-81l-332 1044h63l307 -968h5l276 968h82l281 -968h4l307 968h63
l-331 -1044h-82l-281 965h-4z" />
    <glyph glyph-name="ydieresis.ss02" horiz-adv-x="929" 
d="M328 1257q-31 0 -48.5 19t-17.5 47t17.5 47t48.5 19t49 -19t18 -47t-18 -47t-49 -19zM592 1257q-31 0 -48.5 19t-17.5 47t17.5 47t48.5 19t49 -19t18 -47t-18 -47t-49 -19zM184 -367q-21 0 -82 7v53q50 -4 80 -4q90 0 140.5 65t115.5 242l-418 1048h66l381 -960h2
l367 960h65l-412 -1073q-75 -194 -138.5 -266t-166.5 -72z" />
    <glyph glyph-name="zdotaccent.ss02" horiz-adv-x="851" 
d="M422 1260q-31 0 -48.5 18.5t-17.5 46.5t17.5 47t48.5 19t49 -19t18 -47q0 -27 -18 -46t-49 -19zM819 0h-790v53l692 934v4h-660v53h738v-53l-693 -934v-4h713v-53z" />
    <glyph glyph-name="i.latn_TRK.ss02" horiz-adv-x="327" 
d="M164 1260q-31 0 -48.5 18.5t-17.5 46.5t17.5 47t48.5 19t49 -19t18 -47q0 -27 -18 -46t-49 -19zM195 0h-62v1044h62v-1044z" />
    <glyph glyph-name="adieresis.ss01.ss02" horiz-adv-x="1118" 
d="M414 1257q-31 0 -48.5 19t-17.5 47t17.5 47t48.5 19t49 -19t18 -47t-18 -47t-49 -19zM678 1257q-31 0 -48.5 19t-17.5 47t17.5 47t48.5 19t49 -19t18 -47t-18 -47t-49 -19zM924 770v274h61v-1044h-61v262h-4q-48 -124 -153.5 -204.5t-258.5 -80.5q-185 0 -309.5 147.5
t-124.5 397.5q0 246 125 392.5t311 146.5q153 0 257 -80t153 -211h4zM522 31q81 0 153.5 34t128 96t88 155.5t32.5 205.5q0 219 -117.5 352.5t-284.5 133.5q-170 0 -276.5 -131.5t-106.5 -354.5q0 -227 106.5 -359t276.5 -132z" />
    <glyph glyph-name="s_s" horiz-adv-x="1857" 
d="M498 -23q-204 0 -320.5 98.5t-122.5 250.5h66q6 -128 108 -211.5t269 -83.5q146 0 229.5 66t83.5 177q0 33 -9 61t-20 47.5t-36.5 38.5t-42.5 29.5t-56 24t-58 19t-66.5 18.5t-65.5 18q-60 17 -100.5 30.5t-86.5 32.5t-75 40.5t-54 49.5t-37 64t-12 80q0 111 78 172.5
t229 61.5q199 0 328 -119t250 -407q34 -81 54 -126t51 -107t55.5 -95.5t60.5 -72.5t72.5 -58t84 -32t103.5 -13q135 0 205 63.5t70 171.5q0 28 -5.5 52t-13 43t-23 36t-29 29t-37 23.5t-41 19t-47.5 17t-49.5 15t-54.5 14.5t-55 15q-57 16 -89 26t-76.5 26t-69 29.5
t-53 34.5t-42.5 43.5t-24 53t-10 66.5q0 117 90.5 184.5t257.5 67.5q99 0 174 -24.5t120 -67.5t70 -92.5t35 -108.5h-65q-8 39 -22.5 72t-41.5 64.5t-63 54t-89.5 36t-119.5 13.5q-124 0 -202.5 -47.5t-78.5 -143.5q0 -42 17 -74.5t41 -53t70 -40t82.5 -30.5t99.5 -28
q23 -6 34 -9q66 -17 108.5 -30.5t90 -33.5t76 -42t53.5 -52.5t36 -70t11 -89.5q0 -132 -85 -209.5t-253 -77.5q-91 0 -163 27.5t-119.5 65.5t-98 121t-79.5 147.5t-82 191.5q-110 265 -232.5 371.5t-288.5 106.5q-109 0 -174 -42t-65 -132q0 -26 6 -48.5t15 -41t27 -35
t33.5 -28.5t43.5 -25t48 -21.5t56 -19.5t58.5 -17.5t64.5 -17.5q74 -20 124 -37t100 -42.5t78.5 -55.5t46.5 -73t18 -98q0 -137 -98.5 -217t-280.5 -80z" />
    <glyph glyph-name="w_w_w" horiz-adv-x="4149" 
d="M3746 76l307 968h63l-331 -1044h-82l-281 965h-4l-276 -965h-82l-312 981l-311 -981h-82l-280 965h-4l-277 -965h-82l-311 981l-311 -981h-82l-281 965h-4l-277 -965h-81l-332 1044h63l307 -968h5l276 968h82l281 -968h4l307 968h86l307 -968h4l277 968h82l280 -968h4
l307 968h86l308 -968h4l276 968h82l281 -968h4z" />
    <glyph glyph-name="f_f_i.ss02" horiz-adv-x="1230" 
d="M242 0h-62v991h-149v53h149v183q0 100 23.5 155t66 75t117.5 20q28 0 82 -7v-51q-54 4 -74 4q-91 0 -122 -39.5t-31 -166.5v-173h376v183q0 100 23.5 155t66 75t117.5 20q28 0 82 -7v-51q-54 4 -73 4q-62 0 -93.5 -16t-46 -59.5t-14.5 -130.5v-173h227v-53h-227v-991h-62
v991h-376v-991zM1067 1260q-31 0 -48.5 18.5t-17.5 46.5t17.5 47t48.5 19t49.5 -19.5t18.5 -46.5t-18.5 -46t-49.5 -19zM1098 0h-62v1044h62v-1044z" />
    <glyph glyph-name="f_i.ss02" horiz-adv-x="794" 
d="M180 1044v183q0 100 23.5 155t66 75t117.5 20q28 0 82 -7v-51q-54 4 -74 4q-91 0 -122 -39.5t-31 -166.5v-173h227v-53h-227v-991h-62v991h-149v53h149zM631 1391q31 0 49 -19t18 -47q0 -27 -18 -46t-49 -19t-48.5 18.5t-17.5 46.5t17.5 47t48.5 19zM662 0h-62v1044h62
v-1044z" />
    <glyph glyph-name="zero.zero" horiz-adv-x="1222" 
d="M612 1438q126 0 224.5 -57.5t159 -158.5t91.5 -231.5t31 -283.5q0 -122 -19 -230t-59.5 -200t-99.5 -158.5t-143 -104t-185 -37.5q-126 0 -224.5 57t-159.5 158t-92.5 231.5t-31.5 283.5t31.5 284t92.5 231.5t159.5 158t224.5 57.5zM174 707q0 -191 48.5 -342.5
t142.5 -237.5l479 1176q-99 77 -232 77q-110 0 -195 -52t-137.5 -145t-79 -213t-26.5 -263zM612 35q110 0 195 52t137 144.5t78.5 212.5t26.5 263q0 174 -40 316.5t-118 233.5l-475 -1169q83 -53 196 -53z" />
    <glyph glyph-name="zero.slash" horiz-adv-x="1222" 
d="M612 1438q126 0 224.5 -57.5t159 -158.5t91.5 -231.5t31 -283.5q0 -122 -19 -230t-59.5 -200t-99.5 -158.5t-143 -104t-185 -37.5q-126 0 -224.5 57t-159.5 158t-92.5 231.5t-31.5 283.5t31.5 284t92.5 231.5t159.5 158t224.5 57.5zM174 707q0 -191 48.5 -342.5
t142.5 -237.5l479 1176q-99 77 -232 77q-110 0 -195 -52t-137.5 -145t-79 -213t-26.5 -263zM612 35q110 0 195 52t137 144.5t78.5 212.5t26.5 263q0 174 -40 316.5t-118 233.5l-475 -1169q83 -53 196 -53z" />
    <glyph glyph-name="zero.tf" horiz-adv-x="1228" 
d="M614 -23q-126 0 -224.5 57t-159.5 158t-92.5 231.5t-31.5 283.5t31.5 284t92.5 231.5t159.5 158t224.5 57.5t224.5 -57.5t159 -158.5t91.5 -231.5t31 -283.5q0 -122 -19 -230t-59.5 -200t-99.5 -158.5t-143 -104t-185 -37.5zM614 35q110 0 195 52t137 144.5t78.5 212.5
t26.5 263q0 114 -16.5 213.5t-51 184.5t-85.5 145.5t-123.5 95t-160.5 34.5q-110 0 -195 -52t-137.5 -145t-79 -213t-26.5 -263t26.5 -263t79 -212.5t137.5 -144.5t195 -52z" />
    <glyph glyph-name="one.tf" horiz-adv-x="1228" 
d="M688 1415v-1358h289v-57h-643v57h289v1143q-57 -68 -120.5 -88t-168.5 -20v57q152 0 220.5 65t68.5 201h65z" />
    <glyph glyph-name="two.tf" horiz-adv-x="1228" 
d="M1057 0h-905q0 198 105 340t300 244q185 97 251 144q137 97 168 219q11 44 11 93q0 143 -91.5 241.5t-248.5 98.5q-175 0 -285 -116.5t-110 -282.5h-66q0 88 31 169t87.5 146t145.5 103.5t197 38.5q185 0 297.5 -106t112.5 -292q0 -42 -7.5 -80.5t-18 -69t-32.5 -62
t-39 -53.5t-50.5 -49t-53.5 -42.5t-62 -40.5t-63 -36.5t-67 -37.5l-33 -18q-56 -30 -85.5 -46.5t-80 -49.5t-79 -57.5t-64.5 -64t-55 -77.5t-32.5 -88.5t-13.5 -106.5v-4h836v-57z" />
    <glyph glyph-name="three.tf" horiz-adv-x="1228" 
d="M629 -23q-232 0 -370 129.5t-138 352.5h69q0 -189 116.5 -306.5t322.5 -117.5q183 0 286 91.5t103 250.5q0 79 -31.5 144.5t-82.5 106t-111.5 62t-122.5 21.5h-154v57h146q128 0 214.5 84.5t86.5 220.5q0 81 -35 149t-112.5 113t-186.5 45q-87 0 -156 -21t-112.5 -56
t-72.5 -83.5t-40.5 -99.5t-11.5 -108h-70q0 188 121 307t342 119q166 0 284.5 -100t118.5 -265q0 -237 -229 -332v-4q138 -41 211 -134.5t73 -225.5q0 -190 -125.5 -295t-332.5 -105z" />
    <glyph glyph-name="four.tf" horiz-adv-x="1228" 
d="M901 0h-65v373h-715v57l715 985h65v-985h215v-57h-215v-373zM836 1311l-639 -881h639v881z" />
    <glyph glyph-name="five.tf" horiz-adv-x="1228" 
d="M608 -23q-113 0 -201.5 34.5t-141 92.5t-80 127t-29.5 146h65q8 -157 109 -249.5t278 -92.5q83 0 152.5 25.5t123.5 77t84.5 135.5t30.5 194q0 102 -30 180t-82.5 125t-120.5 70.5t-148 23.5q-71 0 -134 -18.5t-107 -48t-73.5 -59.5t-47.5 -60h-72l154 735h661v-57h-610
l-121 -576v-4q66 73 162 109.5t203 36.5q202 0 319 -128t117 -329q0 -224 -123.5 -357t-337.5 -133z" />
    <glyph glyph-name="six.tf" horiz-adv-x="1228" 
d="M641 -23q-237 0 -364 173.5t-127 496.5q0 394 130.5 592.5t378.5 198.5q162 0 273 -97t123 -264h-66q-10 139 -101.5 221t-228.5 82q-444 0 -444 -735v-96h2q16 90 61 161t106 113.5t129 64t136 21.5q204 0 326.5 -128t122.5 -332q0 -208 -124 -340t-333 -132zM641 35
q181 0 284 114.5t103 299.5q0 182 -101 292.5t-278 110.5q-56 0 -110.5 -15.5t-106 -50.5t-91 -84.5t-63.5 -123.5t-24 -162q0 -70 25 -136.5t72 -122t122.5 -89t167.5 -33.5z" />
    <glyph glyph-name="seven.tf" horiz-adv-x="1228" 
d="M467 0h-66q0 129 13 255.5t51 281.5t98.5 292.5t163.5 278.5t238 250v2h-832v55h922v-49q-105 -80 -191.5 -177t-146.5 -195t-105.5 -208.5t-72.5 -210.5t-43.5 -207.5t-22.5 -193.5t-6 -174z" />
    <glyph glyph-name="eight.tf" horiz-adv-x="1228" 
d="M614 -23q-127 0 -236.5 47t-181 143.5t-71.5 225.5q0 139 80.5 234.5t216.5 142.5v4q-106 43 -170 121.5t-64 191.5q0 163 121 257t305 94t305 -94t121 -257q0 -113 -64 -191.5t-169 -121.5v-4q135 -47 216 -143t81 -234q0 -129 -71.5 -225.5t-181.5 -143.5t-237 -47z
M614 801q156 0 256.5 77.5t100.5 208.5q0 137 -100 215t-257 78t-256.5 -78t-99.5 -215q0 -131 100 -208.5t256 -77.5zM614 35q113 0 208 42.5t153.5 125.5t58.5 190q0 104 -58.5 185t-153.5 123t-208 42t-208 -42t-153 -123t-58 -185q0 -107 58 -190t153 -125.5t208 -42.5z
" />
    <glyph glyph-name="nine.tf" horiz-adv-x="1228" 
d="M571 -23q-162 0 -272.5 97t-122.5 264h66q10 -139 101 -221t228 -82q223 0 334 186.5t111 548.5v96h-2q-16 -90 -61 -161t-106 -113.5t-129 -64t-136 -21.5q-204 0 -326.5 128t-122.5 333q0 208 124 339.5t333 131.5q237 0 364 -173.5t127 -496.5q0 -394 -131 -592.5
t-379 -198.5zM582 563q56 0 110.5 15.5t106 50.5t91 84.5t63.5 123.5t24 162q0 70 -25 136.5t-72 122t-122.5 89t-167.5 33.5q-181 0 -284 -114t-103 -299q0 -182 101 -293t278 -111z" />
    <glyph glyph-name="zero.tf.zero" horiz-adv-x="1228" 
d="M614 1438q126 0 224.5 -57.5t159 -158.5t91.5 -231.5t31 -283.5q0 -122 -19 -230t-59.5 -200t-99.5 -158.5t-143 -104t-185 -37.5q-126 0 -224.5 57t-159.5 158t-92.5 231.5t-31.5 283.5t31.5 284t92.5 231.5t159.5 158t224.5 57.5zM176 707q0 -191 48.5 -342.5
t142.5 -237.5l479 1176q-99 77 -232 77q-110 0 -195 -52t-137.5 -145t-79 -213t-26.5 -263zM614 35q110 0 195 52t137 144.5t78.5 212.5t26.5 263q0 174 -40 316.5t-118 233.5l-475 -1169q83 -53 196 -53z" />
    <glyph glyph-name="zero.dnom" horiz-adv-x="745" 
d="M373 -14q-101 0 -171.5 59t-103 154t-32.5 217t32.5 217t103 154t171.5 59q102 0 172.5 -60t102.5 -155t32 -215t-32 -215t-102.5 -155t-172.5 -60zM373 37q121 0 182 105t61 274t-61 274t-182 105t-182.5 -106t-61.5 -273t61.5 -273t182.5 -106z" />
    <glyph glyph-name="one.dnom" horiz-adv-x="352" 
d="M190 0v690q-32 -38 -70.5 -48.5t-99.5 -10.5v47q90 0 132 34.5t45 118.5h49v-831h-56z" />
    <glyph glyph-name="two.dnom" horiz-adv-x="653" 
d="M592 0h-543q0 216 242 348q121 66 151 88q86 62 94 149q1 11 1 23q0 79 -49.5 134t-139.5 55q-102 0 -161.5 -66t-59.5 -162h-57q0 114 75 195.5t205 81.5q107 0 176.5 -65t69.5 -171q0 -32 -8 -60.5t-17.5 -50t-31 -44.5t-35.5 -36t-46 -34t-46.5 -29.5t-51.5 -29.5
q-111 -62 -147 -90q-100 -79 -100 -185v-4h479v-47z" />
    <glyph glyph-name="three.dnom" horiz-adv-x="696" 
d="M358 -12q-142 0 -224.5 75.5t-82.5 208.5h60q0 -108 63 -172.5t182 -64.5q104 0 160.5 50t56.5 138q0 90 -59.5 138.5t-136.5 48.5h-90v51h86q73 0 122.5 45.5t49.5 122.5q0 70 -49 119t-140 49q-62 0 -107 -17.5t-68.5 -47.5t-34.5 -64t-11 -74h-57q0 111 72.5 181.5
t205.5 70.5q100 0 173 -59t73 -158q0 -138 -133 -191v-2q82 -25 123 -81t41 -132q0 -112 -75.5 -173.5t-199.5 -61.5z" />
    <glyph glyph-name="four.dnom" horiz-adv-x="665" 
d="M508 0h-55v213h-416v49l416 569h55v-569h125v-49h-125v-213zM453 750l-355 -488h355v488z" />
    <glyph glyph-name="five.dnom" horiz-adv-x="653" 
d="M326 -12q-132 0 -202.5 69.5t-72.5 167.5h55q5 -86 61 -138t157 -52q98 0 159.5 61t61.5 180q0 111 -58.5 166.5t-152.5 55.5q-68 0 -123 -28t-86 -73h-57l88 434h405v-47h-360l-68 -319v-2q75 84 211 84q118 0 188 -76.5t70 -194.5q0 -132 -75.5 -210t-200.5 -78z" />
    </font>
</defs>
</svg>
