<?xml version="1.0" standalone="no"?>
<!DOCTYPE svg PUBLIC "-//W3C//DTD SVG 1.1//EN" "http://www.w3.org/Graphics/SVG/1.1/DTD/svg11.dtd" >
<svg xmlns="http://www.w3.org/2000/svg">
<metadata>Generated by IcoMoon</metadata>
<defs>
<font id="icomoon" horiz-adv-x="1024">
<font-face units-per-em="1024" ascent="960" descent="-64" />
<missing-glyph horiz-adv-x="1024" />
<glyph unicode="&#x20;" horiz-adv-x="512" d="" />
<glyph unicode="&#xe900;" glyph-name="address-book-light" horiz-adv-x="896" d="M872 640c13.2 0 24 10.8 24 24v80c0 13.2-10.8 24-24 24h-40v64c0 70.6-57.4 128-128 128h-576c-70.6 0-128-57.4-128-128v-768c0-70.6 57.4-128 128-128h576c70.6 0 128 57.4 128 128v64h40c13.2 0 24 10.8 24 24v80c0 13.2-10.8 24-24 24h-40v128h40c13.2 0 24 10.8 24 24v80c0 13.2-10.8 24-24 24h-40v128h40zM768 64c0-35.2-28.8-64-64-64h-576c-35.2 0-64 28.8-64 64v768c0 35.2 28.8 64 64 64h576c35.2 0 64-28.8 64-64v-768zM416 416c88.4 0 160 71.6 160 160s-71.6 160-160 160-160-71.6-160-160 71.6-160 160-160zM416 672c53 0 96-43 96-96s-43-96-96-96-96 43-96 96 43 96 96 96zM509.6 384c-39 0-48.8-14-93.6-14s-54.6 14-93.6 14c-42.4 0-83.6-18.8-107.6-54.8-14.4-21.4-22.8-47.2-22.8-75v-78.2c0-8.8 7.2-16 16-16h32c8.8 0 16 7.2 16 16v78.2c0 14 4.2 27.6 12 39.2 11.2 16.6 31.6 26.4 54.6 26.4 24.8 0 41.6-14 93.6-14 51.8 0 68.6 14 93.6 14 23 0 43.4-10 54.6-26.4 7.8-11.6 12-25.2 12-39.2v-78.2c0-8.8 7.2-16 16-16h32c8.8 0 16 7.2 16 16v78.2c0 27.8-8.4 53.6-22.8 75-24.6 36-65.8 54.8-108 54.8z" />
<glyph unicode="&#xe901;" glyph-name="address-card-light" horiz-adv-x="1152" d="M1024 896h-896c-70.6 0-128-57.4-128-128v-640c0-70.6 57.4-128 128-128h896c70.6 0 128 57.4 128 128v640c0 70.6-57.4 128-128 128zM1088 128c0-35.2-28.8-64-64-64h-896c-35.2 0-64 28.8-64 64v640c0 35.2 28.8 64 64 64h896c35.2 0 64-28.8 64-64v-640zM944 384h-224c-8.8 0-16-7.2-16-16v-32c0-8.8 7.2-16 16-16h224c8.8 0 16 7.2 16 16v32c0 8.8-7.2 16-16 16zM944 512h-224c-8.8 0-16-7.2-16-16v-32c0-8.8 7.2-16 16-16h224c8.8 0 16 7.2 16 16v32c0 8.8-7.2 16-16 16zM944 640h-224c-8.8 0-16-7.2-16-16v-32c0-8.8 7.2-16 16-16h224c8.8 0 16 7.2 16 16v32c0 8.8-7.2 16-16 16zM416 384c88.4 0 160 71.6 160 160s-71.6 160-160 160-160-71.6-160-160 71.6-160 160-160zM416 640c53 0 96-43 96-96s-43-96-96-96-96 43-96 96 43 96 96 96zM509.6 352c-39 0-48.8-14-93.6-14s-54.6 14-93.6 14c-42.4 0-83.6-18.8-107.6-54.8-14.4-21.4-22.8-47.2-22.8-75v-46.2c0-8.8 7.2-16 16-16h32c8.8 0 16 7.2 16 16v46.2c0 14 4.2 27.6 12 39.2 11.2 16.6 31.6 26.4 54.6 26.4 24.8 0 41.6-14 93.6-14 51.8 0 68.6 14 93.6 14 23 0 43.4-10 54.6-26.4 7.8-11.6 12-25.2 12-39.2v-46.2c0-8.8 7.2-16 16-16h32c8.8 0 16 7.2 16 16v46.2c0 27.8-8.4 53.6-22.8 75-24.6 36-65.8 54.8-108 54.8z" />
<glyph unicode="&#xe902;" glyph-name="alarm-clock-light" d="M64 736c0.102 88.324 71.676 159.898 159.99 160h0.010c38.105-0.14 73.014-13.708 100.268-36.215l-0.268 0.215c18.8 7.727 41.783 15.136 65.415 20.888l3.465 0.712c-41.1 47.56-101.16 78.4-168.88 78.4-123.648-0.159-223.841-100.352-224-223.985v-0.015c0-51.72 18.34-98.82 48-136.78 11.463 24.698 23.066 45.445 36.002 65.24l-1.202-1.96c-11.647 21.262-18.584 46.547-18.8 73.434v0.066zM800 960c-67.72 0-127.78-30.84-168.88-78.5 27.097-6.464 50.080-13.873 72.284-22.81l-3.404 1.21c26.986 22.292 61.895 35.86 99.969 36h0.031c88.324-0.102 159.898-71.676 160-159.99v-0.010c-0.19-26.944-7.099-52.233-19.133-74.328l0.413 0.828c11.703-17.803 23.279-38.517 33.398-60.051l1.322-3.129c29.58 38 48 85.060 48 136.78-0.159 123.648-100.352 223.841-223.985 224h-0.015zM512 832c-247.42 0-448-200.58-448-448 0-0.071 0-0.154 0-0.238 0-112.336 41.552-214.967 110.125-293.361l-0.445 0.519-105-104.92c-2.899-2.896-4.693-6.899-4.693-11.32s1.793-8.424 4.692-11.32v0l22.62-22.62c2.896-2.899 6.899-4.693 11.32-4.693s8.424 1.793 11.32 4.692v0l104.98 105c77.96-68.13 180.668-109.678 293.080-109.678s215.12 41.549 293.604 110.127l-0.524-0.448 104.92-105.060c2.896-2.899 6.899-4.693 11.32-4.693s8.424 1.793 11.32 4.692v0l22.62 22.62c2.899 2.896 4.693 6.899 4.693 11.32s-1.793 8.424-4.692 11.32v0l-105 104.98c68.164 77.886 109.74 180.543 109.74 292.911 0 0.059 0 0.119 0 0.178v-0.009c0 247.42-200.58 448-448 448zM512 0c-211.74 0-384 172.26-384 384s172.26 384 384 384 384-172.26 384-384-172.26-384-384-384zM540.76 367.38v256.62c0 8.837-7.163 16-16 16v0h-32c-8.837 0-16-7.163-16-16v0-272c0.006-10.070 4.663-19.050 11.938-24.912l0.062-0.048 147.5-118c2.713-2.187 6.203-3.511 10.001-3.511 5.044 0 9.542 2.334 12.475 5.98l0.024 0.031 20 25c2.187 2.713 3.511 6.203 3.511 10.001 0 5.044-2.334 9.542-5.98 12.475l-0.031 0.024z" />
<glyph unicode="&#xe903;" glyph-name="album-collection-light" d="M992 800c0 17.673-14.327 32-32 32v0h-896c-17.673 0-32-14.327-32-32v0-32h960zM960 928c0 17.673-14.327 32-32 32v0h-832c-17.673 0-32-14.327-32-32v0-32h896zM960 704h-896c-37.62 0-67.14-35.24-63.74-76.14l52.36-628.36c3-36 30.64-63.5 63.74-63.5h791.28c33.1 0 60.74 27.54 63.72 63.5l52.38 628.36c3.4 40.9-26.1 76.14-63.74 76.14zM907.58 4.8c-0.24-2.94-1.38-4.62-0.4-4.8l-788.64-0.54c-1.307 1.403-2.117 3.285-2.14 5.355v0.005l-52.4 628.36c-0.36 4.18 1.34 6.64 0.24 6.82h894c1.074-1.57 1.715-3.51 1.715-5.6 0-0.43-0.027-0.854-0.080-1.27l0.005 0.049zM512 361.7c-29.1 0-52.5-20.32-52.26-45.2s23.64-44.5 52.26-44.5 52 19.8 52.28 44.46-23.16 45.24-52.28 45.24zM512 576c-185.8 0-328.66-123.76-319.58-268.8 8.6-137.2 151.58-243.2 319.58-243.2s311 106 319.6 243.2c9.060 145.040-133.8 268.8-319.6 268.8zM512 128c-134.68 0-249.4 82.18-255.72 183.2-3.38 54 23.42 94.58 46.5 119.16 48.76 51.88 125.020 81.64 209.22 81.64s160.46-29.76 209.2-81.64c23.080-24.58 49.9-65.2 46.52-119.16-6.32-101.020-121.040-183.2-255.72-183.2z" />
<glyph unicode="&#xe904;" glyph-name="album-light" horiz-adv-x="896" d="M448 128c176.44 0 320 143.56 320 320s-143.56 320-320 320-320-143.56-320-320 143.56-320 320-320zM448 704c141.385 0 256-114.615 256-256s-114.615-256-256-256c-141.385 0-256 114.615-256 256v0c0.159 141.321 114.679 255.841 255.985 256h0.015zM448 400c26.51 0 48 21.49 48 48s-21.49 48-48 48c-26.51 0-48-21.49-48-48v0c0-26.51 21.49-48 48-48v0zM832 896h-768c-35.346 0-64-28.654-64-64v0-768c0-35.346 28.654-64 64-64v0h768c35.346 0 64 28.654 64 64v0 768c0 35.346-28.654 64-64 64v0zM832 64h-768v768h768z" />
<glyph unicode="&#xe905;" glyph-name="angle-down-light" horiz-adv-x="512" d="M239 306.2l-232 235.6c-9.4 9.4-9.4 24.6 0 34l14.2 14.2c9.4 9.4 24.6 9.4 34 0l200.8-204.6 200.8 204.4c9.4 9.4 24.6 9.4 34 0l14.2-14.2c9.4-9.4 9.4-24.6 0-34l-232-235.6c-9.4-9.2-24.6-9.2-34 0.2z" />
<glyph unicode="&#xe906;" glyph-name="angle-left-light" horiz-adv-x="384" d="M50.2 465l235.6 232c9.4 9.4 24.6 9.4 34 0l14.2-14.2c9.4-9.4 9.4-24.6 0-34l-204.6-200.8 204.4-200.8c9.4-9.4 9.4-24.6 0-34l-14.2-14.2c-9.4-9.4-24.6-9.4-34 0l-235.6 232c-9.2 9.4-9.2 24.6 0.2 34z" />
<glyph unicode="&#xe907;" glyph-name="angle-right-light" horiz-adv-x="384" d="M333.8 431l-235.6-232c-9.4-9.4-24.6-9.4-34 0l-14.2 14.2c-9.4 9.4-9.4 24.6 0 34l204.6 200.8-204.4 200.8c-9.4 9.4-9.4 24.6 0 34l14.2 14.2c9.4 9.4 24.6 9.4 34 0l235.6-232c9.2-9.4 9.2-24.6-0.2-34z" />
<glyph unicode="&#xe908;" glyph-name="angle-up-light" horiz-adv-x="512" d="M273 589.8l232-235.6c9.4-9.4 9.4-24.6 0-34l-14.2-14.2c-9.4-9.4-24.6-9.4-34 0l-200.8 204.6-200.8-204.4c-9.4-9.4-24.6-9.4-34 0l-14.2 14.2c-9.4 9.4-9.4 24.6 0 34l232 235.6c9.4 9.2 24.6 9.2 34-0.2z" />
<glyph unicode="&#xe909;" glyph-name="arrow-alt-circle-down-light" d="M512 944c-274 0-496-222-496-496s222-496 496-496 496 222 496 496-222 496-496 496zM944 448c0-237.4-192.2-432-432-432-237.4 0-432 192.2-432 432 0 237.4 192.2 432 432 432 237.4 0 432-192.2 432-432zM768 512h-128v208c0 26.4-21.6 48-48 48h-160c-26.4 0-48-21.6-48-48v-208h-128c-56.8 0-85.6-69-45.2-109.2l256-256c25-25 65.6-25 90.6 0l256 256c40 40.2 11.6 109.2-45.4 109.2zM512 192l-256 256h192v256h128v-256h192l-256-256z" />
<glyph unicode="&#xe90a;" glyph-name="arrow-alt-circle-left-light" d="M1008 448c0 274-222 496-496 496s-496-222-496-496 222-496 496-496 496 222 496 496zM512 16c-237.4 0-432 192.2-432 432 0 237.4 192.2 432 432 432 237.4 0 432-192.2 432-432 0-237.4-192.2-432-432-432zM576 192v128h208c26.4 0 48 21.6 48 48v160c0 26.4-21.6 48-48 48h-208v128c0 56.8-69 85.6-109.2 45.2l-256-256c-25-25-25-65.6 0-90.6l256-256c40.2-40 109.2-11.6 109.2 45.4zM256 448l256 256v-192h256v-128h-256v-192l-256 256z" />
<glyph unicode="&#xe90b;" glyph-name="arrow-alt-circle-right-light" d="M16 448c0-274 222-496 496-496s496 222 496 496-222 496-496 496-496-222-496-496zM512 880c237.4 0 432-192.2 432-432 0-237.4-192.2-432-432-432-237.4 0-432 192.2-432 432 0 237.4 192.2 432 432 432zM448 704v-128h-208c-26.4 0-48-21.6-48-48v-160c0-26.4 21.6-48 48-48h208v-128c0-56.8 69-85.6 109.2-45.2l256 256c25 25 25 65.6 0 90.6l-256 256c-40.2 40-109.2 11.6-109.2-45.4zM768 448l-256-256v192h-256v128h256v192l256-256z" />
<glyph unicode="&#xe90c;" glyph-name="arrow-alt-circle-up-light" d="M512-48c274 0 496 222 496 496s-222 496-496 496-496-222-496-496 222-496 496-496zM80 448c0 237.4 192.2 432 432 432 237.4 0 432-192.2 432-432 0-237.4-192.2-432-432-432-237.4 0-432 192.2-432 432zM256 384h128v-208c0-26.4 21.6-48 48-48h160c26.4 0 48 21.6 48 48v208h128c56.8 0 85.6 69 45.2 109.2l-256 256c-25 25-65.6 25-90.6 0l-256-256c-40-40.2-11.6-109.2 45.4-109.2zM512 704l256-256h-192v-256h-128v256h-192l256 256z" />
<glyph unicode="&#xe90d;" glyph-name="arrow-circle-down-light" d="M512 944c-274 0-496-222-496-496s222-496 496-496 496 222 496 496-222 496-496 496zM944 448c0-237.4-192.2-432-432-432-237.4 0-432 192.2-432 432 0 237.4 192.2 432 432 432 237.4 0 432-192.2 432-432zM759 457l-13.8 13.8c-9.4 9.4-25 9.4-34.2-0.4l-165-171v380.6c0 13.2-10.8 24-24 24h-20c-13.2 0-24-10.8-24-24v-380.6l-165 171.2c-9.4 9.6-24.8 9.8-34.2 0.4l-13.8-13.8c-9.4-9.4-9.4-24.6 0-34l230-230.2c9.4-9.4 24.6-9.4 34 0l230 230.2c9.4 9.2 9.4 24.4 0 33.8z" />
<glyph unicode="&#xe90e;" glyph-name="arrow-circle-left-light" d="M1008 448c0 274-222 496-496 496s-496-222-496-496 222-496 496-496 496 222 496 496zM512 16c-237.4 0-432 192.2-432 432 0 237.4 192.2 432 432 432 237.4 0 432-192.2 432-432 0-237.4-192.2-432-432-432zM487 201l-230.2 230c-9.4 9.4-9.4 24.6 0 34l230.2 230c9.4 9.4 24.6 9.4 34 0l13.8-13.8c9.4-9.4 9.4-25-0.4-34.2l-171-165h380.6c13.2 0 24-10.8 24-24v-20c0-13.2-10.8-24-24-24h-380.6l171.2-165c9.6-9.4 9.8-24.8 0.4-34.2l-13.8-13.8c-9.6-9.4-24.8-9.4-34.2 0z" />
<glyph unicode="&#xe90f;" glyph-name="arrow-circle-right-light" d="M16 448c0-274 222-496 496-496s496 222 496 496-222 496-496 496-496-222-496-496zM512 880c237.4 0 432-192.2 432-432 0-237.4-192.2-432-432-432-237.4 0-432 192.2-432 432 0 237.4 192.2 432 432 432zM537 695l230.2-230c9.4-9.4 9.4-24.6 0-34l-230.2-230c-9.4-9.4-24.6-9.4-34 0l-13.8 13.8c-9.4 9.4-9.4 25 0.4 34.2l171.2 165h-380.8c-13.2 0-24 10.8-24 24v20c0 13.2 10.8 24 24 24h380.6l-171.2 165c-9.6 9.4-9.8 24.8-0.4 34.2l13.8 13.8c9.6 9.4 24.8 9.4 34.2 0z" />
<glyph unicode="&#xe910;" glyph-name="arrow-circle-up-light" d="M512-48c274 0 496 222 496 496s-222 496-496 496-496-222-496-496 222-496 496-496zM80 448c0 237.4 192.2 432 432 432 237.4 0 432-192.2 432-432 0-237.4-192.2-432-432-432-237.4 0-432 192.2-432 432zM265 473l230 230.2c9.4 9.4 24.6 9.4 34 0l230-230.2c9.4-9.4 9.4-24.6 0-34l-13.8-13.8c-9.4-9.4-25-9.4-34.2 0.4l-165 171v-380.6c0-13.2-10.8-24-24-24h-20c-13.2 0-24 10.8-24 24v380.6l-165-171.2c-9.4-9.6-24.8-9.8-34.2-0.4l-13.8 13.8c-9.4 9.6-9.4 24.8 0 34.2z" />
<glyph unicode="&#xe911;" glyph-name="arrow-down-light" horiz-adv-x="896" d="M887 463l-14.2 14.2c-9.4 9.4-24.6 9.4-34 0l-356.8-357v751.8c0 13.2-10.8 24-24 24h-20c-13.2 0-24-10.8-24-24v-751.8l-357 357c-9.4 9.4-24.6 9.4-34 0l-14.2-14.2c-9.4-9.4-9.4-24.6 0-34l422-422.2c9.4-9.4 24.6-9.4 34 0l422 422.2c9.6 9.6 9.6 24.6 0.2 34z" />
<glyph unicode="&#xe912;" glyph-name="arrow-from-bottom-light" horiz-adv-x="768" d="M71 592l296 297c9.4 9.4 24.6 9.4 34 0l296-297c9.4-9.4 9.4-24.6 0-34l-14.2-14.2c-9.4-9.4-24.6-9.4-34 0l-230.8 232v-623.8c0-13.2-10.8-24-24-24h-20c-13.2 0-24 10.8-24 24v623.8l-230.8-231.8c-9.4-9.4-24.6-9.4-34 0l-14.2 14.2c-9.4 9.2-9.4 24.4 0 33.8zM768 24v16c0 13.2-10.8 24-24 24h-720c-13.2 0-24-10.8-24-24v-16c0-13.2 10.8-24 24-24h720c13.2 0 24 10.8 24 24z" />
<glyph unicode="&#xe913;" glyph-name="arrow-from-left-light" horiz-adv-x="896" d="M592 761l297-296c9.4-9.4 9.4-24.6 0-34l-297-296c-9.4-9.4-24.6-9.4-34 0l-14.2 14.2c-9.4 9.4-9.4 24.6 0 34l232 230.8h-623.8c-13.2 0-24 10.8-24 24v20c0 13.2 10.8 24 24 24h623.8l-231.8 230.8c-9.4 9.4-9.4 24.6 0 34l14.2 14.2c9.2 9.4 24.4 9.4 33.8 0zM24 64h16c13.2 0 24 10.8 24 24v720c0 13.2-10.8 24-24 24h-16c-13.2 0-24-10.8-24-24v-720c0-13.2 10.8-24 24-24z" />
<glyph unicode="&#xe914;" glyph-name="arrow-from-right-light" horiz-adv-x="896" d="M304 135l-297 296c-9.4 9.4-9.4 24.6 0 34l297 296c9.4 9.4 24.6 9.4 34 0l14.2-14.2c9.4-9.4 9.4-24.6 0-34l-232-230.8h623.8c13.2 0 24-10.8 24-24v-20c0-13.2-10.8-24-24-24h-623.8l231.8-230.8c9.4-9.4 9.4-24.6 0-34l-14.2-14.2c-9.2-9.4-24.4-9.4-33.8 0zM872 832h-16c-13.2 0-24-10.8-24-24v-720c0-13.2 10.8-24 24-24h16c13.2 0 24 10.8 24 24v720c0 13.2-10.8 24-24 24z" />
<glyph unicode="&#xe915;" glyph-name="arrow-from-top-light" horiz-adv-x="768" d="M697 304l-296-297c-9.4-9.4-24.6-9.4-34 0l-296 297c-9.4 9.4-9.4 24.6 0 34l14.2 14.2c9.4 9.4 24.6 9.4 34 0l230.8-232v623.8c0 13.2 10.8 24 24 24h20c13.2 0 24-10.8 24-24v-623.8l230.8 231.8c9.4 9.4 24.6 9.4 34 0l14.2-14.2c9.4-9.2 9.4-24.4 0-33.8zM0 872v-16c0-13.2 10.8-24 24-24h720c13.2 0 24 10.8 24 24v16c0 13.2-10.8 24-24 24h-720c-13.2 0-24-10.8-24-24z" />
<glyph unicode="&#xe916;" glyph-name="arrow-left-light" horiz-adv-x="896" d="M463.072 8.93l14.142 14.14c9.372 9.372 9.372 24.568 0 33.942l-356.988 356.988h751.774c13.254 0 24 10.746 24 24v20c0 13.254-10.746 24-24 24h-751.774l356.988 356.988c9.372 9.372 9.372 24.568 0 33.942l-14.142 14.14c-9.372 9.372-24.568 9.372-33.94 0l-422.102-422.1c-9.372-9.372-9.372-24.568 0-33.942l422.102-422.1c9.372-9.372 24.568-9.372 33.94 0.002z" />
<glyph unicode="&#xe917;" glyph-name="arrow-right-light" horiz-adv-x="896" d="M432.928 887.070l-14.142-14.14c-9.372-9.372-9.372-24.568 0-33.942l356.988-356.988h-751.774c-13.254 0-24-10.746-24-24v-20c0-13.254 10.746-24 24-24h751.774l-356.988-356.988c-9.372-9.372-9.372-24.568 0-33.942l14.142-14.14c9.372-9.372 24.568-9.372 33.94 0l422.102 422.1c9.372 9.372 9.372 24.568 0 33.942l-422.102 422.098c-9.372 9.374-24.568 9.374-33.94 0z" />
<glyph unicode="&#xe918;" glyph-name="arrow-to-bottom-light" horiz-adv-x="768" d="M697 432l-296-297c-9.4-9.4-24.6-9.4-34 0l-296 297c-9.4 9.4-9.4 24.6 0 34l14.2 14.2c9.4 9.4 24.6 9.4 34 0l230.8-232v623.8c0 13.2 10.8 24 24 24h20c13.2 0 24-10.8 24-24v-623.8l230.8 231.8c9.4 9.4 24.6 9.4 34 0l14.2-14.2c9.4-9.2 9.4-24.4 0-33.8zM768 24v16c0 13.2-10.8 24-24 24h-720c-13.2 0-24-10.8-24-24v-16c0-13.2 10.8-24 24-24h720c13.2 0 24 10.8 24 24z" />
<glyph unicode="&#xe919;" glyph-name="arrow-to-left-light" horiz-adv-x="896" d="M432 135l-297 296c-9.4 9.4-9.4 24.6 0 34l297 296c9.4 9.4 24.6 9.4 34 0l14.2-14.2c9.4-9.4 9.4-24.6 0-34l-232-230.8h623.8c13.2 0 24-10.8 24-24v-20c0-13.2-10.8-24-24-24h-623.8l231.8-230.8c9.4-9.4 9.4-24.6 0-34l-14.2-14.2c-9.2-9.4-24.4-9.4-33.8 0zM24 64h16c13.2 0 24 10.8 24 24v720c0 13.2-10.8 24-24 24h-16c-13.2 0-24-10.8-24-24v-720c0-13.2 10.8-24 24-24z" />
<glyph unicode="&#xe91a;" glyph-name="arrow-to-right-light" horiz-adv-x="896" d="M430 761l-14.2-14.2c-9.4-9.4-9.4-24.6 0-34l232-230.8h-623.8c-13.2 0-24-10.8-24-24v-20c0-13.2 10.8-24 24-24h623.8l-231.8-230.8c-9.4-9.4-9.4-24.6 0-34l14.2-14.2c9.4-9.4 24.6-9.4 34 0l297 296c9.4 9.4 9.4 24.6 0 34l-297.2 296c-9.4 9.4-24.6 9.4-34 0zM896 808v-720c0-13.2-10.8-24-24-24h-16c-13.2 0-24 10.8-24 24v720c0 13.2 10.8 24 24 24h16c13.2 0 24-10.8 24-24z" />
<glyph unicode="&#xe91b;" glyph-name="arrow-to-top-light" horiz-adv-x="768" d="M71 464l296 297c9.4 9.4 24.6 9.4 34 0l296-297c9.4-9.4 9.4-24.6 0-34l-14.2-14.2c-9.4-9.4-24.6-9.4-34 0l-230.8 232v-623.8c0-13.2-10.8-24-24-24h-20c-13.2 0-24 10.8-24 24v623.8l-230.8-231.8c-9.4-9.4-24.6-9.4-34 0l-14.2 14.2c-9.4 9.2-9.4 24.4 0 33.8zM0 872v-16c0-13.2 10.8-24 24-24h720c13.2 0 24 10.8 24 24v16c0 13.2-10.8 24-24 24h-720c-13.2 0-24-10.8-24-24z" />
<glyph unicode="&#xe91c;" glyph-name="backspace-light" horiz-adv-x="1280" d="M939.32 596.7l-22.62 22.62c-6.24 6.24-16.38 6.24-22.62 0l-126.080-126.060-126.060 126.060c-6.24 6.24-16.38 6.24-22.62 0l-22.62-22.62c-6.24-6.24-6.24-16.38 0-22.62l126.060-126.080-126.060-126.060c-6.24-6.24-6.24-16.38 0-22.62l22.62-22.62c6.24-6.24 16.38-6.24 22.62 0l126.060 126.040 126.060-126.060c6.24-6.24 16.38-6.24 22.62 0l22.62 22.62c6.24 6.24 6.24 16.38 0 22.62l-126.040 126.080 126.060 126.060c2.892 2.899 4.68 6.901 4.68 11.32s-1.788 8.421-4.681 11.32v0zM1152 832h-741.48c-33.96 0-66.52-13.48-90.52-37.48l-301.26-301.26c-25-25-25-65.52 0-90.5l301.26-301.26c24-24 56.56-37.5 90.5-37.5h741.5c70.7 0 128 57.3 128 128v512c0 70.7-57.3 128-128 128zM1216 192c0-35.28-28.72-64-64-64h-741.48c-17.1 0-33.16 6.66-45.26 18.74l-301.26 301.26 301.26 301.26c12.080 12.080 28.16 18.74 45.26 18.74h741.48c35.28 0 64-28.72 64-64v-512z" />
<glyph unicode="&#xe91d;" glyph-name="ban-light" d="M512 944c-273.934 0-496-222.066-496-496s222.066-496 496-496 496 222.066 496 496-222.066 496-496 496zM206.53 142.53c-161.244 161.244-168.298 417.914-21.8 587.486l609.288-609.286c-169.608-146.528-426.276-139.412-587.488 21.8zM839.27 165.984l-609.286 609.286c169.608 146.526 426.274 139.41 587.486-21.8 161.244-161.242 168.298-417.914 21.8-587.486z" />
<glyph unicode="&#xe91e;" glyph-name="barcode-alt-light" horiz-adv-x="1280" d="M560 768h-32c-8.8 0-16-7.2-16-16v-608c0-8.8 7.2-16 16-16h32c8.8 0 16 7.2 16 16v608c0 8.8-7.2 16-16 16zM432 768h-32c-8.8 0-16-7.2-16-16v-608c0-8.8 7.2-16 16-16h32c8.8 0 16 7.2 16 16v608c0 8.8-7.2 16-16 16zM1184 960h-1088c-53 0-96-43-96-96v-832c0-53 43-96 96-96h1088c53 0 96 43 96 96v832c0 53-43 96-96 96zM1216 32c0-17.6-14.4-32-32-32h-1088c-17.6 0-32 14.4-32 32v832c0 17.6 14.4 32 32 32h1088c17.6 0 32-14.4 32-32v-832zM304 768h-96c-8.8 0-16-7.2-16-16v-608c0-8.8 7.2-16 16-16h96c8.8 0 16 7.2 16 16v608c0 8.8-7.2 16-16 16zM1072 768h-96c-8.8 0-16-7.2-16-16v-608c0-8.8 7.2-16 16-16h96c8.8 0 16 7.2 16 16v608c0 8.8-7.2 16-16 16zM816 768h-96c-8.8 0-16-7.2-16-16v-608c0-8.8 7.2-16 16-16h96c8.8 0 16 7.2 16 16v608c0 8.8-7.2 16-16 16z" />
<glyph unicode="&#xe91f;" glyph-name="barcode-read-light" horiz-adv-x="1280" d="M304 960h-288c-8.8 0-16-7.2-16-16v-304c0-8.8 7.2-16 16-16h32c8.8 0 16 7.2 16 16v256h240c8.8 0 16 7.2 16 16v32c0 8.8-7.2 16-16 16zM304 0h-240v256c0 8.8-7.2 16-16 16h-32c-8.8 0-16-7.2-16-16v-304c0-8.8 7.2-16 16-16h288c8.8 0 16 7.2 16 16v32c0 8.8-7.2 16-16 16zM1264 960h-288c-8.8 0-16-7.2-16-16v-32c0-8.8 7.2-16 16-16h240v-256c0-8.8 7.2-16 16-16h32c8.8 0 16 7.2 16 16v304c0 8.8-7.2 16-16 16zM1264 272h-32c-8.8 0-16-7.2-16-16v-256h-240c-8.8 0-16-7.2-16-16v-32c0-8.8 7.2-16 16-16h288c8.8 0 16 7.2 16 16v304c0 8.8-7.2 16-16 16zM304 768h-96c-8.8 0-16-7.2-16-16v-608c0-8.8 7.2-16 16-16h96c8.8 0 16 7.2 16 16v608c0 8.8-7.2 16-16 16zM976 128h96c8.8 0 16 7.2 16 16v608c0 8.8-7.2 16-16 16h-96c-8.8 0-16-7.2-16-16v-608c0-8.8 7.2-16 16-16zM816 768h-96c-8.8 0-16-7.2-16-16v-608c0-8.8 7.2-16 16-16h96c8.8 0 16 7.2 16 16v608c0 8.8-7.2 16-16 16zM432 768h-32c-8.8 0-16-7.2-16-16v-608c0-8.8 7.2-16 16-16h32c8.8 0 16 7.2 16 16v608c0 8.8-7.2 16-16 16zM560 768h-32c-8.8 0-16-7.2-16-16v-608c0-8.8 7.2-16 16-16h32c8.8 0 16 7.2 16 16v608c0 8.8-7.2 16-16 16z" />
<glyph unicode="&#xe920;" glyph-name="bars-light" horiz-adv-x="896" d="M884 732h-872c-6.627 0-12 5.373-12 12v0 48c0 6.627 5.373 12 12 12v0h872c6.627 0 12-5.373 12-12v0-48c0-6.627-5.373-12-12-12v0zM884 412h-872c-6.627 0-12 5.373-12 12v0 48c0 6.627 5.373 12 12 12v0h872c6.627 0 12-5.373 12-12v0-48c0-6.627-5.373-12-12-12v0zM884 92h-872c-6.627 0-12 5.373-12 12v0 48c0 6.627 5.373 12 12 12v0h872c6.627 0 12-5.373 12-12v0-48c0-6.627-5.373-12-12-12v0z" />
<glyph unicode="&#xe921;" glyph-name="bell-light" horiz-adv-x="896" d="M448 0c-35.32 0-64 28.76-64 64.060h-64c0-70.62 57.44-128.060 128-128.060s128 57.44 128 128.060h-64c0-35.3-28.68-64.060-64-64.060zM866.76 290.38c-55.92 53.24-98.68 108.96-98.68 297.82 0 159.18-126.78 289-288.080 304.7v35.1c0 17.68-14.32 32-32 32s-32-14.32-32-32v-35.12c-161.3-15.7-288.080-145.5-288.080-304.68 0-188.84-42.78-244.58-98.7-297.82-27.94-26.6-36.76-66.82-22.5-102.46 14.56-36.4 49.6-59.92 89.28-59.92h704c39.68 0 74.72 23.54 89.28 59.94 14.26 35.64 5.42 75.84-22.52 102.44zM800 192h-704c-28.46 0-42.68 32.94-22.64 52.020 69.72 66.38 118.56 140.68 118.56 344.16 0 134.76 114.54 243.82 256.080 243.82 141.52 0 256.080-109.040 256.080-243.8 0-202.7 48.42-277.4 118.56-344.16 20.12-19.18 5.7-52.040-22.64-52.040z" />
<glyph unicode="&#xe922;" glyph-name="book-alt-light" horiz-adv-x="896" d="M896 176v736c0 26.6-21.4 48-48 48h-688c-88.4 0-160-71.6-160-160v-736c0-70.7 57.3-128 128-128h744c13.2 0 24 10.8 24 24v16c0 13.2-10.8 24-24 24h-6.6c-8 40.4-6.4 99.4 0.8 131.6 17.4 7.2 29.8 24.4 29.8 44.4zM808.6 0h-680.6c-35.34 0-64 28.66-64 64s28.66 64 64 64h680.6c-5.8-37.6-6.2-87.2 0-128zM832 192h-704c-23.44 0-45.1-6.76-64-17.76v625.76c0 53 43 96 96 96h672v-704z" />
<glyph unicode="&#xe923;" glyph-name="book-open-light" horiz-adv-x="1152" d="M1029.82 896h-0.32c-48.16-0.24-289.5-17.66-439.12-96.18-8.1-4.24-20.66-4.24-28.76 0-149.64 78.52-390.98 95.94-439.12 96.18h-0.32c-67.38 0-122.18-52.94-122.18-118.020v-593.4c0-62.82 50.82-114.56 115.7-117.8 69.54-3.52 244.060-16.52 363.78-60.74 10.54-3.9 21.28-6.040 32.5-6.040h128c11.24 0 21.98 2.16 32.52 6.040 119.74 44.22 294.24 57.22 363.84 60.74 64.82 3.24 115.64 54.96 115.64 117.78v593.42c0.020 65.080-54.78 118.020-122.16 118.020zM544 94c0-17.22-14.28-30.26-30.52-30.26-3.54 0-7.18 0.62-10.78 1.96-124.9 46.42-297.98 60.66-383.82 65.020-30.78 1.54-54.88 25.2-54.88 53.86v593.4c0 29.78 26.12 54 58.18 54 38.56-0.2 244.92-14.76 384.24-76.58 22.52-10 37.28-31.5 37.32-55.68l0.26-200.64v-405.080zM1088 184.58c0-28.66-24.1-52.32-54.9-53.86-85.84-4.36-258.92-18.6-383.82-65.020-3.6-1.34-7.24-1.96-10.78-1.96-16.22 0-30.52 13.040-30.52 30.26v405.080l0.26 200.64c0.020 24.18 14.8 45.68 37.32 55.68 139.32 61.82 345.68 76.38 384.24 76.58 32.060 0 58.18-24.22 58.18-54v-593.4z" />
<glyph unicode="&#xe924;" glyph-name="bookmark-light" horiz-adv-x="768" d="M672 960h-576c-53.020 0-96-42.98-96-96v-928l384 224 384-224v928c0 53.020-42.98 96-96 96zM704 47.426l-320 186.666-320-186.666v816.574c0 17.644 14.356 32 32 32h576c17.644 0 32-14.356 32-32v-816.574z" />
<glyph unicode="&#xe925;" glyph-name="box-light" d="M1019 590.8l-101.2 303.6c-13 39.2-49.6 65.6-91 65.6h-629.6c-41.4 0-78-26.4-91-65.6l-101.2-303.6c-3.2-9.8-5-20-5-30.4v-528.4c0-53 43-96 96-96h832c53 0 96 43 96 96v528.4c0 10.4-1.6 20.6-5 30.4zM64 560.4c0 3.4 0.6 6.8 1.6 10.2l101.2 303.6c4.4 13 16.6 21.8 30.4 21.8h282.8v-336l-416 0.4zM960 32c0-17.6-14.4-32-32-32h-832c-17.6 0-32 14.4-32 32v464h896v-464zM960 560h-416v336h282.8c13.8 0 26-8.8 30.4-21.8l101.2-303.6c1-3.2 1.6-6.6 1.6-10.2v-0.4z" />
<glyph unicode="&#xe926;" glyph-name="box-open-light" horiz-adv-x="1216" d="M1212.8 672.4l-97.8 205.6c-5.4 11.2-16.2 18-27.8 18-1.2 0-479.2-64-479.2-64s-478 64-479.2 64c-11.6 0-22.4-7-27.8-18l-97.8-205.6c-8.8-18.4 0.6-40.4 19.2-46l99-29.8v-422.6c0-29.4 19-55 46-62l410.8-108.2c26-6.8 47.4-3 59 0l411.2 108.2c27 7.2 46 32.8 46 62v422.6l99 29.8c18.8 5.6 28 27.6 19.4 46zM146 829.4l361.8-48.6-114.2-199.6-319.8 96.2 72.2 152zM182.4 578.2c234.2-70.4 218.6-66.2 224.8-66.2 10.8 0 21 5.8 26.6 15.8l143.8 251v-708.8l-395.2 104v404.2zM1033.6 174l-395.2-104v709l143.8-251c5.8-10 16-15.8 26.6-15.8 6.2 0-10-4.2 224.8 66.2v-404.4zM822.6 581.4l-114.2 199.6 361.6 48.4 72.2-152-319.6-96z" />
<glyph unicode="&#xe927;" glyph-name="briefcase-light" d="M928 704h-224v144c0 26.52-21.48 48-48 48h-288c-26.52 0-48-21.48-48-48v-144h-224c-53.020 0-96-42.98-96-96v-512c0-53.020 42.98-96 96-96h832c53.020 0 96 42.98 96 96v512c0 53.020-42.98 96-96 96zM384 832h256v-128h-256v128zM960 96c0-17.64-14.36-32-32-32h-832c-17.64 0-32 14.36-32 32v288h320v-80c0-26.5 21.5-48 48-48h160c26.5 0 48 21.5 48 48v80h320v-288zM448 320v64h128v-64h-128zM960 448h-896v160c0 17.64 14.36 32 32 32h832c17.64 0 32-14.36 32-32v-160z" />
<glyph unicode="&#xe928;" glyph-name="building-light" horiz-adv-x="896" d="M384 746v-80c0-13.254-10.746-24-24-24h-80c-13.254 0-24 10.746-24 24v80c0 13.254 10.746 24 24 24h80c13.254 0 24-10.746 24-24zM616 770h-80c-13.254 0-24-10.746-24-24v-80c0-13.254 10.746-24 24-24h80c13.254 0 24 10.746 24 24v80c0 13.254-10.746 24-24 24zM360 578h-80c-13.254 0-24-10.746-24-24v-80c0-13.254 10.746-24 24-24h80c13.254 0 24 10.746 24 24v80c0 13.254-10.746 24-24 24zM616 578h-80c-13.254 0-24-10.746-24-24v-80c0-13.254 10.746-24 24-24h80c13.254 0 24 10.746 24 24v80c0 13.254-10.746 24-24 24zM360 386h-80c-13.254 0-24-10.746-24-24v-80c0-13.254 10.746-24 24-24h80c13.254 0 24 10.746 24 24v80c0 13.254-10.746 24-24 24zM616 386h-80c-13.254 0-24-10.746-24-24v-80c0-13.254 10.746-24 24-24h80c13.254 0 24 10.746 24 24v80c0 13.254-10.746 24-24 24zM896-24v-40h-896v40c0 13.254 10.746 24 24 24h40v912c0 26.51 21.49 48 48 48h672c26.51 0 48-21.49 48-48v-912h40c13.254 0 24-10.746 24-24zM768 0v896h-640v-896h256v170c0 13.254 10.746 24 24 24h80c13.254 0 24-10.746 24-24v-170h256z" />
<glyph unicode="&#xe929;" glyph-name="bullhorn-light" horiz-adv-x="1152" d="M1088 590.24v305.76c0 17.48-13.96 64-63.98 64h-0.020c-14.24 0-28.38-4.76-39.96-14.040l-170.060-136.060c-85.42-68.28-192.66-105.9-301.98-105.9h-384c-70.7 0-128-57.3-128-128v-192c0-70.7 57.3-128 128-128l-0.96-64c0-79.54 18.52-154.7 51.12-221.88 10.38-21.38 33.040-34.12 56.8-34.12h212.56c52.1 0 83.38 59.68 51.8 101.12-32.8 43.040-52.3 96.72-52.3 154.88 0 22.22 3.24 43.58 8.82 64h56.16c109.32 0 216.56-37.62 301.96-105.9l170.060-136.060c10.844-8.735 24.783-14.026 39.957-14.040h0.003c49.84 0 64 45.56 64 64v305.76c38.1 22.18 64 62.98 64 110.24 0.020 47.26-25.88 88.060-63.98 110.24zM447.52 0l-211.78 0.060c-29.66 61.12-44.7 124.38-44.72 190.98l0.96 64 0.020 0.96h198.66c-4.62-21.4-7.62-42.86-7.62-64 0-70.58 22.6-137.56 64.48-192zM128 320c-35.28 0-64 28.72-64 64v192c0 35.28 28.72 64 64 64h384v-320h-384zM1024.1 66.14c-0.080-0.5-0.26-1.16-0.5-1.8l-169.66 135.74c-79.96 63.92-176.86 103.64-277.94 115.66v328.52c101.080 12.020 197.98 51.74 277.96 115.68l169.74 135.8c0.060-0.060 0.12-0.1 0.16-0.1 0.080 0 0.12 0.1 0.14 0.34l0.1-829.84z" />
<glyph unicode="&#xe92a;" glyph-name="bullseye-light" horiz-adv-x="992" d="M496 776c-181.3 0-328-146.72-328-328 0-181.3 146.72-328 328-328 181.3 0 328 146.72 328 328 0 181.3-146.72 328-328 328zM496 184c-145.58 0-264 118.42-264 264s118.42 264 264 264 264-118.42 264-264-118.42-264-264-264zM496 608c-88.22 0-160-71.78-160-160s71.78-160 160-160 160 71.78 160 160-71.78 160-160 160zM496 352c-52.94 0-96 43.060-96 96s43.060 96 96 96 96-43.060 96-96-43.060-96-96-96zM496 944c-273.94 0-496-222.060-496-496s222.060-496 496-496 496 222.060 496 496-222.060 496-496 496zM496 16c-238.2 0-432 193.8-432 432s193.8 432 432 432 432-193.8 432-432-193.8-432-432-432z" />
<glyph unicode="&#xe92b;" glyph-name="calendar-day-light" horiz-adv-x="896" d="M800 832h-96v112c0 8.8-7.2 16-16 16h-32c-8.8 0-16-7.2-16-16v-112h-384v112c0 8.8-7.2 16-16 16h-32c-8.8 0-16-7.2-16-16v-112h-96c-53 0-96-43-96-96v-704c0-53 43-96 96-96h704c53 0 96 43 96 96v704c0 53-43 96-96 96zM832 32c0-17.6-14.4-32-32-32h-704c-17.6 0-32 14.4-32 32v544h768v-544zM832 640h-768v96c0 17.6 14.4 32 32 32h704c17.6 0 32-14.4 32-32v-96zM224 192h192c17.6 0 32 14.4 32 32v192c0 17.6-14.4 32-32 32h-192c-17.6 0-32-14.4-32-32v-192c0-17.6 14.4-32 32-32zM256 384h128v-128h-128v128z" />
<glyph unicode="&#xe92c;" glyph-name="calendar-light" horiz-adv-x="896" d="M800 832h-96v104c0 13.254-10.746 24-24 24h-16c-13.254 0-24-10.746-24-24v-104h-384v104c0 13.254-10.746 24-24 24h-16c-13.254 0-24-10.746-24-24v-104h-96c-53.020 0-96-42.98-96-96v-704c0-53.020 42.98-96 96-96h704c53.020 0 96 42.98 96 96v704c0 53.020-42.98 96-96 96zM96 768h704c17.644 0 32-14.356 32-32v-96h-768v96c0 17.644 14.356 32 32 32zM800 0h-704c-17.644 0-32 14.356-32 32v544h768v-544c0-17.644-14.356-32-32-32z" />
<glyph unicode="&#xe92d;" glyph-name="camera-light" d="M648.6 832c6.6 0 12.6-4.2 15-10.4l44.2-117.6h220.2c17.6 0 32-14.4 32-32v-576c0-17.6-14.4-32-32-32h-832c-17.6 0-32 14.4-32 32v576c0 17.6 14.4 32 32 32h220.4l40.2 107.2c4.6 12.4 16.6 20.8 30 20.8h262zM648.6 896h-262c-40 0-75.8-24.8-89.8-62.2l-24.8-65.8h-176c-53 0-96-43-96-96v-576c0-53 43-96 96-96h832c53 0 96 43 96 96v576c0 53-43 96-96 96h-176l-28.6 76c-11.6 31.4-41.4 52-74.8 52zM512 144c-132.4 0-240 107.6-240 240s107.6 240 240 240 240-107.6 240-240-107.6-240-240-240zM512 560c-97 0-176-79-176-176s79-176 176-176 176 79 176 176-79 176-176 176z" />
<glyph unicode="&#xe92e;" glyph-name="caret-circle-down-light" d="M512 944c-274 0-496-222-496-496s222-496 496-496 496 222 496 496-222 496-496 496zM944 448c0-237.4-192.2-432-432-432-237.4 0-432 192.2-432 432 0 237.4 192.2 432 432 432 237.4 0 432-192.2 432-432zM704 512l-192-192-192 192h384zM320 576c-56.8 0-85.6-69-45.2-109.2l192-192c25-25 65.6-25 90.6 0l192 192c40.2 40.2 11.8 109.2-45.2 109.2h-384.2z" />
<glyph unicode="&#xe92f;" glyph-name="caret-circle-left-light" d="M1008 448c0 274-222 496-496 496s-496-222-496-496 222-496 496-496 496 222 496 496zM512 16c-237.4 0-432 192.2-432 432 0 237.4 192.2 432 432 432 237.4 0 432-192.2 432-432 0-237.4-192.2-432-432-432zM576 256l-192 192 192 192v-384zM640 640c0 56.8-69 85.6-109.2 45.2l-192-192c-25-25-25-65.6 0-90.6l192-192c40.2-40.2 109.2-11.8 109.2 45.2v384.2z" />
<glyph unicode="&#xe930;" glyph-name="caret-circle-right-light" d="M16 448c0-274 222-496 496-496s496 222 496 496-222 496-496 496-496-222-496-496zM512 880c237.4 0 432-192.2 432-432 0-237.4-192.2-432-432-432-237.4 0-432 192.2-432 432 0 237.4 192.2 432 432 432zM448 640l192-192-192-192v384zM384 256c0-56.8 69-85.6 109.2-45.2l192 192c25 25 25 65.6 0 90.6l-192 192c-40.2 40.2-109.2 11.8-109.2-45.2v-384.2z" />
<glyph unicode="&#xe931;" glyph-name="caret-circle-up-light" d="M512-48c274 0 496 222 496 496s-222 496-496 496-496-222-496-496 222-496 496-496zM80 448c0 237.4 192.2 432 432 432 237.4 0 432-192.2 432-432 0-237.4-192.2-432-432-432-237.4 0-432 192.2-432 432zM320 384l192 192 192-192h-384zM704 320c56.8 0 85.6 69 45.2 109.2l-192 192c-25 25-65.6 25-90.6 0l-192-192c-40.2-40.2-11.8-109.2 45.2-109.2h384.2z" />
<glyph unicode="&#xe932;" glyph-name="cart-plus-light" horiz-adv-x="1152" d="M1103.982 832h-845.422l-16.658 88.846c-4.258 22.702-24.080 39.154-47.178 39.154h-170.724c-13.254 0-24-10.746-24-24v-16c0-13.254 10.746-24 24-24h157.44l139.854-745.892c-20.684-22.736-33.294-52.948-33.294-86.108 0-70.692 57.308-128 128-128s128 57.308 128 128c0 0.042 0 0.092 0 0.141 0 23.519-6.375 45.549-17.491 64.456l0.325-0.597h290.334c-10.791-18.31-17.166-40.34-17.166-63.859 0-0.050 0-0.099 0-0.149v0.008c0-70.692 57.308-128 128-128s128 57.308 128 128c0 35.986-14.87 68.48-38.776 91.736-5.182 20.482-23.706 36.264-46.57 36.264h-592.096l-24 128h662.762c22.736 0 42.354 15.952 46.992 38.21l86.662 416c6.208 29.808-16.546 57.79-46.994 57.79zM928 128c35.29 0 64-28.71 64-64s-28.71-64-64-64-64 28.71-64 64 28.71 64 64 64zM416 128c35.29 0 64-28.71 64-64s-28.71-64-64-64-64 28.71-64 64 28.71 64 64 64zM1004.312 384h-661.752l-72 384h813.752l-80-384zM544 568v16c0 13.254 10.746 24 24 24h72v72c0 13.254 10.746 24 24 24h16c13.254 0 24-10.746 24-24v-72h72c13.254 0 24-10.746 24-24v-16c0-13.254-10.746-24-24-24h-72v-72c0-13.254-10.746-24-24-24h-16c-13.254 0-24 10.746-24 24v72h-72c-13.254 0-24 10.746-24 24z" />
<glyph unicode="&#xe933;" glyph-name="chart-bar-light" d="M848 256h32c8.8 0 16 7.2 16 16v480c0 8.8-7.2 16-16 16h-32c-8.8 0-16-7.2-16-16v-480c0-8.8 7.2-16 16-16zM656 256h32c8.8 0 16 7.2 16 16v288c0 8.8-7.2 16-16 16h-32c-8.8 0-16-7.2-16-16v-288c0-8.8 7.2-16 16-16zM272 256h32c8.8 0 16 7.2 16 16v160c0 8.8-7.2 16-16 16h-32c-8.8 0-16-7.2-16-16v-160c0-8.8 7.2-16 16-16zM464 256h32c8.8 0 16 7.2 16 16v416c0 8.8-7.2 16-16 16h-32c-8.8 0-16-7.2-16-16v-416c0-8.8 7.2-16 16-16zM1008 128h-944v688c0 8.84-7.16 16-16 16h-32c-8.84 0-16-7.16-16-16v-720c0-17.68 14.32-32 32-32h976c8.84 0 16 7.16 16 16v32c0 8.84-7.16 16-16 16z" />
<glyph unicode="&#xe934;" glyph-name="chart-pie-light" horiz-adv-x="1088" d="M1055.58 384h-474.58l316.060-316.060c5.957-5.932 14.168-9.604 23.237-9.62h0.003c7.64 0 15.24 2.7 21.14 8.26 77.4 72.92 130.64 171.22 146.26 281.72 2.68 18.92-13.020 35.7-32.12 35.7zM919.76 135.76l-184.24 184.24h281.76c-16.24-68.32-49.92-132-97.52-184.24zM448 384v474.58c0 17.66-14.36 32.42-31.48 32.42-1.38 0-2.8-0.1-4.22-0.3-238.32-33.68-420.5-241.9-412.020-491.44 8.66-254.32 226.080-463.26 479.98-463.26 1.96 0 3.86 0.020 5.82 0.040 100.8 1.26 193.94 33.74 270.52 88.060 15.8 11.2 16.84 34.46 3.14 48.16l-311.74 311.74zM485.26 0.040l-5.020-0.040c-218.080 0-408.6 183.84-416 401.44-6.8 200.26 128.42 374.060 319.76 418.9v-462.84l302.42-302.42c-61.12-35.24-129.92-54.16-201.16-55.040zM1023.92 513.6c-16.48 238.92-207.4 429.84-446.32 446.32-0.7 0.060-1.4 0.080-2.080 0.080-17.32 0-31.52-14.9-31.52-32.46v-447.54h447.54c18.28 0 33.64 15.36 32.38 33.6zM608 544v348.2c178.5-27.62 320.56-169.7 348.2-348.2h-348.2z" />
<glyph unicode="&#xe935;" glyph-name="check-circle-light" d="M512 944c-273.934 0-496-222.066-496-496s222.066-496 496-496 496 222.066 496 496-222.066 496-496 496zM512 16c-237.328 0-432 192.11-432 432 0 237.326 192.11 432 432 432 237.328 0 432-192.11 432-432 0-237.326-192.11-432-432-432zM795.26 565.922l-360.96-358.064c-9.41-9.334-24.606-9.274-33.94 0.136l-171.756 173.144c-9.334 9.41-9.274 24.606 0.136 33.94l17.040 16.902c9.41 9.334 24.606 9.274 33.94-0.136l137.952-139.066 326.882 324.26c9.41 9.334 24.606 9.274 33.94-0.136l16.902-17.040c9.336-9.41 9.274-24.606-0.136-33.94z" />
<glyph unicode="&#xe936;" glyph-name="check-light" horiz-adv-x="896" d="M827.010 776.098l-560.030-560.030-197.99 197.99c-9.372 9.372-24.568 9.372-33.942 0l-22.626-22.626c-9.372-9.372-9.372-24.568 0-33.942l237.588-237.588c9.372-9.372 24.568-9.372 33.942 0l599.626 599.626c9.372 9.372 9.372 24.568 0 33.942l-22.628 22.628c-9.372 9.372-24.568 9.372-33.94 0z" />
<glyph unicode="&#xe937;" glyph-name="check-square-light" horiz-adv-x="896" d="M800 896h-704c-53.020 0-96-42.98-96-96v-704c0-53.020 42.98-96 96-96h704c53.020 0 96 42.98 96 96v704c0 53.020-42.98 96-96 96zM800 832c17.646 0 32-14.356 32-32v-704c0-17.644-14.354-32-32-32h-704c-17.644 0-32 14.356-32 32v704c0 17.644 14.356 32 32 32h704zM731.398 635.414l-16.902 17.040c-9.334 9.41-24.53 9.472-33.94 0.136l-326.882-324.26-137.952 139.066c-9.334 9.41-24.53 9.472-33.94 0.136l-17.040-16.902c-9.41-9.334-9.472-24.53-0.136-33.94l171.756-173.144c9.334-9.41 24.53-9.472 33.94-0.136l360.96 358.064c9.408 9.334 9.47 24.53 0.136 33.94z" />
<glyph unicode="&#xe938;" glyph-name="chevron-circle-down-light" d="M512 944c-274 0-496-222-496-496s222-496 496-496 496 222 496 496-222 496-496 496zM944 448c0-237.4-192.2-432-432-432-237.4 0-432 192.2-432 432 0 237.4 192.2 432 432 432 237.4 0 432-192.2 432-432zM529 274.8l230 230.2c9.4 9.4 9.4 24.6 0 34l-14.2 14.2c-9.4 9.4-24.6 9.4-34 0l-198.8-199.2-199 199c-9.4 9.4-24.6 9.4-34 0l-14.2-14.2c-9.4-9.4-9.4-24.6 0-34l230-230.2c9.6-9.2 24.8-9.2 34.2 0.2z" />
<glyph unicode="&#xe939;" glyph-name="chevron-circle-left-light" d="M1008 448c0 274-222 496-496 496s-496-222-496-496 222-496 496-496 496 222 496 496zM512 16c-237.4 0-432 192.2-432 432 0 237.4 192.2 432 432 432 237.4 0 432-192.2 432-432 0-237.4-192.2-432-432-432zM338.8 465l230.2 230c9.4 9.4 24.6 9.4 34 0l14.2-14.2c9.4-9.4 9.4-24.6 0-34l-199.2-198.8 199-199c9.4-9.4 9.4-24.6 0-34l-14.2-14.2c-9.4-9.4-24.6-9.4-34 0l-230.2 230c-9.2 9.6-9.2 24.8 0.2 34.2z" />
<glyph unicode="&#xe93a;" glyph-name="chevron-circle-right-light" d="M16 448c0-274 222-496 496-496s496 222 496 496-222 496-496 496-496-222-496-496zM512 880c237.4 0 432-192.2 432-432 0-237.4-192.2-432-432-432-237.4 0-432 192.2-432 432 0 237.4 192.2 432 432 432zM685.2 431l-230.2-230c-9.4-9.4-24.6-9.4-34 0l-14.2 14.2c-9.4 9.4-9.4 24.6 0 34l199.2 198.8-199 199c-9.4 9.4-9.4 24.6 0 34l14.2 14.2c9.4 9.4 24.6 9.4 34 0l230.2-230c9.2-9.6 9.2-24.8-0.2-34.2z" />
<glyph unicode="&#xe93b;" glyph-name="chevron-circle-up-light" d="M512-48c274 0 496 222 496 496s-222 496-496 496-496-222-496-496 222-496 496-496zM80 448c0 237.4 192.2 432 432 432 237.4 0 432-192.2 432-432 0-237.4-192.2-432-432-432-237.4 0-432 192.2-432 432zM529 621.2l230-230.2c9.4-9.4 9.4-24.6 0-34l-14.2-14.2c-9.4-9.4-24.6-9.4-34 0l-198.8 199.2-199-199c-9.4-9.4-24.6-9.4-34 0l-14.2 14.2c-9.4 9.4-9.4 24.6 0 34l230 230.2c9.6 9.2 24.8 9.2 34.2-0.2z" />
<glyph unicode="&#xe93c;" glyph-name="chevron-down-light" horiz-adv-x="896" d="M887 634.8l-14.2 14.2c-9.4 9.4-24.6 9.4-34 0l-390.8-391-391 391c-9.4 9.4-24.6 9.4-34 0l-14.2-14.2c-9.4-9.4-9.4-24.6 0-34l422-422.2c9.4-9.4 24.6-9.4 34 0l422 422.2c9.6 9.4 9.6 24.6 0.2 34z" />
<glyph unicode="&#xe93d;" glyph-name="chevron-left-light" horiz-adv-x="512" d="M476.95 8.93l14.142 14.14c9.372 9.372 9.372 24.568 0 33.942l-390.986 390.988 390.986 390.988c9.372 9.372 9.372 24.568 0 33.942l-14.142 14.14c-9.372 9.372-24.568 9.372-33.94 0l-422.102-422.1c-9.372-9.372-9.372-24.568 0-33.942l422.102-422.1c9.372-9.372 24.568-9.372 33.94 0.002z" />
<glyph unicode="&#xe93e;" glyph-name="chevron-right-light" horiz-adv-x="512" d="M35.050 887.070l-14.142-14.14c-9.372-9.372-9.372-24.568 0-33.942l390.986-390.988-390.986-390.988c-9.372-9.372-9.372-24.568 0-33.942l14.142-14.14c9.372-9.372 24.568-9.372 33.94 0l422.102 422.1c9.372 9.372 9.372 24.568 0 33.942l-422.102 422.098c-9.372 9.374-24.568 9.374-33.94 0z" />
<glyph unicode="&#xe93f;" glyph-name="chevron-up-light" horiz-adv-x="896" d="M8.93 227.050l14.14-14.142c9.372-9.372 24.568-9.372 33.942 0l390.988 390.986 390.988-390.986c9.372-9.372 24.568-9.372 33.942 0l14.14 14.142c9.372 9.372 9.372 24.568 0 33.94l-422.1 422.102c-9.372 9.372-24.568 9.372-33.942 0l-422.098-422.102c-9.374-9.372-9.374-24.568 0-33.94z" />
<glyph unicode="&#xe940;" glyph-name="circle-light" d="M512 944c-274 0-496-222-496-496s222-496 496-496 496 222 496 496-222 496-496 496zM944 448c0-237.4-192.2-432-432-432-237.4 0-432 192.2-432 432 0 237.4 192.2 432 432 432 237.4 0 432-192.2 432-432z" />
<glyph unicode="&#xe941;" glyph-name="circle-notch-light" d="M576 911.794v-16.338c0.005-11.62 8.271-21.308 19.243-23.51l0.153-0.026c197.88-38.77 348.604-212.842 348.604-423.92 0-237.326-192.11-432-432-432-237.326 0-432 192.11-432 432 0 209.068 149.092 385.018 348.594 423.956 11.131 2.223 19.403 11.914 19.406 23.538v0 16.294c0 15.046-13.69 26.386-28.474 23.596-230.582-43.48-404.798-246.534-403.518-490.048 1.44-274.104 222.954-493.912 497.062-493.334 273.44 0.576 494.93 222.42 494.93 495.998 0 242.374-173.848 444.134-403.648 487.408-14.738 2.776-28.352-8.616-28.352-23.614z" />
<glyph unicode="&#xe942;" glyph-name="clipboard-light" horiz-adv-x="768" d="M672 832h-177.2c0.8 5.2 1.2 10.6 1.2 16 0 61.8-50.2 112-112 112s-112-50.2-112-112c0-5.4 0.4-10.8 1.2-16h-177.2c-53 0-96-43-96-96v-704c0-53 43-96 96-96h576c53 0 96 43 96 96v704c0 53-43 96-96 96zM384 896c26.6 0 48-21.4 48-48s-21.4-48-48-48-48 21.4-48 48 21.4 48 48 48zM704 32c0-17.6-14.4-32-32-32h-576c-17.6 0-32 14.4-32 32v704c0 17.6 14.4 32 32 32h96v-40c0-13.2 10.8-24 24-24h336c13.2 0 24 10.8 24 24v40h96c17.6 0 32-14.4 32-32z" />
<glyph unicode="&#xe943;" glyph-name="clock-light" d="M512 944c-274 0-496-222-496-496s222-496 496-496 496 222 496 496-222 496-496 496zM944 448c0-237.4-192.2-432-432-432-237.4 0-432 192.2-432 432 0 237.4 192.2 432 432 432 237.4 0 432-192.2 432-432zM646.2 271.4l-162.4 118c-6.2 4.6-9.8 11.8-9.8 19.4v319.2c0 13.2 10.8 24 24 24h28c13.2 0 24-10.8 24-24v-292.6l141-102.6c10.8-7.8 13-22.8 5.2-33.6l-16.4-22.6c-7.8-10.6-22.8-13-33.6-5.2z" />
<glyph unicode="&#xe944;" glyph-name="clone-light" d="M928 960h-640c-53.020 0-96-42.98-96-96v-96h-96c-53.020 0-96-42.98-96-96v-640c0-53.020 42.98-96 96-96h640c53.020 0 96 42.98 96 96v96h96c53.020 0 96 42.98 96 96v640c0 53.020-42.98 96-96 96zM768 32c0-17.64-14.36-32-32-32h-640c-17.64 0-32 14.36-32 32v640c0 17.64 14.36 32 32 32h96v-480c0-53.020 42.98-96 96-96h480v-96zM960 224c0-17.64-14.36-32-32-32h-640c-17.64 0-32 14.36-32 32v640c0 17.64 14.36 32 32 32h640c17.64 0 32-14.36 32-32v-640z" />
<glyph unicode="&#xe945;" glyph-name="cog-light" d="M965.392 361.448l-65.22 37.654c1.958 14.684 3.075 31.661 3.075 48.899s-1.117 34.215-3.284 50.863l0.209-1.964 65.22 37.654c19.152 11.056 28.39 33.804 22.092 55.002-22.428 75.498-62.35 143.456-115.070 199.19-15.268 16.14-39.634 19.672-58.874 8.564l-65.124-37.596c-24.475 18.797-52.351 35.208-82.151 47.995l-2.527 0.965v75.228c0 22.26-15.304 41.608-36.968 46.734-75.288 17.818-154.236 17.82-229.54 0-21.662-5.126-36.968-24.472-36.968-46.734v-75.228c-32.327-13.752-60.203-30.162-85.603-49.641l0.925 0.681-65.124 37.596c-19.242 11.108-43.608 7.576-58.874-8.564-52.72-55.734-92.642-123.694-115.070-199.19-6.298-21.198 2.94-43.944 22.092-55.002l65.22-37.654c-1.958-14.684-3.075-31.661-3.075-48.899s1.117-34.215 3.284-50.863l-0.209 1.964-65.22-37.654c-19.152-11.056-28.39-33.804-22.092-55.002 22.428-75.496 62.35-143.456 115.070-199.19 15.268-16.14 39.634-19.672 58.874-8.566l65.124 37.596c24.474-18.798 52.351-35.207 82.151-47.994l2.527-0.964v-75.228c0-22.26 15.304-41.608 36.968-46.734 75.29-17.818 154.236-17.82 229.54 0 21.662 5.126 36.968 24.472 36.968 46.734v75.228c32.326 13.752 60.203 30.162 85.604 49.64l-0.926-0.682 65.124-37.596c19.24-11.108 43.606-7.576 58.874 8.566 52.72 55.734 92.642 123.694 115.070 199.19 6.298 21.198-2.94 43.944-22.092 55.002zM834.434 160.526l-92.618 53.48c-53.976-46.142-73.118-57.752-142.078-82.118v-106.958c-26.375-5.694-56.676-8.955-87.738-8.955s-61.363 3.261-90.578 9.459l2.84-0.504v106.958c-67.242 23.758-86.71 34.79-142.078 82.118l-92.618-53.48c-39.42 44.18-69.378 95.978-87.858 151.916l92.658 53.48c-13.070 70.834-13.076 93.288 0 164.158l-92.658 53.48c18.48 55.938 48.44 107.738 87.858 151.938l92.618-53.52c54.754 46.868 74.126 58.13 142.078 82.138v106.956c26.376 5.703 56.675 8.97 87.738 8.97s61.363-3.267 90.575-9.475l-2.837 0.505v-106.958c67.956-24.010 87.33-35.274 142.078-82.138l92.618 53.52c39.418-44.198 69.378-95.998 87.858-151.938l-92.658-53.48c13.072-70.852 13.076-93.288 0-164.158l92.658-53.48c-18.48-55.936-48.438-107.736-87.858-151.914zM512 640c-105.87 0-192-86.13-192-192s86.13-192 192-192 192 86.13 192 192-86.13 192-192 192zM512 320c-70.58 0-128 57.42-128 128s57.42 128 128 128 128-57.42 128-128-57.42-128-128-128z" />
<glyph unicode="&#xe946;" glyph-name="coin-light" d="M512 832c-282.66 0-512-128.88-512-288v-224c0-141.44 229.34-256 512-256s512 114.56 512 256v224c0 159.12-229.34 288-512 288zM128 226.78c-40.62 29.22-64 61.86-64 93.22v84.68c18.902-18.746 39.861-35.47 62.493-49.789l1.507-0.891zM288 156.14c-37.314 9.853-69.243 21.419-99.818 35.428l3.818-1.568v129.38c26.537-12.225 58.448-23.827 91.401-32.918l4.599-1.082zM480 128.78c-46.364 1.492-90.461 6.239-133.492 14.047l5.492-0.827v128.54c37.63-6.996 81.741-11.69 126.694-13.029l1.306-0.031zM672 142c-37.526-6.997-81.619-11.766-126.545-13.242l-1.455-0.038v128.76c46.259 1.37 90.37 6.064 133.396 13.872l-5.396-0.812zM832 190c-26.756-12.423-58.686-23.969-91.718-32.823l-4.282-0.977v129.2c37.552 10.173 69.463 21.775 100.115 35.669l-4.115-1.669zM960 320c0-31.36-23.38-64-64-93.22v127.22c24.138 15.227 45.097 31.97 64.021 50.761l-0.021-0.021zM512 320c-264 0-448 118-448 224s184 224 448 224 448-118 448-224-184-224-448-224z" />
<glyph unicode="&#xe947;" glyph-name="coins-light" d="M672 896c-97.2 0-185.2-18-249-46.8-1.8-0.8-103-42-103-113.2v-33.4c-167.8-7-320-69.4-320-158.6v-384c0-88.4 157.6-160 352-160s352 71.6 352 160v32.8c179.4 7.4 320 75.8 320 159.2v384c0 74-124.2 160-352 160zM640 160c0-27.8-101-96-288-96s-288 68.2-288 96v100.2c63.6-41.2 168.8-68.2 288-68.2s224.4 27 288 68.2v-100.2zM640 352c0-27.8-101-96-288-96s-288 68.2-288 96v100.2c63.6-41.2 168.8-68.2 288-68.2s224.4 27 288 68.2v-100.2zM352 448c-162 0-293.4 43-293.4 96s131.4 96 293.4 96 293.4-43 293.4-96-131.4-96-293.4-96zM960 352c0-26.2-90-87.2-256-94.6v128.2c105.6 4.4 198.2 29.2 256 66.6v-100.2zM960 544c0-26.2-90.2-86.8-256-94.4v94.4c0 11.2-3.4 22-8.2 32.6 109.2 3.4 204.8 29 264.2 67.6v-100.2zM672 640c-14.6 0-28 1-41.8 1.8-73.8 43.4-170 56.4-231.2 60-12.6 10.6-20.2 22-20.2 34.2 0 53 131.4 96 293.4 96s293.4-43 293.4-96-131.6-96-293.6-96z" />
<glyph unicode="&#xe948;" glyph-name="comment-alt-dots-light" d="M896 960h-768c-70.6 0-128-57.4-128-128v-576c0-70.6 57.4-128 128-128h192v-168c0-14.2 11.6-24 24-24 4.8 0 9.8 1.4 14.2 4.8l249.8 187.2h288c70.6 0 128 57.4 128 128v576c0 70.6-57.4 128-128 128zM960 256c0-35.2-28.8-64-64-64h-309.4l-17-12.8-185.6-139.2v152h-256c-35.2 0-64 28.8-64 64v576c0 35.2 28.8 64 64 64h768c35.2 0 64-28.8 64-64v-576zM256 592c-26.6 0-48-21.4-48-48s21.4-48 48-48 48 21.4 48 48-21.4 48-48 48zM512 592c-26.6 0-48-21.4-48-48s21.4-48 48-48 48 21.4 48 48-21.4 48-48 48zM768 592c-26.6 0-48-21.4-48-48s21.4-48 48-48 48 21.4 48 48-21.4 48-48 48z" />
<glyph unicode="&#xe949;" glyph-name="comment-alt-light" d="M896 960h-768c-70.6 0-128-57.4-128-128v-576c0-70.6 57.4-128 128-128h192v-168c0-14.2 11.6-24 24-24 4.8 0 9.8 1.4 14.2 4.8l249.8 187.2h288c70.6 0 128 57.4 128 128v576c0 70.6-57.4 128-128 128zM960 256c0-35.2-28.8-64-64-64h-309.4l-17-12.8-185.6-139.2v152h-256c-35.2 0-64 28.8-64 64v576c0 35.2 28.8 64 64 64h768c35.2 0 64-28.8 64-64v-576z" />
<glyph unicode="&#xe94a;" glyph-name="comment-alt-lines-light" d="M896 960h-768c-70.6 0-128-57.4-128-128v-576c0-70.6 57.4-128 128-128h192v-168c0-14.2 11.6-24 24-24 4.8 0 9.8 1.4 14.2 4.8l249.8 187.2h288c70.6 0 128 57.4 128 128v576c0 70.6-57.4 128-128 128zM960 256c0-35.2-28.8-64-64-64h-309.4l-17-12.8-185.6-139.2v152h-256c-35.2 0-64 28.8-64 64v576c0 35.2 28.8 64 64 64h768c35.2 0 64-28.8 64-64v-576zM560 480h-288c-8.8 0-16-7.2-16-16v-32c0-8.8 7.2-16 16-16h288c8.8 0 16 7.2 16 16v32c0 8.8-7.2 16-16 16zM752 672h-480c-8.8 0-16-7.2-16-16v-32c0-8.8 7.2-16 16-16h480c8.8 0 16 7.2 16 16v32c0 8.8-7.2 16-16 16z" />
<glyph unicode="&#xe94b;" glyph-name="comment-dots-light" d="M256 528c-26.6 0-48-21.4-48-48s21.4-48 48-48 48 21.4 48 48-21.4 48-48 48zM512 528c-26.6 0-48-21.4-48-48s21.4-48 48-48 48 21.4 48 48-21.4 48-48 48zM768 528c-26.6 0-48-21.4-48-48s21.4-48 48-48 48 21.4 48 48-21.4 48-48 48zM512 896c-282.8 0-512-186.2-512-416 0-95.2 39.8-182.4 105.8-252.6-29.8-78.8-91.8-145.6-92.8-146.4-13.2-14-16.8-34.4-9.2-52s25-29 44.2-29c123 0 220 51.4 278.2 92.6 57.8-18.2 120.2-28.6 185.8-28.6 282.8 0 512 186.2 512 416s-229.2 416-512 416zM512 128c-56.6 0-112.6 8.6-166.4 25.6l-30.4 9.6-26-18.4c-46-32.6-117-70.6-205.2-79.2 24 30.2 59.6 80.8 81.6 139.2l14.2 37.4-27.4 29.2c-57.8 61.2-88.4 133.4-88.4 208.6 0 194 201 352 448 352s448-158 448-352-201-352-448-352z" />
<glyph unicode="&#xe94c;" glyph-name="comment-light" d="M512 832c247 0 448-158 448-352s-201-352-448-352c-56.6 0-112.6 8.6-166.4 25.6l-30.4 9.6-26-18.4c-46-32.6-117-70.6-205.2-79.2 24 30.2 59.6 80.8 81.6 139.2l14.2 37.4-27.4 29.2c-57.8 61.2-88.4 133.4-88.4 208.6 0 194 201 352 448 352zM512 896c-282.8 0-512-186.2-512-416 0-95.2 39.8-182.4 105.8-252.6-29.8-78.8-91.8-145.6-92.8-146.4-13.2-14-16.8-34.4-9.2-52s24.8-29 44-29c123 0 220 51.4 278.2 92.6 58-18.2 120.4-28.6 186-28.6 282.8 0 512 186.2 512 416s-229.2 416-512 416z" />
<glyph unicode="&#xe94d;" glyph-name="comments-alt-light" horiz-adv-x="1152" d="M1024 640h-192v192c0 70.6-57.4 128-128 128h-576c-70.6 0-128-57.4-128-128v-320c0-70.6 57.4-128 128-128h64v-104c0-14.2 11.6-24 24-24 4.8 0 9.8 1.4 14.2 4.8l153.8 87v-155.8c0-70.6 57.4-128 128-128h192l217.8-123.2c4.4-3.2 9.4-4.8 14.2-4.8 12.4 0 24 9.8 24 24v104h64c70.6 0 128 57.4 128 128v320c0 70.6-57.4 128-128 128zM128 448c-35.2 0-64 28.8-64 64v320c0 35.2 28.8 64 64 64h576c35.2 0 64-28.8 64-64v-320c0-35.2-28.8-64-64-64h-272.8l-14.6-8.4-160.6-90.8v99.2zM1088 192c0-35.2-28.8-64-64-64h-128v-99.2l-175 99.2h-209c-35.2 0-64 28.8-64 64v192h256c70.6 0 128 57.4 128 128v64h192c35.2 0 64-28.8 64-64z" />
<glyph unicode="&#xe94e;" glyph-name="comments-light" horiz-adv-x="1152" d="M1139.8 77.8c-1 0.8-45.2 48.4-75.8 109.8 55 54.2 88 122.2 88 196.4 0 160-153 292.2-352.4 315.8-62.8 115.2-211 196.2-383.6 196.2-229.8 0-416-143.2-416-320 0-74 33-142 88-196.4-30.6-61.4-74.6-109-75.4-109.8-12.6-13.4-16.2-33-8.8-50 7.2-17 24-28 42.4-28 107 0 193.4 40.4 250.4 77.6 18.2-4.2 36.8-7.4 56-9.6 63-115 211-196 383.6-196 41.6 0 81.6 4.8 119.6 13.6 57-37 143.2-77.6 250.4-77.6 18.4 0 35 11 42.4 28 7.2 17 3.8 36.6-8.8 50zM310.8 332l-26.4 6-22.8-14.8c-40.2-26.2-101-56.4-175.4-65 17.6 22.6 40.4 55.2 59 92.8l20.8 41.6-33 32.6c-31.6 31-69 82.4-69 150.8 0 141.2 158 256 352 256s352-114.8 352-256-158-256-352-256c-35.4 0-70.8 4-105.2 12zM890.4 131.2l-22.8 14.8-26.4-6.2c-34.4-8-69.8-12-105.2-12-130.2 0-244 51.8-304.8 128.6 222.6 6.4 400.8 146.8 400.8 319.6 0 19-2.6 37.4-6.6 55.4 150.8-29 262.6-128.8 262.6-247.4 0-68.4-37.4-119.8-69-150.8l-33-32.6 20.6-41.4c18.8-37.8 41.6-70.4 59-92.8-74.2 8.4-135 38.8-175.2 64.8z" />
<glyph unicode="&#xe94f;" glyph-name="compass-light" horiz-adv-x="992" d="M529.94 414.060c18.76 18.74 18.76 49.14 0 67.88-18.74 18.74-49.14 18.74-67.88 0-18.76-18.74-18.76-49.14 0-67.88 18.74-18.74 49.14-18.74 67.88 0zM702.88 710c-4.52 0-9.020-0.74-13.42-2.32l-309.8-111.7c-14.98-5.4-26.2-16.62-31.6-31.6l-111.7-309.82c-11.3-31.34 20.66-68.54 52.8-68.54 4.52 0 9.020 0.74 13.42 2.32l309.8 111.7c14.98 5.4 26.2 16.62 31.6 31.6l111.7 309.8c11.28 31.34-20.66 68.56-52.8 68.56zM585.58 358.42l-280.2-101.020 101.020 280.22 280.22 101.020-101.040-280.22zM496 944c-273.94 0-496-222.060-496-496s222.060-496 496-496 496 222.060 496 496-222.060 496-496 496zM496 16c-238.2 0-432 193.8-432 432s193.8 432 432 432 432-193.8 432-432-193.8-432-432-432z" />
<glyph unicode="&#xe950;" glyph-name="copy-light" horiz-adv-x="896" d="M867.882 828.118l-103.764 103.764c-17.373 17.373-41.372 28.118-67.882 28.118h-344.236c-53.020 0-96-42.98-96-96v-96h-160c-53.020 0-96-42.98-96-96v-640c0-53.020 42.98-96 96-96h448c53.020 0 96 42.98 96 96v96h160c53.020 0 96 42.98 96 96v536.236c0 26.51-10.745 50.509-28.118 67.882v0zM704 895.018c5.851-1.475 10.883-4.406 14.862-8.39v0l103.764-103.766c3.983-3.98 6.915-9.011 8.343-14.642l0.047-0.22h-127.016v127.018zM576 32c0-17.644-14.356-32-32-32h-448c-17.644 0-32 14.356-32 32v640c0 17.644 14.356 32 32 32h160v-480c0-53.020 42.98-96 96-96h224v-96zM832 224c0-17.644-14.356-32-32-32h-448c-17.644 0-32 14.356-32 32v640c0 17.644 14.356 32 32 32h288v-144c0-26.4 21.6-48 48-48h144v-480z" />
<glyph unicode="&#xe951;" glyph-name="credit-card-blank-light" horiz-adv-x="1152" d="M1056 898h-960c-53 0-96-43-96-96v-704c0-53 43-96 96-96h960c53 0 96 43 96 96v704c0 53-43 96-96 96zM1088 98c0-17.6-14.4-32-32-32h-960c-17.6 0-32 14.4-32 32v704c0 17.6 14.4 32 32 32h960c17.6 0 32-14.4 32-32v-704zM384 234v-16c0-13.2-10.8-24-24-24h-144c-13.2 0-24 10.8-24 24v16c0 13.2 10.8 24 24 24h144c13.2 0 24-10.8 24-24zM768 234v-16c0-13.2-10.8-24-24-24h-272c-13.2 0-24 10.8-24 24v16c0 13.2 10.8 24 24 24h272c13.2 0 24-10.8 24-24z" />
<glyph unicode="&#xe952;" glyph-name="cube-light" d="M478.2 947.4l-416-156c-37.4-14-62.2-50-62.2-90v-450.2c0-36.4 20.6-69.6 53-85.8l416-208c27-13.6 58.8-13.6 85.8 0l416 208c32.6 16.2 53 49.6 53 85.8v450.2c0 40-24.8 75.8-62.2 89.8l-416 156c-21.6 8.4-45.6 8.4-67.4 0.2zM512 891.6l448-168v-0.6l-448-194.2-448 194.2v0.6l448 168zM64 653.2l416-180.2v-449.4l-416 208v421.6zM544 23.6v449.4l416 180.2v-421.8l-416-207.8z" />
<glyph unicode="&#xe953;" glyph-name="database-light" horiz-adv-x="896" d="M448 896c212 0 384-57.5 384-128v-64c0-70.5-172-128-384-128s-384 57.5-384 128v64c0 70.5 172 128 384 128zM832 597v-85c0-70.5-172-128-384-128s-384 57.5-384 128v85c82.5-58 233.5-85 384-85s301.498 27 384 85zM832 405v-85c0-70.5-172-128-384-128s-384 57.5-384 128v85c82.5-58 233.5-85 384-85s301.498 27 384 85zM832 213v-85c0-70.5-172-128-384-128s-384 57.5-384 128v85c82.5-58 233.5-85 384-85s301.498 27 384 85zM448 960c-156.284 0-448-37.602-448-192v-640c0-154.676 292.192-192 448-192 156.284 0 448 37.602 448 192v640c0 154.676-292.192 192-448 192z" />
<glyph unicode="&#xe954;" glyph-name="desktop-light" horiz-adv-x="1152" d="M1056 960h-960c-53 0-96-43-96-96v-576c0-53 43-96 96-96h384l-48-192h-144c-17.6 0-32-14.4-32-32s14.4-32 32-32h576c17.6 0 32 14.4 32 32s-14.4 32-32 32h-144l-48 192h384c53 0 96 43 96 96v576c0 53-43 96-96 96zM498 0l32 128h92l32-128h-156zM1088 288c0-17.6-14.4-32-32-32h-960c-17.6 0-32 14.4-32 32v576c0 17.6 14.4 32 32 32h960c17.6 0 32-14.4 32-32v-576z" />
<glyph unicode="&#xe955;" glyph-name="dice-d6-light" horiz-adv-x="896" d="M863.76 727.74l-384 223.66c-9.097 5.404-20.055 8.598-31.76 8.598s-22.663-3.194-32.051-8.758l0.291 0.16-384-223.68c-19.94-11.6-32.24-33.22-32.24-56.64v-446.18c0-23.42 12.3-45.020 32.24-56.64l384-223.66c9.097-5.404 20.055-8.598 31.76-8.598s22.663 3.194 32.051 8.758l-0.291-0.16 384 223.66c19.94 11.62 32.24 33.24 32.24 56.64v446.18c0 23.42-12.3 45.040-32.24 56.66zM448 895.84l351.5-205.72-351.5-205.080-352.34 205.56 352.34 205.24zM64.42 634.7l351.58-205.060v-410.74l-352 206.020 0.42 409.78zM480 18.32v411.32l351.96 205.28-0.42-411.34-351.54-205.26z" />
<glyph unicode="&#xe956;" glyph-name="dollar-sign-light" horiz-adv-x="512" d="M383.8 441.4l-236.4 74.2c-49 15.4-83.4 66.4-83.4 123.8 0 71 51.2 128.6 114 128.6h147.6c44.4 0 86.6-17.2 120.2-49 6.2-5.8 15.6-6.4 22-0.6l23.8 21.6c6.8 6.2 7.2 16.8 0.8 23.2-45.6 44-105.4 69-166.6 69h-37.8v111.8c0 8.8-7.2 16-16 16h-32c-8.8 0-16-7.2-16-16v-112h-46c-98.2 0-178-86.4-178-192.6 0-85.2 52.8-161.2 128.2-184.8l236.4-74.2c49.2-15.4 83.4-66.4 83.4-123.8 0-70.8-51.2-128.6-114-128.6h-147.6c-44.4 0-86.6 17.2-120.2 49-6.2 5.8-15.6 6.4-22 0.6l-23.6-21.6c-6.6-6-7.2-16.8-0.6-23 45.6-44 105.4-69 166.6-69h37.4v-112c0-8.8 7.2-16 16-16h32c8.8 0 16 7.2 16 16v112h46c98.2 0 178 86.4 178 192.6 0 85-52.8 161-128.2 184.8z" />
<glyph unicode="&#xe957;" glyph-name="download-light" d="M904 96c0-22-18-40-40-40s-40 18-40 40 18 40 40 40 40-18 40-40zM736 136c-22 0-40-18-40-40s18-40 40-40 40 18 40 40-18 40-40 40zM1024 232v-208c0-48.6-39.4-88-88-88h-848c-48.6 0-88 39.4-88 88v208c0 48.6 39.4 88 88 88h198.8l-112.8 112.8c-50.4 50.4-14.6 136.6 56.6 136.6h105.4v310.6c0 44.2 35.8 80 80 80h192c44.2 0 80-35.8 80-80v-310.6h105.4c71.2 0 106.8-86.2 56.6-136.6l-112.8-112.8h198.8c48.6 0 88-39.4 88-88zM500.6 196.6c6.2-6.2 16.4-6.2 22.6 0l281.4 281.4c10 10 3 27.4-11.4 27.4h-169.2v374.6c0 8.8-7.2 16-16 16h-192c-8.8 0-16-7.2-16-16v-374.6h-169.4c-14.2 0-21.4-17.2-11.4-27.4l281.4-281.4zM960 232c0 13.2-10.8 24-24 24h-262.8l-104.6-104.6c-31.2-31.2-82-31.2-113.2 0l-104.6 104.6h-262.8c-13.2 0-24-10.8-24-24v-208c0-13.2 10.8-24 24-24h848c13.2 0 24 10.8 24 24v208z" />
<glyph unicode="&#xe958;" glyph-name="ellipsis-h-light" horiz-adv-x="640" d="M384 448c0-35.4-28.6-64-64-64s-64 28.6-64 64 28.6 64 64 64 64-28.6 64-64zM560 512c-35.4 0-64-28.6-64-64s28.6-64 64-64 64 28.6 64 64-28.6 64-64 64zM80 512c-35.4 0-64-28.6-64-64s28.6-64 64-64 64 28.6 64 64-28.6 64-64 64z" />
<glyph unicode="&#xe959;" glyph-name="ellipsis-v-light" horiz-adv-x="128" d="M64 512c35.4 0 64-28.6 64-64s-28.6-64-64-64-64 28.6-64 64 28.6 64 64 64zM0 688c0-35.4 28.6-64 64-64s64 28.6 64 64-28.6 64-64 64-64-28.6-64-64zM0 208c0-35.4 28.6-64 64-64s64 28.6 64 64-28.6 64-64 64-64-28.6-64-64z" />
<glyph unicode="&#xe95a;" glyph-name="envelope-light" d="M928 832h-832c-53 0-96-43-96-96v-576c0-53 43-96 96-96h832c53 0 96 43 96 96v576c0 53-43 96-96 96zM96 768h832c17.6 0 32-14.4 32-32v-82.8c-43.8-37-106.4-88-301.2-242.6-33.8-26.8-100.4-91.4-146.8-90.6-46.4-0.8-113.2 63.8-146.8 90.6-194.8 154.6-257.4 205.6-301.2 242.6v82.8c0 17.6 14.4 32 32 32zM928 128h-832c-17.6 0-32 14.4-32 32v410c45.6-37.4 117.6-95.2 261.4-209.4 41-32.8 113.4-105 186.6-104.6 72.8-0.6 144.6 71 186.6 104.6 143.8 114.2 215.8 172 261.4 209.4v-410c0-17.6-14.4-32-32-32z" />
<glyph unicode="&#xe95b;" glyph-name="exchange-alt-light" d="M24 576h744v-112c0-59.104 73.056-86.144 111.834-42.52l128 144c21.554 24.248 21.554 60.79 0 85.038l-128 144c-38.764 43.61-111.834 16.61-111.834-42.518v-112h-744c-13.254 0-24-10.746-24-24v-16c0-13.254 10.746-24 24-24zM832 752l128-144-128-144v288zM1000 320h-744v112c0 59.104-73.056 86.144-111.834 42.52l-128-144c-21.554-24.248-21.554-60.79 0-85.038l128-144c38.764-43.61 111.834-16.61 111.834 42.518v112h744c13.254 0 24 10.746 24 24v16c0 13.254-10.746 24-24 24zM192 144l-128 144 128 144v-288z" />
<glyph unicode="&#xe95c;" glyph-name="exchange-light" d="M1016.97 591.030l-184.97-184c-9.374-9.372-24.568-9.372-33.94 0l-14.142 14.14c-9.374 9.372-9.374 24.568 0 33.942l121.868 120.888h-881.786c-13.254 0-24 10.746-24 24v16c0 13.254 10.746 24 24 24h881.81l-121.892 120.888c-9.374 9.372-9.374 24.568 0 33.942l14.14 14.14c9.374 9.372 24.568 9.372 33.942 0l184.97-184c9.374-9.372 9.372-24.568 0-33.94zM7.030 271.030l184.97-184c9.374-9.372 24.568-9.372 33.942 0l14.14 14.14c9.374 9.372 9.374 24.568 0 33.942l-121.892 120.888h881.81c13.254 0 24 10.746 24 24v16c0 13.254-10.746 24-24 24h-881.786l121.868 120.888c9.374 9.372 9.374 24.568 0 33.942l-14.142 14.14c-9.372 9.372-24.568 9.374-33.94 0l-184.97-184c-9.372-9.372-9.374-24.568 0-33.94z" />
<glyph unicode="&#xe95d;" glyph-name="exclamation-circle-light" d="M512 880c237.242 0 432-192.15 432-432 0-238.582-193.22-432-432-432-238.488 0-432 193.124-432 432 0 238.406 193.204 432 432 432zM512 944c-273.914 0-496-222.166-496-496 0-273.994 222.086-496 496-496s496 222.006 496 496c0 273.834-222.086 496-496 496zM489.020 704h45.958c13.646 0 24.548-11.364 23.98-25l-14-336c-0.536-12.856-11.112-23-23.98-23h-17.958c-12.866 0-23.444 10.146-23.98 23l-14 336c-0.566 13.636 10.334 25 23.98 25zM512 280c-30.928 0-56-25.072-56-56s25.072-56 56-56 56 25.072 56 56-25.072 56-56 56z" />
<glyph unicode="&#xe95e;" glyph-name="exclamation-light" horiz-adv-x="384" d="M278.63 896c13.778 0 24.728-11.574 23.964-25.332l-29.334-528c-0.706-12.718-11.226-22.668-23.964-22.668h-114.592c-12.738 0-23.256 9.95-23.964 22.668l-29.334 528c-0.764 13.758 10.186 25.332 23.964 25.332h173.26zM192 256c70.58 0 128-57.42 128-128s-57.42-128-128-128-128 57.42-128 128 57.42 128 128 128zM278.63 960h-173.26c-50.456 0-90.664-42.492-87.864-92.882l29.334-528c1.304-23.456 11.728-44.356 27.708-59.33-45.322-35.152-74.548-90.124-74.548-151.788 0-105.87 86.13-192 192-192s192 86.13 192 192c0 61.664-29.226 116.636-74.548 151.788 15.982 14.974 26.406 35.874 27.708 59.33l29.334 528c2.8 50.38-37.398 92.882-87.864 92.882z" />
<glyph unicode="&#xe95f;" glyph-name="exclamation-square-light" horiz-adv-x="896" d="M439 320h18c12.8 0 23.4 10.2 24 23l14 336c0.6 13.6-10.4 25-24 25h-46c-13.6 0-24.6-11.4-24-25l14-336c0.6-12.8 11.2-23 24-23zM800 896h-704c-53 0-96-43-96-96v-704c0-53 43-96 96-96h704c53 0 96 43 96 96v704c0 53-43 96-96 96zM832 96c0-17.6-14.4-32-32-32h-704c-17.6 0-32 14.4-32 32v704c0 17.6 14.4 32 32 32h704c17.6 0 32-14.4 32-32zM448 280c-31 0-56-25-56-56s25-56 56-56 56 25 56 56-25 56-56 56z" />
<glyph unicode="&#xe960;" glyph-name="exclamation-triangle-light" horiz-adv-x="1152" d="M540.4 640h71c6.8 0 12.2-5.6 12-12.4l-15-392c-0.2-6.4-5.6-11.6-12-11.6h-41c-6.4 0-11.8 5-12 11.6l-15 392c-0.2 6.8 5.2 12.4 12 12.4zM576 184c-31 0-56-25-56-56s25-56 56-56 56 25 56 56-25 56-56 56zM1139 80l-479.8 832c-36.8 64-129.4 64-166.4 0l-479.8-832c-36.8-63.8 9.2-144 83.2-144h959.8c73.6 0 120 80 83 144zM1056 0h-960c-24.6 0-40 26.6-27.8 48l480 832c12.2 21.2 43.2 21.4 55.4 0l480-832c12.4-21.2-3-48-27.6-48z" />
<glyph unicode="&#xe961;" glyph-name="expand-light" horiz-adv-x="896" d="M0 600v248c0 26.6 21.4 48 48 48h248c13.2 0 24-10.8 24-24v-16c0-13.2-10.8-24-24-24h-232v-232c0-13.2-10.8-24-24-24h-16c-13.2 0-24 10.8-24 24zM600 896h248c26.6 0 48-21.4 48-48v-248c0-13.2-10.8-24-24-24h-16c-13.2 0-24 10.8-24 24v232h-232c-13.2 0-24 10.8-24 24v16c0 13.2 10.8 24 24 24zM896 296v-248c0-26.6-21.4-48-48-48h-248c-13.2 0-24 10.8-24 24v16c0 13.2 10.8 24 24 24h232v232c0 13.2 10.8 24 24 24h16c13.2 0 24-10.8 24-24zM296 0h-248c-26.6 0-48 21.4-48 48v248c0 13.2 10.8 24 24 24h16c13.2 0 24-10.8 24-24v-232h232c13.2 0 24-10.8 24-24v-16c0-13.2-10.8-24-24-24z" />
<glyph unicode="&#xe962;" glyph-name="external-link-alt-light" d="M880 448h-32c-8.837 0-16-7.163-16-16v0-400c0-17.673-14.327-32-32-32v0h-704c-17.673 0-32 14.327-32 32v0 704c0 17.673 14.327 32 32 32v0h400c8.837 0 16 7.163 16 16v0 32c0 8.837-7.163 16-16 16v0h-400c-53.019 0-96-42.981-96-96v0-704c0-53.019 42.981-96 96-96v0h704c53.019 0 96 42.981 96 96v0 400c0 8.837-7.163 16-16 16v0zM960 960h-0.12l-192.32-0.34c-56.9 0-85.32-69.080-45.16-109.24l70.56-70.56-530-530c-4.361-4.346-7.059-10.358-7.059-17s2.698-12.654 7.058-16.999l16.981-16.981c4.346-4.361 10.358-7.059 17-7.059s12.654 2.698 16.999 7.058l530.001 530.001 70.56-70.54c40-40 109.14-12 109.24 45.14l0.26 192.42c0 0.030 0 0.065 0 0.1 0 35.346-28.654 64-64 64 0 0 0 0 0 0v0zM959.66 703.66l-192 192 192.34 0.34z" />
<glyph unicode="&#xe963;" glyph-name="external-link-light" d="M880 448h-32c-8.837 0-16-7.163-16-16v0-400c0-17.673-14.327-32-32-32v0h-704c-17.673 0-32 14.327-32 32v0 704c0 17.673 14.327 32 32 32v0h400c8.837 0 16 7.163 16 16v0 32c0 8.837-7.163 16-16 16v0h-400c-53.019 0-96-42.981-96-96v0-704c0-53.019 42.981-96 96-96v0h704c53.019 0 96 42.981 96 96v0 400c0 8.837-7.163 16-16 16v0zM1000 960l-272-0.68c-13.255 0-24-10.745-24-24v0-20c0-13.255 10.745-24 24-24v0l180 0.68 1.4-1.42-646.38-646.3c-4.361-4.346-7.059-10.358-7.059-17s2.698-12.654 7.058-16.999l11.321-11.321c4.346-4.361 10.358-7.059 17-7.059s12.654 2.698 16.999 7.058l646.241 646.361 1.42-1.4-0.68-180c0-13.255 10.745-24 24-24v0h20c13.255 0 24 10.745 24 24v0l0.68 272.080c0 13.255-10.745 24-24 24v0z" />
<glyph unicode="&#xe964;" glyph-name="external-link-square-alt-light" horiz-adv-x="896" d="M800 896h-704c-53.020 0-96-42.98-96-96v-704c0-53.020 42.98-96 96-96h704c53.020 0 96 42.98 96 96v704c0 53.020-42.98 96-96 96zM832 96c0-17.644-14.356-32-32-32h-704c-17.644 0-32 14.356-32 32v704c0 17.644 14.356 32 32 32h704c17.644 0 32-14.356 32-32v-704zM640 704h-0.112l-192.334-0.334c-56.884-0.098-85.32-69.078-45.144-109.254l70.544-70.544-275.864-275.868c-9.372-9.372-9.372-24.568 0-33.94l16.968-16.97c9.374-9.372 24.57-9.372 33.942 0l275.868 275.868 70.544-70.544c40.046-40.046 109.156-11.96 109.254 45.144l0.334 192.332c0.060 35.404-28.65 64.11-64 64.11zM639.666 447.666l-192 192 192.334 0.334-0.334-192.334z" />
<glyph unicode="&#xe965;" glyph-name="external-link-square-light" horiz-adv-x="896" d="M800 896h-704c-53.020 0-96-42.98-96-96v-704c0-53.020 42.98-96 96-96h704c53.020 0 96 42.98 96 96v704c0 53.020-42.98 96-96 96zM832 96c0-17.644-14.356-32-32-32h-704c-17.644 0-32 14.356-32 32v704c0 17.644 14.356 32 32 32h704c17.644 0 32-14.356 32-32v-704zM199.030 210.344c-9.372 9.372-9.372 24.568 0 33.942l390.3 390.3-1.414 1.414-179.916-0.684c-13.254 0-24 10.746-24 24v19.998c0 13.256 10.744 24 24 24l272 0.686c13.254 0 24-10.744 24-24l-0.686-272c0-13.254-10.746-24-24-24h-19.998c-13.254 0-24 10.746-24 24l0.684 179.916-1.414 1.414-390.3-390.3c-9.372-9.372-24.568-9.372-33.942 0l-11.314 11.314z" />
<glyph unicode="&#xe966;" glyph-name="eye-light" horiz-adv-x="1152" d="M576 384c70.692 0 128 57.308 128 128s-57.308 128-128 128v0c-2 0-3.76-0.48-5.7-0.58 3.613-9.645 5.705-20.791 5.705-32.425 0-52.467-42.533-95-95-95-11.634 0-22.78 2.091-33.082 5.919l0.657-0.214c0-2-0.58-3.76-0.58-5.7 0-70.692 57.308-128 128-128v0zM1145.040 477.2c-108.46 211.62-323.18 354.8-569.040 354.8s-460.64-143.28-569.040-354.82c-4.387-8.495-6.959-18.542-6.959-29.19s2.572-20.695 7.129-29.553l-0.17 0.363c108.46-211.62 323.18-354.8 569.040-354.8s460.64 143.28 569.040 354.82c4.387 8.495 6.959 18.542 6.959 29.19s-2.572 20.695-7.129 29.553l0.17-0.363zM576 768c141.385 0 256-114.615 256-256s-114.615-256-256-256c-141.385 0-256 114.615-256 256v0c0.159 141.321 114.679 255.841 255.985 256h0.015zM576 128c-214.72 0-410.92 122.62-512 320 57.931 112.088 147.223 201.090 256.246 257.113l3.314 1.547c-41.74-54.040-67.56-121-67.56-194.66 0-176.731 143.269-320 320-320s320 143.269 320 320v0c0 73.66-25.82 140.62-67.56 194.66 112.336-57.569 201.628-146.571 258.012-255.376l1.548-3.284c-101.060-197.38-297.28-320-512-320z" />
<glyph unicode="&#xe967;" glyph-name="eye-slash-light" horiz-adv-x="1280" d="M1274-10.5l-1228 967c-2.711 2.181-6.196 3.501-9.989 3.501-5.039 0-9.534-2.33-12.467-5.97l-0.024-0.031-20-25.020c-2.186-2.713-3.509-6.201-3.509-9.999 0-5.034 2.324-9.524 5.959-12.457l0.031-0.024 1228-967c2.713-2.187 6.203-3.511 10.001-3.511 5.044 0 9.542 2.334 12.475 5.98l0.024 0.031 20 25.020c2.181 2.711 3.501 6.196 3.501 9.989 0 5.039-2.33 9.534-5.97 12.467l-0.031 0.024zM640 768c141.321-0.159 255.841-114.679 256-255.985v-0.015c0-43.24-11.8-83.38-30.8-119.14l50.9-40c27.2 46.96 43.9 100.86 43.9 159.14 0 73.66-25.82 140.62-67.56 194.66 112.368-57.565 201.692-146.567 258.112-255.378l1.548-3.282c-35.46-67.978-80.811-125.707-134.927-173.785l-0.613-0.535 50.64-39.88c56.94 52.56 105.74 114.52 141.86 185.020 4.387 8.495 6.959 18.542 6.959 29.19s-2.572 20.695-7.129 29.553l0.17-0.363c-108.46 211.62-323.18 354.8-569.060 354.8-0.098 0-0.214 0-0.33 0-94.272 0-183.648-20.957-263.726-58.466l3.816 1.606 91.54-72c45.18 39.82 103.82 64.86 168.7 64.86zM761.72 474.34c3.99 11.755 6.293 25.294 6.293 39.372 0 69.754-56.546 126.3-126.3 126.3-0.602 0-1.204-0.004-1.804-0.013l0.091 0.001c-2 0-3.78-0.48-5.7-0.58 3.61-9.377 5.701-20.225 5.701-31.562 0-11.81-2.269-23.089-6.395-33.427l0.214 0.609zM326.48 572.66c-3.964-18.167-6.315-39.092-6.479-60.537l-0.001-0.123c-0.001-0.363-0.002-0.792-0.002-1.222 0-176.057 142.723-318.78 318.78-318.78 48.533 0 94.532 10.846 135.707 30.245l-1.945-0.824-59.16 46.58c-23.4-7.060-47.7-12-73.36-12-141.325 0.159-255.849 114.677-256.020 255.984v0.016c0 4.88 1.18 9.44 1.44 14.24zM640 128c-214.72 0-410.94 122.62-512 320 34.86 68 82.18 125.44 136.62 173.44l-51.72 40.74c-56.96-52.56-105.74-114.5-141.86-185-4.387-8.495-6.959-18.542-6.959-29.19s2.572-20.695 7.129-29.553l-0.17 0.363c108.38-211.62 323.1-354.8 568.96-354.8 0.095 0 0.208 0 0.321 0 94.275 0 183.654 20.957 263.735 58.466l-3.816-1.606-58.5 46c-63.62-24.54-131.44-38.86-201.74-38.86z" />
<glyph unicode="&#xe968;" glyph-name="file-chart-line-light" horiz-adv-x="768" d="M272 320h-32c-8.8 0-16-7.2-16-16v-192c0-8.8 7.2-16 16-16h32c8.8 0 16 7.2 16 16v192c0 8.8-7.2 16-16 16zM400 512h-32c-8.8 0-16-7.2-16-16v-384c0-8.8 7.2-16 16-16h32c8.8 0 16 7.2 16 16v384c0 8.8-7.2 16-16 16zM480 368v-256c0-8.8 7.2-16 16-16h32c8.8 0 16 7.2 16 16v256c0 8.8-7.2 16-16 16h-32c-8.8 0-16-7.2-16-16zM739.8 764.040l-167.76 167.76c-18 18-42.4 28.2-67.78 28.2h-408.28c-52.98-0.2-95.98-43.2-95.98-96.18v-831.84c0-52.98 43-95.98 95.98-95.98h576.040c52.98 0 95.98 43 95.98 95.98v664.080c0 25.38-10.2 49.98-28.2 67.98zM512.060 894.82c5.6-1.4 10.6-4.2 14.8-8.4l167.76-167.76c4.2-4.2 7-9.2 8.4-14.8h-190.96v190.96zM704.020 31.98c0-17.6-14.4-32-32-32h-576.040c-17.6 0-32 14.4-32 32v831.84c0 17.6 14.4 32.18 32 32.18h352.080v-208.14c0-26.6 21.4-47.86 48-47.86h207.96v-608.020z" />
<glyph unicode="&#xe969;" glyph-name="file-chart-pie-light" horiz-adv-x="768" d="M739.8 764.040l-167.76 167.76c-18 18-42.4 28.2-67.78 28.2h-408.28c-52.98-0.2-95.98-43.2-95.98-96.18v-831.84c0-52.98 43-95.98 95.98-95.98h576.040c52.98 0 95.98 43 95.98 95.98v664.080c0 25.38-10.2 49.98-28.2 67.98zM512.060 894.82c5.6-1.4 10.6-4.2 14.8-8.4l167.76-167.76c4.2-4.2 7-9.2 8.4-14.8h-190.96v190.96zM704.020 31.98c0-17.6-14.4-32-32-32h-576.040c-17.6 0-32 14.4-32 32v831.84c0 17.6 14.4 32.18 32 32.18h352.080v-208.14c0-26.6 21.4-47.86 48-47.86h207.96v-608.020zM384 576v-256h255.98c0.020 0 0 0.020 0 0.040-0.020 141.36-114.58 255.94-255.94 255.96h-0.040zM448 501.020c54.44-19.32 97.7-62.56 117-117.020h-117v117.020zM352 128c-88.24 0-160 71.78-160 160 0 77.26 55.040 141.9 128 156.76v64c-108.26-15.7-192-108.22-192-220.76 0-123.5 100.5-224 224-224 112.54 0 205.080 83.74 220.76 192h-64c-14.86-72.94-79.48-128-156.76-128z" />
<glyph unicode="&#xe96a;" glyph-name="file-image-light" horiz-adv-x="768" d="M318 288l-79 79c-9.4 9.4-24.6 9.4-34 0l-78-78-1-225h512v288l-111 111c-9.4 9.4-24.6 9.4-34 0l-175-175zM510 389.4l64-64v-197.4h-383.8l0.6 134.4 31.2 31.2 96-96c40.6 40.6 155.4 155.2 192 191.8zM254 448c70.6 0 128 57.4 128 128s-57.4 128-128 128-128-57.4-128-128 57.4-128 128-128zM254 640c35.2 0 64-28.8 64-64s-28.8-64-64-64-64 28.8-64 64 28.8 64 64 64zM739.8 764.2l-167.8 167.8c-18 18-42.4 28.2-67.8 28.2h-408.2c-53-0.2-96-43.2-96-96.2v-832c0-53 43-96 96-96h576c53 0 96 43 96 96v664.2c0 25.4-10.2 50-28.2 68zM512 895c5.6-1.4 10.6-4.2 14.8-8.4l167.8-167.8c4.2-4.2 7-9.2 8.4-14.8h-191v191zM704 32c0-17.6-14.4-32-32-32h-576c-17.6 0-32 14.4-32 32v832c0 17.6 14.4 32 32 32h352v-208c0-26.6 21.4-48 48-48h208v-608z" />
<glyph unicode="&#xe96b;" glyph-name="file-light" horiz-adv-x="768" d="M739.8 764.2l-167.8 167.8c-18 18-42.4 28.2-67.8 28.2h-408.2c-53-0.2-96-43.2-96-96.2v-832c0-53 43-96 96-96h576c53 0 96 43 96 96v664.2c0 25.4-10.2 50-28.2 68zM694.6 718.8c4.2-4.2 7-9.2 8.4-14.8h-191v191c5.6-1.4 10.6-4.2 14.8-8.4l167.8-167.8zM672 0h-576c-17.6 0-32 14.4-32 32v832c0 17.6 14.4 32 32 32h352v-208c0-26.6 21.4-48 48-48h208v-608c0-17.6-14.4-32-32-32z" />
<glyph unicode="&#xe96c;" glyph-name="filter-light" d="M959.936 960h-895.86c-56.85 0-85.534-68.974-45.256-109.254l365.18-365.256v-373.49c0-0.001 0-0.002 0-0.002 0-19.17 8.429-36.371 21.784-48.099l0.072-0.062 128-111.966c40.876-35.766 106.144-7.36 106.144 48.164v485.456l365.19 365.256c40.2 40.198 11.71 109.254-45.254 109.254zM576 512v-512l-128 112v400l-384 384h896l-384-384z" />
<glyph unicode="&#xe96d;" glyph-name="fingerprint-light" d="M512 620.16c-56.56-0.82-105.68-19.24-142.74-56.34-36-36-55.38-83.88-54.56-134.88 1.56-100.46-7.82-201-28-298.78-3.62-17.32 7.56-34.24 24.82-37.82 17-3.32 34.18 7.54 37.82 24.88 21.12 102.34 31 207.56 29.38 312.7-0.5 33.54 12.18 65 35.82 88.62 37.32 37.32 84.54 37.6 97.5 37.6 74.24-1.1 132.82-60.38 133.94-132.12 1.56-100.74-5.94-201.72-22.24-300.12-2.88-17.44 8.88-33.9 26.32-36.78 1.82-0.32 3.56-0.44 5.32-0.44 15.38 0 28.94 11.1 31.5 26.78 16.94 102.16 24.68 206.96 23.12 311.58-1.74 106-89.62 193.52-198 195.12zM511.82 447.98c-17.68-0.28-31.74-14.82-31.5-32.5 2.24-146.78-16.44-289.98-55.56-430.14l-2.44-8.66c-3.7-13.26 3.48-40.68 30.82-40.68 14 0 26.82 9.22 30.82 23.32l2.44 8.74c40.82 146.16 60.32 295.48 57.94 448.42-0.28 17.68-16.46 31.8-32.52 31.5zM225.32 660.42c-50.38-61.96-77.44-140.22-76.18-220.3 1.24-79.12-5.24-158.28-19.18-235.22-3.12-17.4 8.38-34.060 25.82-37.22 1.94-0.34 3.82-0.5 5.74-0.5 15.12 0 28.62 10.84 31.44 26.28 14.68 81.060 21.44 164.36 20.18 247.64-1.060 66.020 20.38 127.9 61.82 178.94 11.18 13.72 9.060 33.88-4.62 45.020-13.7 11.1-33.82 9.14-45.020-4.64zM1023.76 454.36c-0.5 33-4.38 66.060-11.5 98.28-3.82 17.22-20.68 28-38.12 24.34-17.24-3.82-28.18-20.88-24.38-38.16 6.18-28 9.56-56.78 10-85.46 0.24-15.32 0.32-30.62 0.18-45.94-0.12-17.66 14.060-32.1 31.74-32.24h0.24c17.56 0 31.88 14.16 32 31.74 0.14 15.82 0.080 31.62-0.16 47.44zM505.2 959.9c-139.94 2.68-268.56-49.66-364.56-145.72-92.56-92.62-142.38-215.7-140.32-346.58 0.24-15.1 0.12-30.18-0.32-45.24-0.5-17.66 13.44-32.4 31.12-32.9h0.88c17.24 0 31.5 13.74 32 31.1 0.44 16 0.56 32.040 0.32 48.060-1.8 113.38 41.38 220.080 121.56 300.32 83.56 83.68 197.8 128.74 318.3 126.96 149.38-2.18 289.74-76.46 375.5-198.64 10.24-14.46 30.24-17.94 44.56-7.82 14.5 10.16 18 30.1 7.82 44.56-97.5 138.96-257.060 223.4-426.86 225.9zM507.76 790.040c-1.815 0.033-3.956 0.051-6.101 0.051-29.902 0-58.964-3.599-86.776-10.386l2.498 0.515c-17.18-4.060-27.82-21.32-23.74-38.52 4.060-17.16 21.5-27.74 38.5-23.72 24.24 5.72 50.18 8.5 74.62 8.060 165.56-2.44 302.24-135.12 304.74-295.78 1.24-79.3-2.68-159.18-11.62-237.4-2-17.56 10.62-33.4 28.18-35.4 1.24-0.16 2.44-0.22 3.68-0.22 16 0 29.88 12.040 31.74 28.38 9.24 80.94 13.24 163.58 12 245.64-2.98 194.88-167.98 355.84-367.72 358.78z" />
<glyph unicode="&#xe96e;" glyph-name="flag-alt-light" d="M945 960c-14 0-28.6-3-42.4-9.2-101-45.4-175.6-60.6-238.2-60.6-132.2 0-209 69-361.6 69-63.2 0-140.4-13-238.8-46.4v15.2c0 17.6-14.4 32-32 32s-32-14.4-32-32v-976c0-8.8 7.2-16 16-16h32c8.8 0 16 7.2 16 16v200.8c88.4 31.6 163.2 44 229 44 162.4 0 275.6-68.8 438.2-68.8 70.6 0 150.2 13 247.4 50 28 10.8 45.6 35.8 45.6 62.4v652.8c-0.2 40.8-37.4 66.8-79.2 66.8zM731 192c-151.2 0-266 68.8-438.2 68.8-73.4 0-148.8-13-229-39.6v624.4c92 33.4 170.6 49.6 238.8 49.6 139 0 216.8-69 361.6-69 79.6 0 163.6 21 264.2 66.2 18.8 8.4 31.4 1 31.4-11.2v-640.2c-1.6-5-117.6-49-228.8-49z" />
<glyph unicode="&#xe96f;" glyph-name="flask-light" horiz-adv-x="896" d="M869.8 138.6l-293.8 384.2v373.2h52c6.6 0 12 5.4 12 12v40c0 6.6-5.4 12-12 12h-360c-6.6 0-12-5.4-12-12v-40c0-6.6 5.4-12 12-12h52v-373.2l-293.8-384.2c-63.4-83-4.2-202.6 100-202.6h643.6c104.4 0 163.4 119.6 100 202.6zM769.8 0h-643.6c-51.4 0-80.6 58.8-49.2 99.6l300.4 393c4.2 5.6 6.6 12.4 6.6 19.4v384h128v-384c0-7 2.4-13.8 6.6-19.4l300.4-393c31.2-40.8 2.4-99.6-49.2-99.6z" />
<glyph unicode="&#xe970;" glyph-name="folder-light" d="M389.48 768l109.26-109.26c12-12 28.28-18.74 45.26-18.74h384c17.68 0 32-14.32 32-32v-448c0-17.68-14.32-32-32-32h-832c-17.68 0-32 14.32-32 32v576c0 17.68 14.32 32 32 32h293.48zM96 832c-53.020 0-96-42.98-96-96v-576c0-53.020 42.98-96 96-96h832c53.020 0 96 42.98 96 96v448c0 53.020-42.98 96-96 96h-384l-109.26 109.26c-12 12-28.28 18.74-45.26 18.74h-293.48z" />
<glyph unicode="&#xe971;" glyph-name="frown-light" horiz-adv-x="992" d="M496 944c-274 0-496-222-496-496s222-496 496-496 496 222 496 496-222 496-496 496zM496 16c-238.2 0-432 193.8-432 432s193.8 432 432 432 432-193.8 432-432-193.8-432-432-432zM496 320c-88.8 0-172.4-39.2-229.6-107.6-11.4-13.6-9.6-33.8 4-45 13.6-11.4 33.8-9.6 45 4 44.8 53.6 110.6 84.4 180.4 84.4s135.6-30.8 180.4-84.4c10.6-12.8 30.8-16 45-4 13.6 11.4 15.4 31.6 4 45-56.8 68.4-140.4 107.6-229.2 107.6zM336 480c35.4 0 64 28.6 64 64s-28.6 64-64 64-64-28.6-64-64 28.6-64 64-64zM656 480c35.4 0 64 28.6 64 64s-28.6 64-64 64-64-28.6-64-64 28.6-64 64-64z" />
<glyph unicode="&#xe972;" glyph-name="frown-open-light" horiz-adv-x="992" d="M496 944c-274 0-496-222-496-496s222-496 496-496 496 222 496 496-222 496-496 496zM496 16c-238.2 0-432 193.8-432 432s193.8 432 432 432 432-193.8 432-432-193.8-432-432-432zM336 480c35.4 0 64 28.6 64 64s-28.6 64-64 64-64-28.6-64-64 28.6-64 64-64zM656 608c-35.4 0-64-28.6-64-64s28.6-64 64-64 64 28.6 64 64-28.6 64-64 64zM496 384c-79.4 0-205.2-47.4-223-149-3.8-21.8 4-44.4 20.6-59 16.4-14.6 39.8-19.8 61.2-13.2 58.6 18 112.8 29.2 141.2 29.2s82.6-11.2 141.2-29.2c15.4-4.8 40.2-5.2 61.2 13.2 16.4 14.6 24.4 37.2 20.6 59-17.8 101.6-143.6 149-223 149zM496 256c-35.4 0-93.8-11.6-160-32 10.4 59.4 100.2 96 160 96s149.6-36.6 160-96c-66.2 20.4-124.6 32-160 32z" />
<glyph unicode="&#xe973;" glyph-name="gem-light" horiz-adv-x="1152" d="M927.4 960h-702.8c-8.4 0-16.2-4.4-20.6-11.6l-200.6-325.6c-5.4-8.8-4.4-20.2 2.4-28l552-650.4c9.6-11.2 26.8-11.2 36.4 0l552 650.4c6.8 7.8 7.6 19.2 2.4 28l-200.6 325.6c-4.4 7.2-12.2 11.6-20.6 11.6zM900.2 888l148.6-248h-166l-113.6 248h131zM690 888l113.6-248h-455.4l113.8 248h228zM251.8 888h131l-113.6-248h-166l148.6 248zM122.4 576h146l163.6-384-309.6 384zM346.4 576h459l-229.4-527.6-229.6 527.6zM720 192l163.6 384h146l-309.6-384z" />
<glyph unicode="&#xe974;" glyph-name="genderless-light" horiz-adv-x="576" d="M288 672c123.8 0 224-100 224-224 0-123.8-100-224-224-224-123.8 0-224 100-224 224 0 123.8 100 224 224 224zM288 736c-159 0-288-129-288-288s129-288 288-288 288 129 288 288-129 288-288 288z" />
<glyph unicode="&#xe975;" glyph-name="gift-light" d="M928 672h-78.6c19 26.8 30.6 59.8 30.6 96 0 88.2-66.8 160-149 160-84.6 0-133.6-50.8-219-191.6-85.4 140.8-134.4 191.6-219 191.6-82.2 0-149-71.8-149-160 0-36.2 11.6-69.2 30.6-96h-78.6c-53 0-96-43-96-96v-192c0-17.6 14.4-32 32-32h32v-288c0-53 43-96 96-96h704c53 0 96 43 96 96v288h32c17.6 0 32 14.4 32 32v192c0 53-43 96-96 96zM552.4 679.2c99 166.6 132 184.8 178.6 184.8 46.8 0 85-43 85-96s-38.2-96-85-96h-183l4.4 7.2zM293 864c46.8 0 79.6-18.2 178.6-184.8l4.2-7.2h-183c-46.8 0-85 43-85 96 0.2 53 38.4 96 85.2 96zM384 32h-224c-17.6 0-32 14.4-32 32v288h256v-320zM384 416h-320v160c0 17.6 14.4 32 32 32h288v-192zM576 32h-128v576h128v-576zM896 64c0-17.6-14.4-32-32-32h-224v320h256v-288zM960 416h-320v192h288c17.6 0 32-14.4 32-32v-160z" />
<glyph unicode="&#xe976;" glyph-name="globe-africa-light" horiz-adv-x="992" d="M496 944c-273.92 0-496-222.060-496-496s222.080-496 496-496 496 222.060 496 496-222.080 496-496 496zM882.42 640h-35.42c-34.76 0-63-28.24-63-63l0.56-12.94-25.24-13.38c-5.32-0.96-16.82-1.32-30.18-1.94-64.62-3.040-93.76-5.34-105.82-29.22l-8-20.24 36.88-55.22c11.427-17.014 30.596-28.060 52.345-28.060 0.012 0 0.025 0 0.037 0h-0.002l15.44 1 0.18-22.040-37.62-50.18c-5.436-7.309-9.396-16.046-11.254-25.536l-0.066-0.404-8.38-45.12c-20.76-19-39.24-40.6-54.94-64.16l-26.060-39.060c-9.32-13.96-33.060-12.66-40.56 2.56-8.373 16.365-13.291 35.695-13.32 56.171v59.769c0 34.76-28.24 63-63 63h-51.76c-20.62 0-40 8.040-54.62 22.62-14.56 14.6-22.62 34-22.62 54.62v28.12c0 24.18 11.56 47.32 30.88 61.82l55.24 41.38c21.88 16.54 55.44 20.84 82.62 7.28l29.44-14.72c15-7.46 32.060-8.76 48.12-3.4l94.62 31.54c25.231 8.581 43.060 32.064 43.060 59.712 0 0.017 0 0.034 0 0.051v-0.003c0 34.76-28.24 63-63 63l-19.44-0.32-13.88 13.88c-11.88 11.88-27.68 18.44-44.5 18.44l-179.16-1.020-0.76 7.84 28.88 7.22c15.32 3.82 28.5 13.12 37.12 26.12l15.32 23.82h48.44c34.76 0 63 28.24 63 63v5.88c127.48-29.080 233.4-114.6 290.42-228.88zM496 16c-238.2 0-432 193.8-432 432s193.8 432 432 432c11.080 0 21.92-0.84 32.78-1.66l0.22-14.34h-48.44c-21.060 0-40.68-10.5-52.38-28.040l-15.56-23.84-28.94-7.22c-28.060-7.060-47.68-32.18-47.68-61.080v-8.82c0-34.76 28.24-63 63-63l179.44 0.32 13.88-13.88c11.88-11.9 27.68-18.44 44.5-18.44l19.88 1.94-93.88-31.56-29.44 14.72c-44.68 22.34-106.76 19-149.68-13.34l-55.18-41.38c-35.4-26.54-56.52-68.78-56.52-113v-28.12c0-37.72 14.68-73.18 41.38-99.88s62.12-41.38 99.86-41.38l50.76 1v-59.76c0-29.38 6.94-58.76 20.060-84.84 14.88-29.84 44.88-48.4 78.24-48.4 29.32 0 56.5 14.56 72.82 38.96l26.060 39.1c12.88 19.28 28 36.94 44.82 52.34 10.18 9.24 16.94 21.32 19.5 34.9l8.44 45.24 37.5 50c8.12 10.84 12.56 24.24 12.56 37.78v22.68c0 34.76-28.24 63-63 63l-15.56-0.4-2.44 3.66c10.76 0.68 21.62 1.22 29.060 1.56 31.76 1.46 41.32 2.1 50.32 6.6l30.82 15.4c21.5 10.76 34.82 32.34 34.82 56.34l-1 12.84h61.62c12.58-40.46 19.38-83.46 19.38-128-0.020-238.2-193.82-432-432.020-432z" />
<glyph unicode="&#xe977;" glyph-name="globe-americas-light" horiz-adv-x="992" d="M496 944c-273.94 0-496-222.060-496-496s222.060-496 496-496 496 222.060 496 496-222.060 496-496 496zM927.44 437.1l-85.64 21.42c-3.94 1-7.32 3.34-9.5 6.66l-35.94 53.94c-1.673 2.499-2.67 5.573-2.67 8.88s0.997 6.381 2.707 8.938l-0.037-0.058 39.18 58.78c1.56 2.32 3.62 4.18 6.12 5.4l47.94 23.98c24.46-54.1 38.4-113.92 38.4-177.040 0-3.68-0.46-7.24-0.56-10.9zM64 448c0 23.84 2.44 47.060 6.18 69.86 14.32-21.2 29.040-42.92 39.82-58.72 11.76-17.34 25.62-33.22 42.76-48.68 21.44-19.38 45.12-35.66 70.32-48.32 27.62-13.94 68.12-35.9 96.56-51.66 10.060-5.6 16.38-16.32 16.38-27.94v-64.040c0-25.62 10-49.76 28.12-67.88 25.32-25.32 37.82-63.34 35.88-79.88v-43.62c-192.12 43.82-336.020 215.7-336.020 420.88zM463.84 17.62l-0.16 48.88c5 37.16-18.88 93.96-54.32 129.38-5.94 5.96-9.38 14.22-9.38 22.62v64.040c0 34.94-18.94 67.1-49.44 83.94-29 16.060-70.38 38.54-98.68 52.82-20.12 10.1-39.060 23.12-57.88 40.1-11.625 10.568-21.875 22.299-30.679 35.101l-0.441 0.679c-19.32 28.38-51.080 75.44-70.8 104.7 51.96 137.74 171.96 242.28 319.12 271.7l103.58-103.58-30.060-30.060c-18.060-18.060-18.68-47.060-1.88-65.88l-11.44-0.060c-12.5 0-24.38-4.82-33.44-13.6l-19.82-19.28c-15.12-14.6-18.94-37.060-9.5-55.9l8-15.96c-13.88 5.5-29.56 6.24-44.060 1.32l-62.38-20.78c-22.371-7.603-38.18-28.423-38.18-52.935 0-0.023 0-0.046 0-0.069v0.004c0-21.32 11.82-40.46 30.88-50l22.18-11.1c21.44-10.72 45.24-16.76 69.24-17.6 4.76-4.6 12.5-15.12 17.38-21.78 11.82-16.16 23-31.44 38-38.94l6.76-3.38h141.060c8.44 0 16.68-3.4 22.62-9.38l27.38-27.38c5.23-5.273 8.471-12.525 8.5-20.534v-0.006c0-16.1-6.56-31.84-18.12-43.32l-22.68-22.66c-9.565-9.637-16.692-21.707-20.37-35.2l-0.13-0.56-2.24-8.82c-1.88-7.38-3.68-14.76-6.38-22l-53.56-144.34c-12.060-1.020-24.18-1.84-36.5-1.84-10.88 0.040-21.52 0.88-32.18 1.66zM605.48 30.6l40.52 109.22c3.56 9.4 6.060 19.060 8.5 28.72l2.060 8.1c0.68 2.62 2.12 5.1 8.18 11.16l18.38 18.32c23.44 23.28 36.88 55.6 36.88 88.62 0 24.5-9.94 48.46-27.24 65.78l-27.38 27.38c-17.88 17.88-42.62 28.12-67.88 28.12h-121.88c-3.82 4.46-8.68 11.18-12.32 16.12-16.42 22.42-35.060 47.86-63.3 47.86-16 0-32 3.78-46.32 10.94l-4.68 2.34 43.82 14.6 18.56-16.12c8.76-7.56 19.88-11.76 31.44-11.76h11.32c16.76 0 32 8.5 40.82 22.78 8.82 14.24 9.62 31.72 2.12 46.68l-25.94 51.9 6.76 6.62h11.5c12.82 0 24.88 5 33.94 14.060l16 16c18.060 18.060 18.68 47.060 1.88 65.88l18.82 18.82c12.060 12.1 18.76 28.16 18.76 45.24s-6.68 33.16-18.76 45.24l-66.62 66.62c0.88 0 1.74 0.14 2.62 0.14 152.26 0 286.080-79.36 363.040-198.7l-45.96-22.98c-12.623-6.404-22.995-15.623-30.579-26.875l-0.181-0.285-39.18-58.78c-18-26.96-18-61.78 0-88.76l35.94-53.94c11.060-16.56 27.76-28.34 47.18-33.22l94.76-23.68c-29.44-166.3-154.080-299.74-315.58-342.16z" />
<glyph unicode="&#xe978;" glyph-name="globe-asia-light" horiz-adv-x="992" d="M496 944c-273.92 0-496-222.060-496-496s222.080-496 496-496 496 222.060 496 496-222.080 496-496 496zM496 880c37.76 0 74.18-5.36 109.1-14.5l-103.86-87.56c-14.24-9.44-22.38-25.88-21.38-42.88 1.060-17.060 11.24-32.38 26.5-40.040l21.62-10.82v-128.38c-3.5 1.1-7.12 1.76-10.88 1.88-14.24 0-28.94-7.12-36.5-19.82l-35.36-57.88c-17.060 0-33.18-6.66-45.24-18.76l-11.32-11.32c-9.060-9.060-14.060-21.12-14.060-33.94s5-24.88 14.060-33.94l11.32-11.32v-18.72h-44.24l-45.18 90.46c-6.921 13.606-19.764 23.341-35.041 25.862l-0.279 0.038c-14.76 2.46-30.76-2.56-41.56-13.44l-38.94-38.92h-129.14c-0.78 10.6-1.62 21.2-1.62 32 0 238.2 193.8 432 432 432zM75.12 352h119.62c17.060 0 33.18 6.66 45.24 18.76l23.24 23.22 35.24-70.62c10.94-21.82 32.88-35.34 57.24-35.34h44.3c35.32 0 64 28.72 64 64v18.76c0 16.68-6.68 33.060-18.44 44.94l0.32 0.32c22.38 0 43.44 11.94 54.88 31.060l21.68 36.12c6.32-2.060 13.5-3.18 21.56-3.18 26.44 0 48 21.54 48 48v156.22c0 24.32-13.44 46.18-35.12 57.12l118.14 99.34c149-68.24 252.98-218.4 252.98-392.72 0-45.42-7.14-89.16-20.18-130.32-2.64 3.54-4.76 7.4-7.92 10.58l-9.76 9.76v5.98c0 39.7-32.3 72-72 72h-12.14c-11 0-21.58-2.54-31.1-7.14-9.709 4.509-21.074 7.14-33.054 7.14-0.023 0-0.046 0-0.070 0h-24.176c-16.74 0-32.78-5.14-46.42-14.84l-47.44-33.8-76.5-30.28c-30.56-12.22-50.28-41.38-50.28-74.28v-20.42c0-21.36 8.32-41.46 23.42-56.56l23.84-23.82c18.12-18.12 42.24-28.12 67.88-28.12h20.68c7.84 0 15.68 0.96 23.28 2.86l36.78 9.2 21.82-21.82c10.76-10.76 23.78-18.26 37.86-22.9-71.84-53.28-160.4-85.22-256.52-85.22-205.18 0-377.060 143.9-420.88 336zM818 161.020c-1.74-0.28-3.36-1.020-5.14-1.020h-30.32c-8.48 0-16.62 3.38-22.62 9.38l-26.020 26.020c-9.691 9.686-23.077 15.676-37.862 15.676-4.609 0-9.082-0.582-13.35-1.677l0.371 0.081-42.54-10.64c-2.54-0.64-5.14-0.96-7.76-0.96h-20.68c-8.48 0-16.62 3.38-22.62 9.38l-23.82 23.82c-2.892 2.897-4.68 6.897-4.68 11.314 0 0.002 0 0.004 0 0.006v0 20.4c0 6.54 3.98 12.42 10.060 14.86l78.68 31.48c3.96 1.58 7.72 3.64 11.18 6.1l47.42 33.78c2.581 1.847 5.801 2.955 9.279 2.96h24.181c6.46 0 12.3-3.88 14.78-9.86l10.7-25.7c1.238-2.913 4.075-4.919 7.38-4.92h7.6c3.56 0 6.7 2.34 7.68 5.76l8.4 28.94c1 3.42 4.12 5.76 7.68 5.76h12.12c4.42 0 8-3.58 8-8v-25.86c0-4.24 1.68-8.32 4.68-11.32l23.82-23.82c6-6 9.38-14.14 9.38-22.62v-37.5c-14.408-23.295-29.572-43.498-46.344-62.233l0.364 0.413z" />
<glyph unicode="&#xe979;" glyph-name="globe-europe-light" horiz-adv-x="992" d="M368 721.6c0 14-11.4 25.4-25.4 25.4h-0.2c-6.8 0-13.2-2.6-17.8-7.4l-57-57c-4.8-4.8-7.4-11.2-7.4-17.8v-0.2c0-14 11.4-25.4 25.4-25.4h36c6.8 0 13.2 2.6 17.8 7.4l21 21c4.8 4.8 7.4 11.2 7.4 17.8v36.2zM496 944c-274 0-496-222-496-496s222-496 496-496 496 222 496 496-222 496-496 496zM592 27.2v68.8c0 53-43 96-96 96h-40.4c-7.8 0-26.2 6.2-32.4 10.8l-44.4 33.4c-6.8 5-10.8 13.2-10.8 21.6v47.8c0 9.4 5 18.2 13 23.2l85.8 51.4c4.2 2.6 9 3.8 13.8 3.8h62.4c6.4 0 12.6-2.4 17.6-6.4l104.4-89.6h60.4l34.6-34.6c19-19 44.2-29.4 71-29.4h33.6c-59.8-98.2-157.4-170.6-272.6-196.8zM897 288h-65.8c-9.6 0-19 3.8-25.8 10.6l-34.6 34.6c-12 12-28.2 18.8-45.2 18.8h-36.6l-86.4 74.2c-16.4 14.2-37.4 21.8-59.2 21.8h-62.4c-16.4 0-32.6-4.4-46.8-13l-85.8-51.4c-27.4-16.4-44.2-46-44.2-78v-47.8c0-28.6 13.4-55.6 36.4-72.8l44.4-33.4c17.2-13 49.2-23.6 70.8-23.6h40.4c17.6 0 32-14.4 32-32v-78.4c-10.6-0.8-21.2-1.6-32-1.6-238.2 0-432 193.8-432 432 0 237.8 193 431.2 430.6 432l-30.8-22.2c-20.4-15.4-32-38.4-32-62.8v-46.4c0-12.8 6.2-34 11.8-44.6-1.6-4.2-42.2-30-49.2-37-17.2-17.2-26.6-40-26.6-64.2v-32.8c0-50 40.8-90.8 90.8-90.8h50.6c22 0 42.4 7.8 58.4 21.2 7.8-2.8 16.4-4.2 25.2-4.2h26.8c51.2 0 64.4 40.4 72.2 43 10.2-18.2 27-32.4 47-39-8.6-28.4-1.8-60.6 20.2-83.2l36.4-38.2c17.4-17.8 41.2-27.8 65.4-27.8h55.4c-4.8-21.6-11.4-42.6-19.4-63zM861.4 415.2c-7.2 0-14.2 3-19.2 8l-37 38.8c-3.509 3.579-5.675 8.486-5.675 13.899 0 5.513 2.246 10.501 5.873 14.099l0.001 0.001c25.2 25.2 21 17.2 21 35.6 0 5-2 9.8-5.6 13.4l-15.8 15.8c-3.6 3.6-8.4 5.6-13.4 5.6h-26.8c-17 0-25.2 20.6-13.4 32.4l15.8 14.6c3.6 3.6 8.4 5.6 13.4 5.6h16.6c10.4 0 19 8.4 19 19v20.4c0 10.4-8.4 19-19 19h-56.4c-14.8 0-26.8-12-26.8-26.8v-11.2c0-11.6-7.4-21.8-18.4-25.4l-53-17.6c-8.6-2.8-9.2-10-9.2-16.4 0-7.4-6-13.4-13.4-13.4h-26.8c-7.4 0-13.4 6-13.4 13.4 0 16.8-25 17.2-30.6 6-18-24.8-23-36.4-39.8-36.4h-50.6c-14.8 0-26.8 12-26.8 26.8v32.8c0 7.2 2.8 14 7.8 19 39 28 59.2 35.2 59.2 63 0 5.8 3.6 11 9.2 12.8l67.2 22.4c2.8 1 5.4 2.4 7.4 4.6l45 45c10 10 7 29.8-13.4 29.8h-34.8l-26.8-37.8v-13.4c0-7.4-6-13.4-13.4-13.4h-30c-7.4 0-13.4 6-13.4 13.4v46.4c0 4.2 2 8.2 5.4 10.8l88 63.8c193.4-43 338.6-215.6 338.6-421.6 0-11-0.8-22-1.6-32.8h-65z" />
<glyph unicode="&#xe97a;" glyph-name="globe-light" horiz-adv-x="992" d="M496 944c-274 0-496-222-496-496s222-496 496-496 496 222 496 496-222 496-496 496zM882.4 640h-165c-18 88.8-48.2 164.4-86.4 218.2 110-36.4 200.4-115.8 251.4-218.2zM672 448c0-45.8-3.2-88.4-8.6-128h-334.8c-5.4 39.6-8.6 82.2-8.6 128s3.2 88.4 8.6 128h334.8c5.4-39.6 8.6-82.2 8.6-128zM496 880c53.8 0 122.8-88.2 156.2-240h-312.4c33.4 151.8 102.4 240 156.2 240zM361 858.2c-38-53.6-68.4-129.2-86.4-218.2h-165c51 102.4 141.4 181.8 251.4 218.2zM64 448c0 44.6 6.8 87.6 19.4 128h181c-5.2-41-8.4-83.6-8.4-128s3-87 8.4-128h-181c-12.6 40.4-19.4 83.4-19.4 128zM109.6 256h165c18-88.8 48.2-164.4 86.4-218.2-110 36.4-200.4 115.8-251.4 218.2zM496 16c-53.8 0-122.8 88.2-156.2 240h312.4c-33.4-151.8-102.4-240-156.2-240zM631 37.8c38 53.6 68.4 129.2 86.4 218.2h165c-51-102.4-141.4-181.8-251.4-218.2zM727.6 320c5.2 41 8.4 83.6 8.4 128s-3 87-8.4 128h181c12.6-40.4 19.4-83.4 19.4-128s-6.8-87.6-19.4-128h-181z" />
<glyph unicode="&#xe97b;" glyph-name="grin-alt-light" horiz-adv-x="992" d="M496 944c-274 0-496-222-496-496s222-496 496-496 496 222 496 496-222 496-496 496zM496 16c-238.2 0-432 193.8-432 432s193.8 432 432 432 432-193.8 432-432-193.8-432-432-432zM368.6 448c24.8 37.4 30.2 74.6 31.4 112-1 37.4-6.6 74.6-31.4 112-16 24-50.2 22.8-65.4 0-24.8-37.4-30.2-74.6-31.4-112 1-37.4 6.6-74.6 31.4-112 16.2-24 50.4-22.8 65.4 0zM688.6 448c24.8 37.4 30.2 74.6 31.4 112-1 37.4-6.6 74.6-31.4 112-16 24-50.2 22.8-65.4 0-24.8-37.4-30.2-74.6-31.4-112 1-37.4 6.6-74.6 31.4-112 16.2-24 50.4-22.8 65.4 0zM742.2 318.4c-60.4-19.4-150.2-30.4-246.2-30.4s-185.8 11-246.2 30.4c-10.6 3.4-22.4 1-30.6-6.2-8.4-7.4-12.4-18.4-10.6-29.6 18.4-110 166.4-186.6 287.6-186.6s269 76.6 287.6 186.6c1.8 11-2.2 22.2-10.6 29.6-8.6 7.4-20.4 9.8-31 6.2zM496 160c-70 0-154 32.6-197 80.6 115-21.6 279.2-21.6 394.2 0-43.2-48-127.2-80.6-197.2-80.6z" />
<glyph unicode="&#xe97c;" glyph-name="grin-light" horiz-adv-x="992" d="M496 944c-274 0-496-222-496-496s222-496 496-496 496 222 496 496-222 496-496 496zM496 16c-238.2 0-432 193.8-432 432s193.8 432 432 432 432-193.8 432-432-193.8-432-432-432zM742.2 318.4c-60.4-19.4-150.2-30.4-246.2-30.4s-185.8 11-246.2 30.4c-10.6 3.4-22.2 1-30.6-6.2-8.4-7.4-12.4-18.4-10.6-29.6 18.4-110 166.4-186.6 287.6-186.6s269 76.6 287.6 186.6c1.8 11-2.2 22.2-10.6 29.6-8.6 7.4-20.4 9.8-31 6.2zM496 160c-70 0-154 32.6-197 80.6 115-21.6 279.2-21.6 394.2 0-43.2-48-127.2-80.6-197.2-80.6zM336 480c35.4 0 64 28.6 64 64s-28.6 64-64 64-64-28.6-64-64 28.6-64 64-64zM656 480c35.4 0 64 28.6 64 64s-28.6 64-64 64-64-28.6-64-64 28.6-64 64-64z" />
<glyph unicode="&#xe97d;" glyph-name="grip-lines-light" horiz-adv-x="896" d="M880 576h-864c-8.8 0-16-7.2-16-16v-32c0-8.8 7.2-16 16-16h864c8.8 0 16 7.2 16 16v32c0 8.8-7.2 16-16 16zM880 384h-864c-8.8 0-16-7.2-16-16v-32c0-8.8 7.2-16 16-16h864c8.8 0 16 7.2 16 16v32c0 8.8-7.2 16-16 16z" />
<glyph unicode="&#xe97e;" glyph-name="grip-lines-vertical-light" horiz-adv-x="512" d="M384 16v864c0 8.8-7.2 16-16 16h-32c-8.8 0-16-7.2-16-16v-864c0-8.8 7.2-16 16-16h32c8.8 0 16 7.2 16 16zM192 16v864c0 8.8-7.2 16-16 16h-32c-8.8 0-16-7.2-16-16v-864c0-8.8 7.2-16 16-16h32c8.8 0 16 7.2 16 16z" />
<glyph unicode="&#xe97f;" glyph-name="heart-circle-light" horiz-adv-x="992" d="M496 944c-274 0-496-222-496-496s222-496 496-496 496 222 496 496-222 496-496 496zM496 16c-238.2 0-432 193.8-432 432s193.8 432 432 432 432-193.8 432-432-193.8-432-432-432zM728 652.8c-83.8 72.6-179 16.8-209.8-15.4l-22.2-23.2-22.2 23.2c-53.2 55.8-145 71.8-209.8 15.4-70.6-61.2-74.4-171.2-11.2-237.4l217.8-228.2c14-14.8 36.8-14.8 51 0l217.8 228.2c63 66.4 59.4 176.2-11.4 237.4zM694 459.8l-198-207.6-198 207.6c-33.4 35-40.8 103.2 6.8 144.2 44.4 38.6 100 13.6 123.8-11.4l67.4-70.6 67.4 70.6c17.4 18.4 75 53.6 123.8 11.4 47.6-41 40.2-109 6.8-144.2z" />
<glyph unicode="&#xe980;" glyph-name="heart-light" d="M924.6 834.6c-109 92.8-272 77.4-373.2-27l-39.4-40.8-39.4 40.6c-81.6 84.4-246.2 135.2-373.2 27.2-125.6-107.2-132.2-299.6-19.8-415.6l387-399.6c12.4-12.8 28.8-19.4 45.2-19.4s32.8 6.4 45.2 19.4l387 399.6c112.8 116 106.2 308.4-19.4 415.6zM898.4 463.4l-385.6-399.6-387.2 399.6c-76.8 79.2-92.8 230.2 15.4 322.4 109.6 93.6 238.4 25.8 285.6-23l85.4-88.2 85.4 88.2c46.4 48 176.4 116 285.6 23 108-92 92.2-243 15.4-322.4z" />
<glyph unicode="&#xe981;" glyph-name="history-light" d="M40 912h20c13.254 0 24-10.746 24-24v-189.25c86.392 147.156 246.478 245.82 429.586 245.248 272.774-0.854 494.84-224.016 494.414-496.79-0.428-273.57-222.332-495.208-496-495.208-127.852 0-244.404 48.374-332.356 127.816-10.226 9.236-10.708 25.122-0.964 34.866l14.138 14.138c9.006 9.006 23.498 9.428 32.964 0.908 75.782-68.204 176.088-109.728 286.218-109.728 235.488 0 428 190.662 428 428 0 235.488-190.662 428-428 428-165.724 0-309.474-94.154-380.578-232h196.578c13.254 0 24-10.746 24-24v-20c0-13.254-10.746-24-24-24h-288c-13.254 0-24 10.746-24 24v288c0 13.254 10.746 24 24 24zM683.294 281.53l9.412 12.94c7.796 10.72 5.426 25.73-5.294 33.526l-143.412 104.298v295.706c0 13.254-10.746 24-24 24h-16c-13.254 0-24-10.746-24-24v-328.294l169.768-123.468c10.72-7.798 25.73-5.428 33.526 5.292z" />
<glyph unicode="&#xe982;" glyph-name="home-alt-light" horiz-adv-x="1152" d="M1082 501.68l-465.7 380c-10.938 8.878-25.031 14.255-40.38 14.255s-29.442-5.376-40.499-14.349l0.119 0.094-465.54-380c-3.608-2.957-5.892-7.413-5.892-12.403 0-3.833 1.348-7.351 3.595-10.106l-0.023 0.029 20.2-24.82c2.957-3.606 7.412-5.889 12.401-5.889 3.798 0 7.286 1.323 10.030 3.533l-0.031-0.024 81.72 66.76v-486c0-17.673 14.327-32 32-32v0h256c17.673 0 32 14.327 32 32v0 256l128-0.6v-256.16c0-17.673 14.327-32 32-32v0l256 0.66c17.673 0 32 14.327 32 32v0 486.1l81.72-66.76c2.728-2.23 6.251-3.582 10.089-3.582 4.994 0 9.454 2.288 12.388 5.873l0.023 0.028 20.2 24.82c2.218 2.724 3.562 6.237 3.562 10.065 0 5.030-2.321 9.519-5.952 12.452l-0.030 0.024zM895.78 64.5h0.2l-192-0.6v256.34c-0.056 17.615-14.293 31.887-31.889 32h-0.011l-192 0.54c-0.030 0-0.065 0-0.1 0-17.673 0-32-14.327-32-32 0 0 0 0 0 0v0-256.28h-191.98v506.48l320 261.14 320-261.14z" />
<glyph unicode="&#xe983;" glyph-name="home-lg-alt-light" horiz-adv-x="1152" d="M1146.96 520.18l-525.76 423.82c-12.223 9.984-28 16.034-45.19 16.034s-32.967-6.049-45.319-16.136l0.129 0.102-525.76-423.82c-3.087-2.48-5.046-6.255-5.046-10.487 0-3.242 1.15-6.216 3.064-8.536l-0.018 0.023 28.4-35c2.521-3.094 6.331-5.054 10.599-5.054 3.272 0 6.275 1.152 8.626 3.073l-0.024-0.019 77.34 62.38v-558.56c0-17.673 14.327-32 32-32v0h832c17.673 0 32 14.327 32 32v0 558.36l77.6-62.58c2.327-1.897 5.328-3.046 8.599-3.046 4.267 0 8.077 1.957 10.582 5.021l0.019 0.024 28.38 35c1.759 2.347 2.817 5.308 2.817 8.515 0 4.352-1.947 8.249-5.017 10.868l-0.020 0.017zM480 0v320h192v-320zM960 0h-224v352c0 17.673-14.327 32-32 32v0h-256c-17.673 0-32-14.327-32-32v0-352h-224v578.16l375.42 302.8c2.268 1.868 5.202 3 8.4 3s6.132-1.132 8.423-3.018l-0.023 0.018 375.78-302.96z" />
<glyph unicode="&#xe984;" glyph-name="id-badge-light" horiz-adv-x="768" d="M640 960h-512c-70.6 0-128-57.4-128-128v-768c0-70.6 57.4-128 128-128h512c70.6 0 128 57.4 128 128v768c0 70.6-57.4 128-128 128zM704 64c0-35.2-28.8-64-64-64h-512c-35.2 0-64 28.8-64 64v768c0 35.2 28.8 64 64 64h512c35.2 0 64-28.8 64-64v-768zM288 768h192c17.6 0 32 14.4 32 32s-14.4 32-32 32h-192c-17.6 0-32-14.4-32-32s14.4-32 32-32zM384 352c88.4 0 160 71.6 160 160s-71.6 160-160 160-160-71.6-160-160 71.6-160 160-160zM384 608c53 0 96-43 96-96s-43-96-96-96-96 43-96 96 43 96 96 96zM477.6 320c-39 0-48.8-14-93.6-14s-54.6 14-93.6 14c-42.4 0-83.6-18.8-107.6-54.8-14.4-21.4-22.8-47.2-22.8-75v-78.2c0-8.8 7.2-16 16-16h32c8.8 0 16 7.2 16 16v78.2c0 28 18 65.8 66.4 65.8 24.8 0 41.6-14 93.6-14 51.8 0 68.6 14 93.6 14 48.6 0 66.4-37.8 66.4-65.8v-78.2c0-8.8 7.2-16 16-16h32c8.8 0 16 7.2 16 16v78.2c0 27.8-8.4 53.6-22.8 75-24.2 36-65.4 54.8-107.6 54.8z" />
<glyph unicode="&#xe985;" glyph-name="id-card-light" horiz-adv-x="1152" d="M720 320h224c8.8 0 16 7.2 16 16v32c0 8.8-7.2 16-16 16h-224c-8.8 0-16-7.2-16-16v-32c0-8.8 7.2-16 16-16zM720 448h224c8.8 0 16 7.2 16 16v32c0 8.8-7.2 16-16 16h-224c-8.8 0-16-7.2-16-16v-32c0-8.8 7.2-16 16-16zM720 192h224c8.8 0 16 7.2 16 16v32c0 8.8-7.2 16-16 16h-224c-8.8 0-16-7.2-16-16v-32c0-8.8 7.2-16 16-16zM384 256c88.4 0 160 71.6 160 160s-71.6 160-160 160-160-71.6-160-160 71.6-160 160-160zM384 512c53 0 96-43 96-96s-43-96-96-96-96 43-96 96 43 96 96 96zM1024 896h-896c-70.6 0-128-57.4-128-128v-640c0-70.6 57.4-128 128-128h896c70.6 0 128 57.4 128 128v640c0 70.6-57.4 128-128 128zM544 64h-320v30.2c0 14 4.2 27.6 12 39.2 11.2 16.6 31.6 26.4 54.6 26.4 24.8 0 41.6-14 93.6-14 51.8 0 68.6 14 93.6 14 23 0 43.4-10 54.6-26.4 7.8-11.6 12-25.2 12-39.2v-30.2h-0.4zM1088 128c0-35.2-28.8-64-64-64h-416v30.2c0 27.8-8.4 53.6-22.8 75-24.2 35.8-65.4 54.8-107.6 54.8-39 0-48.8-14-93.6-14s-54.6 14-93.6 14c-42.4 0-83.6-18.8-107.6-54.8-14.4-21.4-22.8-47.2-22.8-75v-30.2h-32c-35.2 0-64 28.8-64 64v512h1024v-512zM1088 704h-1024v64c0 35.2 28.8 64 64 64h896c35.2 0 64-28.8 64-64v-64z" />
<glyph unicode="&#xe986;" glyph-name="image-light" d="M928 832h-832c-53.020 0-96-42.98-96-96v-576c0-53.020 42.98-96 96-96h832c53.020 0 96 42.98 96 96v576c0 53.020-42.98 96-96 96zM960 160c0-17.644-14.356-32-32-32h-832c-17.644 0-32 14.356-32 32v576c0 17.644 14.356 32 32 32h832c17.644 0 32-14.356 32-32v-576zM224 496c61.856 0 112 50.144 112 112s-50.144 112-112 112-112-50.144-112-112 50.144-112 112-112zM224 656c26.468 0 48-21.532 48-48s-21.532-48-48-48-48 21.532-48 48 21.532 48 48 48zM638.058 609.942l-190.058-190.060-62.058 62.058c-18.746 18.746-49.138 18.746-67.882 0l-176-176c-8.687-8.686-14.060-20.685-14.060-33.94v0-56c0-13.254 10.746-24 24-24h720c13.254 0 24 10.746 24 24v184c0 12.73-5.058 24.94-14.058 33.942l-176 176c-18.746 18.744-49.138 18.744-67.884 0zM832 256h-640v9.372l160 160 96-96 224 224 160-160v-137.372z" />
<glyph unicode="&#xe987;" glyph-name="info-circle-light" d="M512 880c237.242 0 432-192.15 432-432 0-238.582-193.22-432-432-432-238.488 0-432 193.124-432 432 0 238.406 193.204 432 432 432zM512 944c-273.914 0-496-222.166-496-496 0-273.994 222.086-496 496-496s496 222.006 496 496c0 273.834-222.086 496-496 496zM440 256h24v240h-24c-13.254 0-24 10.746-24 24v16c0 13.254 10.746 24 24 24h96c13.254 0 24-10.746 24-24v-280h24c13.254 0 24-10.746 24-24v-16c0-13.254-10.746-24-24-24h-144c-13.254 0-24 10.746-24 24v16c0 13.254 10.746 24 24 24zM512 736c-35.346 0-64-28.654-64-64s28.654-64 64-64 64 28.654 64 64-28.654 64-64 64z" />
<glyph unicode="&#xe988;" glyph-name="info-light" horiz-adv-x="512" d="M416 222.666v321.334c0 30.99-14.76 58.598-37.622 76.162 42.506 35.246 69.622 88.436 69.622 147.838 0 105.87-86.13 192-192 192s-192-86.13-192-192c0-49.128 18.548-94.008 49.008-128h-1.008c-52.934 0-96-43.066-96-96v-96c0-47.484 34.654-87.028 80-94.666v-130.666c-45.346-7.64-80-47.184-80-94.668v-96c0-52.934 43.066-96 96-96h288c52.934 0 96 43.066 96 96v96c0 47.484-34.654 87.028-80 94.666zM256 896c70.692 0 128-57.308 128-128s-57.308-128-128-128-128 57.308-128 128 57.308 128 128 128zM432 32c0-17.674-14.326-32-32-32h-288c-17.674 0-32 14.326-32 32v96c0 17.674 14.326 32 32 32h48v256h-48c-17.674 0-32 14.326-32 32v96c0 17.674 14.326 32 32 32h208c17.674 0 32-14.326 32-32v-384h48c17.674 0 32-14.326 32-32v-96z" />
<glyph unicode="&#xe989;" glyph-name="info-square-light" horiz-adv-x="896" d="M800 896h-704c-53.020 0-96-42.98-96-96v-704c0-53.020 42.98-96 96-96h704c53.020 0 96 42.98 96 96v704c0 53.020-42.98 96-96 96zM832 96c0-17.644-14.356-32-32-32h-704c-17.644 0-32 14.356-32 32v704c0 17.644 14.356 32 32 32h704c17.644 0 32-14.356 32-32v-704zM376 256h24v240h-24c-13.254 0-24 10.746-24 24v16c0 13.254 10.746 24 24 24h96c13.254 0 24-10.746 24-24v-280h24c13.254 0 24-10.746 24-24v-16c0-13.254-10.746-24-24-24h-144c-13.254 0-24 10.746-24 24v16c0 13.254 10.746 24 24 24zM448 736c-35.346 0-64-28.654-64-64s28.654-64 64-64 64 28.654 64 64-28.654 64-64 64z" />
<glyph unicode="&#xe98a;" glyph-name="landmark-light" horiz-adv-x="1152" d="M1131.24 775.78l-532.76 180.14c-7.24 2.72-14.86 4.080-22.48 4.080s-15.24-1.36-22.48-4.080l-532.76-180.14c-12.232-4.683-20.759-16.326-20.76-29.96v0-73.82c0-17.68 14.32-32 32-32h1088c17.68 0 32 14.32 32 32v73.82c0 13.34-8.28 25.28-20.76 29.96zM1088 704h-1024v18.84l512 173.16 512-173.12v-18.88zM1136 0h-48v128c0 35.34-32.74 64-73.14 64h-22.86v384h-64v-384h-192v384h-64v-384h-192v384h-64v-384h-192v384h-64v-384h-22.86c-40.4 0-73.14-28.66-73.14-64v-128h-48c-8.84 0-16-7.16-16-16v-32c0-8.84 7.16-16 16-16h1120c8.84 0 16 7.16 16 16v32c0 8.84-7.16 16-16 16zM1024 0h-896v125.44c1.4 1.040 4.42 2.56 9.14 2.56h877.72c4.74 0 7.74-1.52 9.14-2.56v-125.44z" />
<glyph unicode="&#xe98b;" glyph-name="laptop-light" horiz-adv-x="1280" d="M1248 224h-96v544c0 70.6-57.44 128-128 128h-768c-70.56 0-128-57.4-128-128v-544h-96c-17.68 0-32-14.32-32-32v-96c0-88.22 71.76-160 160-160h960c88.24 0 160 71.78 160 160v96c0 17.68-14.32 32-32 32zM192 768c0 35.34 28.66 64 64 64h768c35.34 0 64-28.66 64-64v-544h-305.74c-8.12 0-14.040-6.26-15.84-14.18-6.46-28.52-31.96-49.82-62.42-49.82h-128c-30.46 0-55.96 21.3-62.42 49.82-1.8 7.92-7.72 14.18-15.84 14.18h-305.74v544zM1216 96c0-52.94-43.060-96-96-96h-960c-52.94 0-96 43.060-96 96v64h389.5c13.18-37.24 48.76-64 90.5-64h192c41.76 0 77.32 26.76 90.5 64h389.5v-64z" />
<glyph unicode="&#xe98c;" glyph-name="list-light" d="M176 848h-96c-17.673 0-32-14.327-32-32v0-96c0-17.673 14.327-32 32-32v0h96c17.673 0 32 14.327 32 32v0 96c0 17.673-14.327 32-32 32v0zM176 528h-96c-17.673 0-32-14.327-32-32v0-96c0-17.673 14.327-32 32-32v0h96c17.673 0 32 14.327 32 32v0 96c0 17.673-14.327 32-32 32v0zM176 208h-96c-17.673 0-32-14.327-32-32v0-96c0-17.673 14.327-32 32-32v0h96c17.673 0 32 14.327 32 32v0 96c0 17.673-14.327 32-32 32v0zM1008 160h-672c-8.837 0-16-7.163-16-16v0-32c0-8.837 7.163-16 16-16v0h672c8.837 0 16 7.163 16 16v0 32c0 8.837-7.163 16-16 16v0zM1008 800h-672c-8.837 0-16-7.163-16-16v0-32c0-8.837 7.163-16 16-16v0h672c8.837 0 16 7.163 16 16v0 32c0 8.837-7.163 16-16 16v0zM1008 480h-672c-8.837 0-16-7.163-16-16v0-32c0-8.837 7.163-16 16-16v0h672c8.837 0 16 7.163 16 16v0 32c0 8.837-7.163 16-16 16v0z" />
<glyph unicode="&#xe98d;" glyph-name="list-ul-light" d="M64.78 512c-35.32 0-64.78-28.66-64.78-64s29.46-64 64.78-64c35.346 0 64 28.654 64 64s-28.654 64-64 64v0zM64.78 832c-35.32 0-64.78-28.66-64.78-64s29.46-64 64.78-64c35.346 0 64 28.654 64 64s-28.654 64-64 64v0zM64.78 192c-35.32 0-64.78-28.66-64.78-64s29.46-64 64.78-64c35.346 0 64 28.654 64 64s-28.654 64-64 64v0zM1008 800h-736c-8.837 0-16-7.163-16-16v0-32c0-8.837 7.163-16 16-16v0h736c8.837 0 16 7.163 16 16v0 32c0 8.837-7.163 16-16 16v0zM1008 480h-736c-8.837 0-16-7.163-16-16v0-32c0-8.837 7.163-16 16-16v0h736c8.837 0 16 7.163 16 16v0 32c0 8.837-7.163 16-16 16v0zM1008 160h-736c-8.837 0-16-7.163-16-16v0-32c0-8.837 7.163-16 16-16v0h736c8.837 0 16 7.163 16 16v0 32c0 8.837-7.163 16-16 16v0z" />
</font>
</defs>
</svg>
