<?xml version="1.0" standalone="no"?>
<!DOCTYPE svg PUBLIC "-//W3C//DTD SVG 1.1//EN" "http://www.w3.org/Graphics/SVG/1.1/DTD/svg11.dtd" >
<svg xmlns="http://www.w3.org/2000/svg">
<metadata>Generated by IcoMoon</metadata>
<defs>
<font id="icomoon" horiz-adv-x="1024">
<font-face units-per-em="1024" ascent="960" descent="-64" />
<missing-glyph horiz-adv-x="1024" />
<glyph unicode="&#x20;" horiz-adv-x="512" d="" />
<glyph unicode="&#xe900;" glyph-name="address-book-solid" horiz-adv-x="896" d="M872 640c13.2 0 24 10.8 24 24v80c0 13.2-10.8 24-24 24h-40v96c0 53-43 96-96 96h-640c-53 0-96-43-96-96v-832c0-53 43-96 96-96h640c53 0 96 43 96 96v96h40c13.2 0 24 10.8 24 24v80c0 13.2-10.8 24-24 24h-40v128h40c13.2 0 24 10.8 24 24v80c0 13.2-10.8 24-24 24h-40v128h40zM416 704c70.6 0 128-57.4 128-128s-57.4-128-128-128-128 57.4-128 128 57.4 128 128 128zM640 230.4c0-21.2-20-38.4-44.8-38.4h-358.4c-24.8 0-44.8 17.2-44.8 38.4v38.4c0 63.6 60.2 115.2 134.4 115.2h10c24.6-10.2 51.4-16 79.6-16s55.2 5.8 79.6 16h10c74.2 0 134.4-51.6 134.4-115.2v-38.4z" />
<glyph unicode="&#xe901;" glyph-name="address-card-solid" horiz-adv-x="1152" d="M1056 896h-960c-53 0-96-43-96-96v-704c0-53 43-96 96-96h960c53 0 96 43 96 96v704c0 53-43 96-96 96zM352 704c70.6 0 128-57.4 128-128s-57.4-128-128-128-128 57.4-128 128 57.4 128 128 128zM576 230.4c0-21.2-20-38.4-44.8-38.4h-358.4c-24.8 0-44.8 17.2-44.8 38.4v38.4c0 63.6 60.2 115.2 134.4 115.2h10c24.6-10.2 51.4-16 79.6-16s55.2 5.8 79.6 16h10c74.2 0 134.4-51.6 134.4-115.2v-38.4zM1024 336c0-8.8-7.2-16-16-16h-288c-8.8 0-16 7.2-16 16v32c0 8.8 7.2 16 16 16h288c8.8 0 16-7.2 16-16v-32zM1024 464c0-8.8-7.2-16-16-16h-288c-8.8 0-16 7.2-16 16v32c0 8.8 7.2 16 16 16h288c8.8 0 16-7.2 16-16v-32zM1024 592c0-8.8-7.2-16-16-16h-288c-8.8 0-16 7.2-16 16v32c0 8.8 7.2 16 16 16h288c8.8 0 16-7.2 16-16v-32z" />
<glyph unicode="&#xe902;" glyph-name="alarm-clock-solid" d="M192 960c-106.039 0-192-85.961-192-192v0c0.16-38.139 11.555-73.585 31.042-103.237l-0.442 0.717 291.8 243.16c-34.063 31.818-79.949 51.356-130.399 51.36h-0.001zM832 960c-50.43-0.010-96.299-19.53-130.472-51.423l0.112 0.103 291.78-243.14c19.024 28.922 30.409 64.344 30.58 102.415v0.045c0 106.039-85.961 192-192 192v0zM512 832c-247.4 0-448-200.58-448-448 0-0.028 0-0.061 0-0.095 0-101.065 33.661-194.268 90.384-269.010l-0.804 1.104-80.2-80.18c-5.792-5.791-9.375-13.792-9.375-22.63s3.583-16.839 9.375-22.63l45.24-45.24c5.791-5.792 13.792-9.375 22.63-9.375s16.839 3.583 22.63 9.375v0l80.12 80.24c73.667-55.926 166.902-89.591 268-89.591s194.333 33.665 269.106 90.395l-1.106-0.805 80.2-80.18c5.79-5.786 13.787-9.365 22.62-9.365s16.83 3.579 22.62 9.365l45.26 45.24c5.792 5.791 9.375 13.792 9.375 22.63s-3.583 16.839-9.375 22.63l-80.2 80.12c55.87 73.615 89.5 166.776 89.5 267.792 0 0.073 0 0.146 0 0.219v-0.011c0 247.42-200.52 448-448 448zM692 248.98l-40-50c-5.914-7.349-14.907-12.012-24.99-12.012-7.592 0-14.566 2.644-20.052 7.060l0.062-0.048-129.020 103.24c-18.355 14.784-30 37.257-30 62.45 0 0.004 0 0.007 0 0.011v-0.001 248.32c0 17.673 14.327 32 32 32v0h64c17.673 0 32-14.327 32-32v0-225.24l111-88.8c7.349-5.914 12.012-14.907 12.012-24.99 0-7.592-2.644-14.566-7.060-20.052l0.048 0.062z" />
<glyph unicode="&#xe903;" glyph-name="album-collection-solid" d="M992 752c0 26.51-21.49 48-48 48v0h-864c-26.51 0-48-21.49-48-48v0-48h960zM960 912c0 26.51-21.49 48-48 48v0h-800c-26.51 0-48-21.49-48-48v0-48h896zM512 308.7c-33.26 0-60-19.86-59.72-44.18s27-43.44 59.72-43.44 59.46 19.36 59.74 43.44-26.46 44.18-59.74 44.18zM960 640h-896c-0.001 0-0.002 0-0.003 0-35.346 0-64-28.654-64-64 0-2.042 0.096-4.062 0.283-6.055l-0.019 0.255 52.38-576c3.069-32.756 30.423-58.191 63.719-58.2h791.281c33.297 0.009 60.651 25.444 63.701 57.945l0.019 0.255 52.38 576c0.168 1.738 0.263 3.758 0.263 5.8 0 35.346-28.654 64-64 64-0.001 0-0.002 0-0.004 0v0zM512 14.22c-188.52 0-348.78 109.060-358.42 250.3-10.16 149.28 150.060 276.68 358.42 276.68s368.58-127.4 358.42-276.68c-9.64-141.26-169.9-250.3-358.42-250.3z" />
<glyph unicode="&#xe904;" glyph-name="album-solid" horiz-adv-x="896" d="M448 512c-35.346 0-64-28.654-64-64s28.654-64 64-64c35.346 0 64 28.654 64 64v0c0 35.346-28.654 64-64 64v0zM832 896h-768c-35.346 0-64-28.654-64-64v0-768c0-35.346 28.654-64 64-64v0h768c35.346 0 64 28.654 64 64v0 768c0 35.346-28.654 64-64 64v0zM448 128c-176.731 0-320 143.269-320 320s143.269 320 320 320c176.731 0 320-143.269 320-320v0c0-176.731-143.269-320-320-320v0z" />
<glyph unicode="&#xe905;" glyph-name="angle-down-solid" horiz-adv-x="640" d="M286 255.4l-272 272c-18.8 18.8-18.8 49.2 0 67.8l45.2 45.2c18.8 18.8 49.2 18.8 67.8 0l192.8-192.8 192.8 192.8c18.8 18.8 49.2 18.8 67.8 0l45.2-45.2c18.8-18.8 18.8-49.2 0-67.8l-272-272c-18.4-18.8-48.8-18.8-67.6 0z" />
<glyph unicode="&#xe906;" glyph-name="angle-left-solid" horiz-adv-x="512" d="M63.4 482l272 272c18.8 18.8 49.2 18.8 67.8 0l45.2-45.2c18.8-18.8 18.8-49.2 0-67.8l-192.6-193 192.8-192.8c18.8-18.8 18.8-49.2 0-67.8l-45.2-45.4c-18.8-18.8-49.2-18.8-67.8 0l-272 272c-19 18.8-19 49.2-0.2 68z" />
<glyph unicode="&#xe907;" glyph-name="angle-right-solid" horiz-adv-x="512" d="M448.6 414l-272-272c-18.8-18.8-49.2-18.8-67.8 0l-45.2 45.2c-18.8 18.8-18.8 49.2 0 67.8l192.8 192.8-192.8 192.8c-18.8 18.8-18.8 49.2 0 67.8l45 45.6c18.8 18.8 49.2 18.8 67.8 0l272-272c19-18.8 19-49.2 0.2-68z" />
<glyph unicode="&#xe908;" glyph-name="angle-up-solid" horiz-adv-x="640" d="M354 640.6l272-272c18.8-18.8 18.8-49.2 0-67.8l-45.2-45.2c-18.8-18.8-49.2-18.8-67.8 0l-193 192.6-192.8-192.8c-18.8-18.8-49.2-18.8-67.8 0l-45.4 45.2c-18.8 18.8-18.8 49.2 0 67.8l272 272c18.8 19 49.2 19 68 0.2z" />
<glyph unicode="&#xe909;" glyph-name="arrow-alt-circle-down-solid" d="M1008 448c0-274-222-496-496-496s-496 222-496 496 222 496 496 496 496-222 496-496zM424 680v-232h-141.8c-21.4 0-32.2-26-17-41l229.8-228.6c9.4-9.4 24.4-9.4 33.8 0l229.8 228.6c15.2 15.2 4.4 41-17 41h-141.6v232c0 13.2-10.8 24-24 24h-128c-13.2 0-24-10.8-24-24z" />
<glyph unicode="&#xe90a;" glyph-name="arrow-alt-circle-left-solid" d="M512-48c-274 0-496 222-496 496s222 496 496 496 496-222 496-496-222-496-496-496zM744 536h-232v141.8c0 21.4-26 32.2-41 17l-228.6-229.8c-9.4-9.4-9.4-24.4 0-33.8l228.6-229.8c15.2-15.2 41-4.4 41 17v141.6h232c13.2 0 24 10.8 24 24v128c0 13.2-10.8 24-24 24z" />
<glyph unicode="&#xe90b;" glyph-name="arrow-alt-circle-right-solid" d="M512 944c274 0 496-222 496-496s-222-496-496-496-496 222-496 496 222 496 496 496zM280 360h232v-141.8c0-21.4 26-32.2 41-17l228.6 229.8c9.4 9.4 9.4 24.4 0 33.8l-228.6 230c-15.2 15.2-41 4.4-41-17v-141.8h-232c-13.2 0-24-10.8-24-24v-128c0-13.2 10.8-24 24-24z" />
<glyph unicode="&#xe90c;" glyph-name="arrow-alt-circle-up-solid" d="M16 448c0 274 222 496 496 496s496-222 496-496-222-496-496-496-496 222-496 496zM600 216v232h141.8c21.4 0 32.2 26 17 41l-229.8 228.6c-9.4 9.4-24.4 9.4-33.8 0l-230-228.6c-15.2-15.2-4.4-41 17-41h141.8v-232c0-13.2 10.8-24 24-24h128c13.2 0 24 10.8 24 24z" />
<glyph unicode="&#xe90d;" glyph-name="arrow-circle-down-solid" d="M1008 448c0-274-222-496-496-496s-496 222-496 496 222 496 496 496 496-222 496-496zM720.8 505.8l-144.8-151v365.2c0 26.6-21.4 48-48 48h-32c-26.6 0-48-21.4-48-48v-365.2l-144.8 151c-18.6 19.4-49.6 19.8-68.6 0.8l-21.8-22c-18.8-18.8-18.8-49.2 0-67.8l265.2-265.4c18.8-18.8 49.2-18.8 67.8 0l265.4 265.4c18.8 18.8 18.8 49.2 0 67.8l-21.8 22c-19 19-50 18.6-68.6-0.8z" />
<glyph unicode="&#xe90e;" glyph-name="arrow-circle-left-solid" d="M512-48c-274 0-496 222-496 496s222 496 496 496 496-222 496-496-222-496-496-496zM569.8 239.2l-151 144.8h365.2c26.6 0 48 21.4 48 48v32c0 26.6-21.4 48-48 48h-365.2l151 144.8c19.4 18.6 19.8 49.6 0.8 68.6l-22 21.8c-18.8 18.8-49.2 18.8-67.8 0l-265.4-265.2c-18.8-18.8-18.8-49.2 0-67.8l265.4-265.4c18.8-18.8 49.2-18.8 67.8 0l22 21.8c19 19 18.6 50-0.8 68.6z" />
<glyph unicode="&#xe90f;" glyph-name="arrow-circle-right-solid" d="M512 944c274 0 496-222 496-496s-222-496-496-496-496 222-496 496 222 496 496 496zM454.2 656.8l151-144.8h-365.2c-26.6 0-48-21.4-48-48v-32c0-26.6 21.4-48 48-48h365.2l-151-144.8c-19.4-18.6-19.8-49.6-0.8-68.6l22-21.8c18.8-18.8 49.2-18.8 67.8 0l265.4 265.2c18.8 18.8 18.8 49.2 0 67.8l-265.4 265.6c-18.8 18.8-49.2 18.8-67.8 0l-22-21.8c-19-19.2-18.6-50.2 0.8-68.8z" />
<glyph unicode="&#xe910;" glyph-name="arrow-circle-up-solid" d="M16 448c0 274 222 496 496 496s496-222 496-496-222-496-496-496-496 222-496 496zM303.2 390.2l144.8 151v-365.2c0-26.6 21.4-48 48-48h32c26.6 0 48 21.4 48 48v365.2l144.8-151c18.6-19.4 49.6-19.8 68.6-0.8l21.8 22c18.8 18.8 18.8 49.2 0 67.8l-265.2 265.4c-18.8 18.8-49.2 18.8-67.8 0l-265.6-265.4c-18.8-18.8-18.8-49.2 0-67.8l21.8-22c19.2-19 50.2-18.6 68.8 0.8z" />
<glyph unicode="&#xe911;" glyph-name="arrow-down-solid" horiz-adv-x="896" d="M826.2 515l44.4-44.4c18.8-18.8 18.8-49.2 0-67.8l-388.6-388.8c-18.8-18.8-49.2-18.8-67.8 0l-388.8 388.8c-18.8 18.8-18.8 49.2 0 67.8l44.4 44.4c19 19 50 18.6 68.6-0.8l229.6-241v574.8c0 26.6 21.4 48 48 48h64c26.6 0 48-21.4 48-48v-574.8l229.6 241c18.6 19.6 49.6 20 68.6 0.8z" />
<glyph unicode="&#xe912;" glyph-name="arrow-from-bottom-solid" horiz-adv-x="768" d="M720 0h-672c-26.6 0-48 21.4-48 48v48c0 26.6 21.4 48 48 48h672c26.6 0 48-21.4 48-48v-48c0-26.6-21.4-48-48-48zM180.8 527l131.2 131.2v-418.2c0-26.6 21.4-48 48-48h48c26.6 0 48 21.4 48 48v418.2l131.2-131.2c18.8-18.8 49.2-18.8 67.8 0l34 34c18.8 18.8 18.8 49.2 0 67.8l-271 271c-18.8 18.8-49.2 18.8-67.8 0l-271.2-271c-18.8-18.8-18.8-49.2 0-67.8l34-34c18.8-18.8 49.2-18.8 67.8 0z" />
<glyph unicode="&#xe913;" glyph-name="arrow-from-left-solid" horiz-adv-x="896" d="M0 112v672c0 26.6 21.4 48 48 48h48c26.6 0 48-21.4 48-48v-672c0-26.6-21.4-48-48-48h-48c-26.6 0-48 21.4-48 48zM509 651.2l131.2-131.2h-400.2c-26.6 0-48-21.4-48-48v-48c0-26.6 21.4-48 48-48h400.2l-131.2-131.2c-18.8-18.8-18.8-49.2 0-67.8l34-34c18.8-18.8 49.2-18.8 67.8 0l271.2 271c18.8 18.8 18.8 49.2 0 67.8l-271 271.2c-18.8 18.8-49.2 18.8-67.8 0l-34-34c-18.8-18.8-18.8-49.2-0.2-67.8z" />
<glyph unicode="&#xe914;" glyph-name="arrow-from-right-solid" horiz-adv-x="896" d="M896 784v-672c0-26.6-21.4-48-48-48h-48c-26.6 0-48 21.4-48 48v672c0 26.6 21.4 48 48 48h48c26.6 0 48-21.4 48-48zM387 244.8l-131.2 131.2h400.2c26.6 0 48 21.4 48 48v48c0 26.6-21.4 48-48 48h-400.2l131.2 131.2c18.8 18.8 18.8 49.2 0 67.8l-34 34c-18.8 18.8-49.2 18.8-67.8 0l-271.2-271c-18.8-18.8-18.8-49.2 0-67.8l271-271c18.8-18.8 49.2-18.8 67.8 0l34 34c18.8 18.6 18.8 49 0.2 67.6z" />
<glyph unicode="&#xe915;" glyph-name="arrow-from-top-solid" horiz-adv-x="768" d="M48 896h672c26.6 0 48-21.4 48-48v-48c0-26.6-21.4-48-48-48h-672c-26.6 0-48 21.4-48 48v48c0 26.6 21.4 48 48 48zM587.2 369l-131.2-131.2v418.2c0 26.6-21.4 48-48 48h-48c-26.6 0-48-21.4-48-48v-418.2l-131.2 131.2c-18.8 18.8-49.2 18.8-67.8 0l-34-34c-18.8-18.8-18.8-49.2 0-67.8l271-271c18.8-18.8 49.2-18.8 67.8 0l271 271c18.8 18.8 18.8 49.2 0 67.8l-34 34c-18.6 18.8-49 18.8-67.6 0z" />
<glyph unicode="&#xe916;" glyph-name="arrow-left-solid" horiz-adv-x="896" d="M515 69.8l-44.4-44.4c-18.8-18.8-49.2-18.8-67.8 0l-388.8 388.6c-18.8 18.8-18.8 49.2 0 67.8l388.8 388.8c18.8 18.8 49.2 18.8 67.8 0l44.4-44.4c19-19 18.6-50-0.8-68.6l-241-229.6h574.8c26.6 0 48-21.4 48-48v-64c0-26.6-21.4-48-48-48h-574.8l241-229.6c19.6-18.6 20-49.6 0.8-68.6z" />
<glyph unicode="&#xe917;" glyph-name="arrow-right-solid" horiz-adv-x="896" d="M381 826.2l44.4 44.4c18.8 18.8 49.2 18.8 67.8 0l388.8-388.6c18.8-18.8 18.8-49.2 0-67.8l-388.8-388.8c-18.8-18.8-49.2-18.8-67.8 0l-44.4 44.4c-19 19-18.6 50 0.8 68.6l241 229.6h-574.8c-26.6 0-48 21.4-48 48v64c0 26.6 21.4 48 48 48h574.8l-241 229.6c-19.6 18.6-20 49.6-0.8 68.6z" />
<glyph unicode="&#xe918;" glyph-name="arrow-to-bottom-solid" horiz-adv-x="768" d="M720 0h-672c-26.6 0-48 21.4-48 48v48c0 26.6 21.4 48 48 48h672c26.6 0 48-21.4 48-48v-48c0-26.6-21.4-48-48-48zM587.2 561l-131.2-131.2v418.2c0 26.6-21.4 48-48 48h-48c-26.6 0-48-21.4-48-48v-418.2l-131.2 131.2c-18.8 18.8-49.2 18.8-67.8 0l-34-34c-18.8-18.8-18.8-49.2 0-67.8l271-271c18.8-18.8 49.2-18.8 67.8 0l271 271c18.8 18.8 18.8 49.2 0 67.8l-34 34c-18.6 18.8-49 18.8-67.6 0z" />
<glyph unicode="&#xe919;" glyph-name="arrow-to-left-solid" horiz-adv-x="896" d="M0 112v672c0 26.6 21.4 48 48 48h48c26.6 0 48-21.4 48-48v-672c0-26.6-21.4-48-48-48h-48c-26.6 0-48 21.4-48 48zM561 244.8l-131.2 131.2h418.2c26.6 0 48 21.4 48 48v48c0 26.6-21.4 48-48 48h-418.2l131.2 131.2c18.8 18.8 18.8 49.2 0 67.8l-34 34c-18.8 18.8-49.2 18.8-67.8 0l-271-271c-18.8-18.8-18.8-49.2 0-67.8l271-271c18.8-18.8 49.2-18.8 67.8 0l34 34c18.8 18.6 18.8 49 0 67.6z" />
<glyph unicode="&#xe91a;" glyph-name="arrow-to-right-solid" horiz-adv-x="896" d="M896 784v-672c0-26.6-21.4-48-48-48h-48c-26.6 0-48 21.4-48 48v672c0 26.6 21.4 48 48 48h48c26.6 0 48-21.4 48-48zM335 651.2l131.2-131.2h-418.2c-26.6 0-48-21.4-48-48v-48c0-26.6 21.4-48 48-48h418.2l-131.2-131.2c-18.8-18.8-18.8-49.2 0-67.8l34-34c18.8-18.8 49.2-18.8 67.8 0l271 271c18.8 18.8 18.8 49.2 0 67.8l-271 271.2c-18.8 18.8-49.2 18.8-67.8 0l-34-34c-18.8-18.8-18.8-49.2 0-67.8z" />
<glyph unicode="&#xe91b;" glyph-name="arrow-to-top-solid" horiz-adv-x="768" d="M48 896h672c26.6 0 48-21.4 48-48v-48c0-26.6-21.4-48-48-48h-672c-26.6 0-48 21.4-48 48v48c0 26.6 21.4 48 48 48zM180.8 335l131.2 131.2v-418.2c0-26.6 21.4-48 48-48h48c26.6 0 48 21.4 48 48v418.2l131.2-131.2c18.8-18.8 49.2-18.8 67.8 0l34 34c18.8 18.8 18.8 49.2 0 67.8l-271 271c-18.8 18.8-49.2 18.8-67.8 0l-271.2-271c-18.8-18.8-18.8-49.2 0-67.8l34-34c18.8-18.8 49.2-18.8 67.8 0z" />
<glyph unicode="&#xe91c;" glyph-name="backspace-solid" horiz-adv-x="1280" d="M1152 832h-741.48c-0.008 0-0.017 0-0.026 0-35.343 0-67.339-14.331-90.494-37.499l-301.261-301.241c-25-25-25-65.52 0-90.5l301.26-301.26c24-24 56.56-37.5 90.5-37.5h741.5c70.7 0 128 57.3 128 128v512c0 70.7-57.3 128-128 128zM982.62 323.88c12.5-12.5 12.5-32.76 0-45.26l-45.24-45.24c-12.5-12.5-32.76-12.5-45.26 0l-124.12 124.12-124.12-124.12c-12.5-12.5-32.76-12.5-45.26 0l-45.24 45.24c-12.5 12.5-12.5 32.76 0 45.26l124.12 124.12-124.12 124.12c-12.5 12.5-12.5 32.76 0 45.26l45.24 45.24c12.5 12.5 32.76 12.5 45.26 0l124.12-124.12 124.12 124.12c12.5 12.5 32.76 12.5 45.26 0l45.24-45.24c12.5-12.5 12.5-32.76 0-45.26l-124.12-124.12 124.12-124.12z" />
<glyph unicode="&#xe91d;" glyph-name="ban-solid" d="M512 944c-273.932 0-496-222.066-496-496s222.068-496 496-496 496 222.068 496 496-222.066 496-496 496zM772.216 708.216c130.896-130.896 140-330.962 41.354-471.274l-512.63 512.626c140.408 98.712 340.452 89.47 471.276-41.352zM251.784 187.784c-130.896 130.896-140 330.962-41.354 471.274l512.63-512.626c-140.406-98.712-340.452-89.472-471.276 41.352z" />
<glyph unicode="&#xe91e;" glyph-name="barcode-alt-solid" horiz-adv-x="1280" d="M1184 960h-1088c-53 0-96-43-96-96v-832c0-53 43-96 96-96h1088c53 0 96 43 96 96v832c0 53-43 96-96 96zM320 144c0-8.8-7.2-16-16-16h-96c-8.8 0-16 7.2-16 16v608c0 8.8 7.2 16 16 16h96c8.8 0 16-7.2 16-16v-608zM448 144c0-8.8-7.2-16-16-16h-32c-8.8 0-16 7.2-16 16v608c0 8.8 7.2 16 16 16h32c8.8 0 16-7.2 16-16v-608zM576 144c0-8.8-7.2-16-16-16h-32c-8.8 0-16 7.2-16 16v608c0 8.8 7.2 16 16 16h32c8.8 0 16-7.2 16-16v-608zM832 144c0-8.8-7.2-16-16-16h-96c-8.8 0-16 7.2-16 16v608c0 8.8 7.2 16 16 16h96c8.8 0 16-7.2 16-16v-608zM1088 144c0-8.8-7.2-16-16-16h-96c-8.8 0-16 7.2-16 16v608c0 8.8 7.2 16 16 16h96c8.8 0 16-7.2 16-16v-608z" />
<glyph unicode="&#xe91f;" glyph-name="barcode-read-solid" horiz-adv-x="1280" d="M368 704h-96c-8.8 0-16-7.2-16-16v-480c0-8.8 7.2-16 16-16h96c8.8 0 16 7.2 16 16v480c0 8.8-7.2 16-16 16zM288 64h-160v160c0 17.6-14.4 32-32 32h-64c-17.6 0-32-14.4-32-32v-256c0-17.6 14.4-32 32-32h256c17.6 0 32 14.4 32 32v64c0 17.6-14.4 32-32 32zM496 704h-32c-8.8 0-16-7.2-16-16v-480c0-8.8 7.2-16 16-16h32c8.8 0 16 7.2 16 16v480c0 8.8-7.2 16-16 16zM32 640h64c17.6 0 32 14.4 32 32v160h160c17.6 0 32 14.4 32 32v64c0 17.6-14.4 32-32 32h-256c-17.6 0-32-14.4-32-32v-256c0-17.6 14.4-32 32-32zM816 704h-96c-8.8 0-16-7.2-16-16v-480c0-8.8 7.2-16 16-16h96c8.8 0 16 7.2 16 16v480c0 8.8-7.2 16-16 16zM624 704h-32c-8.8 0-16-7.2-16-16v-480c0-8.8 7.2-16 16-16h32c8.8 0 16 7.2 16 16v480c0 8.8-7.2 16-16 16zM1248 960h-256c-17.6 0-32-14.4-32-32v-64c0-17.6 14.4-32 32-32h160v-160c0-17.6 14.4-32 32-32h64c17.6 0 32 14.4 32 32v256c0 17.6-14.4 32-32 32zM1248 256h-64c-17.6 0-32-14.4-32-32v-160h-160c-17.6 0-32-14.4-32-32v-64c0-17.6 14.4-32 32-32h256c17.6 0 32 14.4 32 32v256c0 17.6-14.4 32-32 32zM1024 208v480c0 8.8-7.2 16-16 16h-96c-8.8 0-16-7.2-16-16v-480c0-8.8 7.2-16 16-16h96c8.8 0 16 7.2 16 16z" />
<glyph unicode="&#xe920;" glyph-name="bars-solid" horiz-adv-x="896" d="M32 696h832c17.674 0 32 14.326 32 32v80c0 17.674-14.326 32-32 32h-832c-17.674 0-32-14.326-32-32v-80c0-17.674 14.326-32 32-32zM32 376h832c17.674 0 32 14.326 32 32v80c0 17.674-14.326 32-32 32h-832c-17.674 0-32-14.326-32-32v-80c0-17.674 14.326-32 32-32zM32 56h832c17.674 0 32 14.326 32 32v80c0 17.674-14.326 32-32 32h-832c-17.674 0-32-14.326-32-32v-80c0-17.674 14.326-32 32-32z" />
<glyph unicode="&#xe921;" glyph-name="bell-solid" horiz-adv-x="896" d="M448-64c70.64 0 127.94 57.3 127.94 128h-255.88c0-70.7 57.3-128 127.94-128zM878.78 235.42c-38.64 41.52-110.94 103.98-110.94 308.58 0 155.4-108.96 279.8-255.88 310.32v41.68c0 35.34-28.64 64-63.96 64s-63.96-28.66-63.96-64v-41.68c-146.92-30.52-255.88-154.92-255.88-310.32 0-204.6-72.3-267.060-110.94-308.58-12-12.9-17.32-28.32-17.22-43.42 0.22-32.8 25.96-64 64.2-64h767.6c38.24 0 64 31.2 64.2 64 0.1 15.1-5.22 30.54-17.22 43.42z" />
<glyph unicode="&#xe922;" glyph-name="book-alt-solid" horiz-adv-x="896" d="M896 243.2v665.6c0 32-19.2 51.2-51.2 51.2h-652.8c-108.8 0-192-83.2-192-192v-640c0-108.8 83.2-192 192-192h652.8c25.6 0 51.2 19.2 51.2 51.2v32c0 12.8-6.4 25.6-19.2 38.4-6.4 32-6.4 121.6 0 147.2 12.8 6.4 19.2 19.2 19.2 38.4zM761.6 64h-569.6c-38.4 0-64 25.6-64 64s32 64 64 64h569.6v-128z" />
<glyph unicode="&#xe923;" glyph-name="book-open-solid" horiz-adv-x="1152" d="M1084.44 895.9c-109.6-6.22-327.44-28.86-461.92-111.18-9.28-5.68-14.54-15.78-14.54-26.34v-727.74c0-23.1 25.26-37.7 46.56-26.98 138.36 69.64 338.46 88.64 437.4 93.84 33.78 1.78 60.040 28.86 60.040 61.32v675.68c0.020 35.42-30.7 63.48-67.54 61.4zM529.46 784.72c-134.46 82.32-352.3 104.94-461.9 111.18-36.84 2.080-67.56-25.98-67.56-61.4v-675.7c0-32.48 26.26-59.56 60.040-61.32 98.98-5.2 299.18-24.22 437.54-93.9 21.24-10.7 46.42 3.88 46.42 26.92v728.24c0 10.58-5.24 20.28-14.54 25.98z" />
<glyph unicode="&#xe924;" glyph-name="bookmark-solid" horiz-adv-x="768" d="M0-64v928c0 53.020 42.98 96 96 96h576c53.020 0 96-42.98 96-96v-928l-384 224-384-224z" />
<glyph unicode="&#xe925;" glyph-name="box-open-solid" horiz-adv-x="1280" d="M851.4 448c-33.8 0-65.6 18-82.8 46.8l-128.6 213.2-128.4-213.2c-17.4-29-49.2-47-83-47-9 0-18 1.2-26.6 3.8l-274 78.4v-356c0-29.4 20-55 48.4-62l432.4-108.2c20.4-5 41.8-5 62 0l432.8 108.2c28.4 7.2 48.4 32.8 48.4 62v356l-274-78.2c-8.6-2.6-17.6-3.8-26.6-3.8zM1276.6 672.4l-103 205.6c-6.2 12.4-19.6 19.6-33.4 17.8l-500.2-63.8 183.4-304.2c7.6-12.6 22.8-18.6 37-14.6l395.8 113c19.8 5.8 29.4 27.8 20.4 46.2zM106.4 878l-103-205.6c-9.2-18.4 0.6-40.4 20.2-46l395.8-113c14.2-4 29.4 2 37 14.6l183.6 304-500.4 63.8c-13.8 1.6-27-5.4-33.2-17.8z" />
<glyph unicode="&#xe926;" glyph-name="box-solid" d="M1019 590.8l-101.2 303.6c-13 39.2-49.6 65.6-91 65.6h-282.8v-384h477.4c-0.8 5-0.8 10-2.4 14.8zM480 960h-282.8c-41.4 0-78-26.4-91-65.6l-101.2-303.6c-1.6-4.8-1.6-9.8-2.4-14.8h477.4v384zM0 512v-480c0-53 43-96 96-96h832c53 0 96 43 96 96v480h-1024z" />
<glyph unicode="&#xe927;" glyph-name="briefcase-solid" d="M640 288c0-17.68-14.32-32-32-32h-192c-17.68 0-32 14.32-32 32v96h-384v-288c0-51.2 44.8-96 96-96h832c51.2 0 96 44.8 96 96v288h-384v-96zM928 704h-160v96c0 51.2-44.8 96-96 96h-320c-51.2 0-96-44.8-96-96v-96h-160c-51.2 0-96-44.8-96-96v-160h1024v160c0 51.2-44.8 96-96 96zM640 704h-256v64h256v-64z" />
<glyph unicode="&#xe928;" glyph-name="building-solid" horiz-adv-x="896" d="M872 0h-40v912c0 26.51-21.49 48-48 48h-672c-26.51 0-48-21.49-48-48v-912h-40c-13.254 0-24-10.746-24-24v-40h896v40c0 13.254-10.746 24-24 24zM256 808c0 13.254 10.746 24 24 24h80c13.254 0 24-10.746 24-24v-80c0-13.254-10.746-24-24-24h-80c-13.254 0-24 10.746-24 24v80zM256 616c0 13.254 10.746 24 24 24h80c13.254 0 24-10.746 24-24v-80c0-13.254-10.746-24-24-24h-80c-13.254 0-24 10.746-24 24v80zM360 320h-80c-13.254 0-24 10.746-24 24v80c0 13.254 10.746 24 24 24h80c13.254 0 24-10.746 24-24v-80c0-13.254-10.746-24-24-24zM512 0h-128v168c0 13.254 10.746 24 24 24h80c13.254 0 24-10.746 24-24v-168zM640 344c0-13.254-10.746-24-24-24h-80c-13.254 0-24 10.746-24 24v80c0 13.254 10.746 24 24 24h80c13.254 0 24-10.746 24-24v-80zM640 536c0-13.254-10.746-24-24-24h-80c-13.254 0-24 10.746-24 24v80c0 13.254 10.746 24 24 24h80c13.254 0 24-10.746 24-24v-80zM640 728c0-13.254-10.746-24-24-24h-80c-13.254 0-24 10.746-24 24v80c0 13.254 10.746 24 24 24h80c13.254 0 24-10.746 24-24v-80z" />
<glyph unicode="&#xe929;" glyph-name="bullhorn-solid" horiz-adv-x="1152" d="M1152 480c0 47.26-25.9 88.080-64 110.24v305.74c0 17.5-13.96 64.020-64 64.020-14.24 0-28.38-4.76-39.96-14.040l-170.060-136.060c-85.42-68.28-192.66-105.9-301.98-105.9h-384c-70.7 0-128-57.3-128-128v-192c0-70.7 57.3-128 128-128h67.4c-2.78-20.96-4.36-42.28-4.36-64 0-79.54 18.52-154.7 51.12-221.88 10.38-21.38 33.040-34.12 56.8-34.12h148.56c52.1 0 83.38 59.68 51.8 101.12-32.8 43.040-52.3 96.72-52.3 154.88 0 22.22 3.24 43.58 8.82 64h56.16c109.32 0 216.56-37.62 301.96-105.9l170.060-136.060c10.844-8.735 24.783-14.026 39.957-14.040h0.003c49.84 0 64 45.56 64 64v305.74c38.12 22.18 64.020 63 64.020 110.26zM960 197.16l-66.1 52.88c-108 86.4-243.66 133.96-381.9 133.96v192c138.24 0 273.9 47.56 381.9 133.96l66.1 52.88v-565.68z" />
<glyph unicode="&#xe92a;" glyph-name="bullseye-solid" horiz-adv-x="992" d="M496 944c-273.94 0-496-222.060-496-496s222.060-496 496-496 496 222.060 496 496-222.060 496-496 496zM496 80c-203.38 0-368 164.58-368 368 0 203.38 164.58 368 368 368 203.38 0 368-164.58 368-368 0-203.38-164.58-368-368-368zM496 704c-141.38 0-256-114.62-256-256s114.62-256 256-256 256 114.62 256 256-114.62 256-256 256zM496 320c-70.58 0-128 57.42-128 128s57.42 128 128 128 128-57.42 128-128-57.42-128-128-128z" />
<glyph unicode="&#xe92b;" glyph-name="calendar-day-solid" horiz-adv-x="896" d="M0 32c0-53 43-96 96-96h704c53 0 96 43 96 96v544h-896v-544zM128 416c0 17.6 14.4 32 32 32h192c17.6 0 32-14.4 32-32v-192c0-17.6-14.4-32-32-32h-192c-17.6 0-32 14.4-32 32v192zM800 832h-96v96c0 17.6-14.4 32-32 32h-64c-17.6 0-32-14.4-32-32v-96h-256v96c0 17.6-14.4 32-32 32h-64c-17.6 0-32-14.4-32-32v-96h-96c-53 0-96-43-96-96v-96h896v96c0 53-43 96-96 96z" />
<glyph unicode="&#xe92c;" glyph-name="calendar-solid" horiz-adv-x="896" d="M24 576h848c13.2 0 24-10.8 24-24v-520c0-53-43-96-96-96h-704c-53 0-96 43-96 96v520c0 13.2 10.8 24 24 24zM896 664v72c0 53-43 96-96 96h-96v104c0 13.2-10.8 24-24 24h-80c-13.2 0-24-10.8-24-24v-104h-256v104c0 13.2-10.8 24-24 24h-80c-13.2 0-24-10.8-24-24v-104h-96c-53 0-96-43-96-96v-72c0-13.2 10.8-24 24-24h848c13.2 0 24 10.8 24 24z" />
<glyph unicode="&#xe92d;" glyph-name="camera-solid" d="M1024 672v-576c0-53-43-96-96-96h-832c-53 0-96 43-96 96v576c0 53 43 96 96 96h176l24.6 65.8c14 37.4 49.8 62.2 89.8 62.2h251c40 0 75.8-24.8 89.8-62.2l24.8-65.8h176c53 0 96-43 96-96zM752 384c0 132.4-107.6 240-240 240s-240-107.6-240-240 107.6-240 240-240 240 107.6 240 240zM688 384c0-97-79-176-176-176s-176 79-176 176 79 176 176 176 176-79 176-176z" />
<glyph unicode="&#xe92e;" glyph-name="caret-circle-down-solid" d="M1008 448c0-274-222-496-496-496s-496 222-496 496 222 496 496 496 496-222 496-496zM249 503l246-246c9.4-9.4 24.6-9.4 34 0l246 246c15.2 15.2 4.4 41-17 41h-492c-21.4 0-32.2-25.8-17-41z" />
<glyph unicode="&#xe92f;" glyph-name="caret-circle-left-solid" d="M512-48c-274 0-496 222-496 496s222 496 496 496 496-222 496-496-222-496-496-496zM567 711l-246-246c-9.4-9.4-9.4-24.6 0-34l246-246c15.2-15.2 41-4.4 41 17v492c0 21.4-25.8 32.2-41 17z" />
<glyph unicode="&#xe930;" glyph-name="caret-circle-right-solid" d="M512 944c274 0 496-222 496-496s-222-496-496-496-496 222-496 496 222 496 496 496zM457 185l246 246c9.4 9.4 9.4 24.6 0 34l-246 246c-15.2 15.2-41 4.4-41-17v-492c0-21.4 25.8-32.2 41-17z" />
<glyph unicode="&#xe931;" glyph-name="caret-circle-up-solid" d="M16 448c0 274 222 496 496 496s496-222 496-496-222-496-496-496-496 222-496 496zM775 393l-246 246c-9.4 9.4-24.6 9.4-34 0l-246-246c-15.2-15.2-4.4-41 17-41h492c21.4 0 32.2 25.8 17 41z" />
<glyph unicode="&#xe932;" glyph-name="cart-plus-solid" horiz-adv-x="1152" d="M1009.434 320h-586.29l13.090-64h536.836c30.802 0 53.632-28.602 46.806-58.638l-11.034-48.552c37.382-18.146 63.158-56.466 63.158-100.81 0-62.404-51.038-112.888-113.648-111.988-59.646 0.858-108.7 49.262-110.31 108.894-0.88 32.574 12.17 62.098 33.606 83.096h-419.296c20.754-20.332 33.648-48.654 33.648-80.002 0-63.626-53.056-114.862-117.34-111.876-57.080 2.65-103.502 48.77-106.502 105.834-2.316 44.068 20.872 82.91 56.102 103.172l-140.494 686.87h-139.766c-26.51 0-48 21.49-48 48v32c0 26.51 21.49 48 48 48h205.058c22.802 0 42.456-16.042 47.026-38.38l18.332-89.62h785.564c30.802 0 53.632-28.602 46.806-58.638l-94.546-416c-4.966-21.854-24.394-37.362-46.806-37.362zM816 624h-96v80c0 17.674-14.326 32-32 32h-32c-17.674 0-32-14.326-32-32v-80h-96c-17.674 0-32-14.326-32-32v-32c0-17.674 14.326-32 32-32h96v-80c0-17.674 14.326-32 32-32h32c17.674 0 32 14.326 32 32v80h96c17.674 0 32 14.326 32 32v32c0 17.674-14.326 32-32 32z" />
<glyph unicode="&#xe933;" glyph-name="chart-bar-solid" d="M665.6 320h76.8c12.8 0 25.6 12.8 25.6 25.6v268.8c0 12.8-12.8 25.6-25.6 25.6h-76.8c-12.8 0-25.6-12.8-25.6-25.6v-268.8c0-12.8 12.8-25.6 25.6-25.6zM857.6 320h76.8c12.8 0 25.6 12.8 25.6 25.6v460.8c0 12.8-12.8 25.6-25.6 25.6h-76.8c-12.8 0-25.6-12.8-25.6-25.6v-460.8c0-12.8 12.8-25.6 25.6-25.6zM281.6 320h76.8c12.8 0 25.6 12.8 25.6 25.6v140.8c0 12.8-12.8 25.6-25.6 25.6h-76.8c-12.8 0-25.6-12.8-25.6-25.6v-140.8c0-12.8 12.8-25.6 25.6-25.6zM473.6 320h76.8c12.8 0 25.6 12.8 25.6 25.6v396.8c0 12.8-12.8 25.6-25.6 25.6h-76.8c-12.8 0-25.6-12.8-25.6-25.6v-396.8c0-12.8 12.8-25.6 25.6-25.6zM992 192h-864v608c0 17.68-14.32 32-32 32h-64c-17.68 0-32-14.32-32-32v-672c0-35.34 28.66-64 64-64h928c17.68 0 32 14.32 32 32v64c0 17.68-14.32 32-32 32z" />
<glyph unicode="&#xe934;" glyph-name="chart-pie-solid" horiz-adv-x="1088" d="M1055.58 384h-474.58l316.060-316.060c12.080-12.080 31.96-13.060 44.38-1.36 77.4 72.92 130.64 171.22 146.26 281.72 2.68 18.92-13.020 35.7-32.12 35.7zM1023.92 513.6c-16.48 238.92-207.4 429.84-446.32 446.32-18.24 1.26-33.6-14.12-33.6-32.4v-447.52h447.54c18.28 0 33.64 15.36 32.38 33.6zM448 384v474.58c0 19.1-16.78 34.8-35.68 32.12-238.34-33.68-420.52-241.9-412.040-491.44 8.72-256.28 229.38-466.44 485.78-463.22 100.8 1.26 193.94 33.74 270.52 88.060 15.8 11.2 16.84 34.46 3.14 48.16l-311.72 311.74z" />
<glyph unicode="&#xe935;" glyph-name="check-circle-solid" d="M1008 448c0-273.934-222.066-496-496-496s-496 222.066-496 496 222.066 496 496 496 496-222.066 496-496zM454.628 185.372l368 368c12.496 12.496 12.496 32.758 0 45.254l-45.254 45.254c-12.496 12.498-32.758 12.498-45.256 0l-300.118-300.116-140.118 140.118c-12.496 12.496-32.758 12.496-45.256 0l-45.254-45.254c-12.496-12.496-12.496-32.758 0-45.254l208-208c12.498-12.498 32.758-12.498 45.256-0.002z" />
<glyph unicode="&#xe936;" glyph-name="check-solid" d="M347.796 81.192l-332.8 332.8c-19.994 19.994-19.994 52.412 0 72.408l72.406 72.408c19.994 19.996 52.414 19.996 72.408 0l224.19-224.188 480.19 480.188c19.994 19.994 52.414 19.994 72.408 0l72.406-72.408c19.994-19.994 19.994-52.412 0-72.408l-588.8-588.802c-19.996-19.994-52.414-19.994-72.408 0.002z" />
<glyph unicode="&#xe937;" glyph-name="check-square-solid" horiz-adv-x="896" d="M800 0h-704c-53.020 0-96 42.98-96 96v704c0 53.020 42.98 96 96 96h704c53.020 0 96-42.98 96-96v-704c0-53.020-42.98-96-96-96zM390.628 196.118l368 368c12.496 12.496 12.496 32.758 0 45.254l-45.254 45.254c-12.496 12.496-32.758 12.498-45.256 0l-300.118-300.116-140.118 140.118c-12.496 12.496-32.758 12.496-45.256 0l-45.254-45.254c-12.496-12.496-12.496-32.758 0-45.254l208-208c12.498-12.5 32.758-12.5 45.256-0.002z" />
<glyph unicode="&#xe938;" glyph-name="chevron-circle-down-solid" d="M1008 448c0-274-222-496-496-496s-496 222-496 496 222 496 496 496 496-222 496-496zM546 220.2l271 271c18.8 18.8 18.8 49.2 0 67.8l-34 34c-18.8 18.8-49.2 18.8-67.8 0l-203.2-203.2-203.2 203.2c-18.8 18.8-49.2 18.8-67.8 0l-34-34c-18.8-18.8-18.8-49.2 0-67.8l271-271c18.8-18.8 49.2-18.8 68 0z" />
<glyph unicode="&#xe939;" glyph-name="chevron-circle-left-solid" d="M512-48c-274 0-496 222-496 496s222 496 496 496 496-222 496-496-222-496-496-496zM284.2 414l271-271c18.8-18.8 49.2-18.8 67.8 0l34 34c18.8 18.8 18.8 49.2 0 67.8l-203.2 203.2 203.2 203.2c18.8 18.8 18.8 49.2 0 67.8l-34 34c-18.8 18.8-49.2 18.8-67.8 0l-271-271c-18.8-18.8-18.8-49.2 0-68z" />
<glyph unicode="&#xe93a;" glyph-name="chevron-circle-right-solid" d="M512 944c274 0 496-222 496-496s-222-496-496-496-496 222-496 496 222 496 496 496zM739.8 482l-271 271c-18.8 18.8-49.2 18.8-67.8 0l-34-34c-18.8-18.8-18.8-49.2 0-67.8l203.2-203.2-203.2-203.2c-18.8-18.8-18.8-49.2 0-67.8l34-34c18.8-18.8 49.2-18.8 67.8 0l271 271c18.8 18.8 18.8 49.2 0 68z" />
<glyph unicode="&#xe93b;" glyph-name="chevron-circle-up-solid" d="M16 448c0 274 222 496 496 496s496-222 496-496-222-496-496-496-496 222-496 496zM478 675.8l-271-271c-18.8-18.8-18.8-49.2 0-67.8l34-34c18.8-18.8 49.2-18.8 67.8 0l203.2 203.2 203.2-203.2c18.8-18.8 49.2-18.8 67.8 0l34 34c18.8 18.8 18.8 49.2 0 67.8l-271 271c-18.8 18.8-49.2 18.8-68 0z" />
<glyph unicode="&#xe93c;" glyph-name="chevron-down-solid" horiz-adv-x="896" d="M414.058 197.048l-388.686 388.688c-18.746 18.746-18.746 49.138 0 67.882l45.334 45.334c18.714 18.714 49.044 18.75 67.802 0.080l309.492-308.042 309.49 308.042c18.758 18.67 49.088 18.634 67.802-0.080l45.334-45.334c18.746-18.746 18.746-49.138 0-67.882l-388.684-388.688c-18.746-18.744-49.138-18.744-67.884 0z" />
<glyph unicode="&#xe93d;" glyph-name="chevron-left-solid" horiz-adv-x="640" d="M69.040 481.94l388.7 388.68c18.74 18.74 49.14 18.74 67.88 0l45.34-45.34c18.72-18.72 18.74-49.040 0.080-67.8l-308.060-309.48 308.040-309.5c18.68-18.76 18.64-49.080-0.080-67.8l-45.34-45.34c-18.74-18.74-49.14-18.74-67.88 0l-388.68 388.7c-18.74 18.74-18.74 49.14 0 67.88z" />
<glyph unicode="&#xe93e;" glyph-name="chevron-right-solid" horiz-adv-x="640" d="M570.952 414.058l-388.688-388.686c-18.746-18.746-49.138-18.746-67.882 0l-45.334 45.334c-18.714 18.714-18.75 49.044-0.080 67.802l308.042 309.492-308.042 309.49c-18.67 18.758-18.634 49.088 0.080 67.802l45.334 45.334c18.746 18.746 49.138 18.746 67.882 0l388.686-388.686c18.746-18.744 18.746-49.136 0.002-67.882z" />
<glyph unicode="&#xe93f;" glyph-name="chevron-up-solid" horiz-adv-x="896" d="M481.942 698.952l388.686-388.686c18.746-18.746 18.746-49.138 0-67.882l-45.334-45.334c-18.714-18.714-49.044-18.75-67.802-0.080l-309.492 308.040-309.49-308.042c-18.758-18.67-49.088-18.634-67.802 0.080l-45.334 45.334c-18.746 18.746-18.746 49.138 0 67.882l388.686 388.686c18.744 18.746 49.136 18.746 67.882 0.002z" />
<glyph unicode="&#xe940;" glyph-name="circle-notch-solid" d="M576 881.888v-33.318c0-21.608 14.562-40.318 35.372-46.132 155.036-43.306 268.628-185.474 268.628-354.438 0-203.378-164.59-368-368-368-203.378 0-368 164.59-368 368 0 168.94 113.572 311.128 268.624 354.438 20.814 5.814 35.376 24.528 35.376 46.138v33.296c0 31.418-29.668 54.306-60.092 46.468-214.702-55.304-373.12-250.752-371.902-483.004 1.44-274.104 222.954-493.912 497.062-493.334 273.442 0.576 494.932 222.422 494.932 495.998 0 231.266-158.28 425.558-372.422 480.472-30.222 7.75-59.578-15.384-59.578-46.584z" />
<glyph unicode="&#xe941;" glyph-name="circle-solid" d="M512 944c-274 0-496-222-496-496s222-496 496-496 496 222 496 496-222 496-496 496z" />
<glyph unicode="&#xe942;" glyph-name="clipboard-solid" horiz-adv-x="768" d="M768 736v-704c0-53.020-42.98-96-96-96h-576c-53.020 0-96 42.98-96 96v704c0 53.020 42.98 96 96 96h160c0 70.58 57.42 128 128 128s128-57.42 128-128h160c53.020 0 96-42.98 96-96zM384 880c-26.51 0-48-21.49-48-48s21.49-48 48-48 48 21.49 48 48-21.49 48-48 48zM576 652v40c0 6.627-5.373 12-12 12v0h-360c-6.627 0-12-5.373-12-12v0-40c0-6.627 5.373-12 12-12v0h360c6.627 0 12 5.373 12 12v0z" />
<glyph unicode="&#xe943;" glyph-name="clock-solid" d="M512 944c-274 0-496-222-496-496s222-496 496-496 496 222 496 496-222 496-496 496zM696.98 318v0l-40-50c-5.914-7.349-14.907-12.012-24.99-12.012-7.592 0-14.566 2.644-20.052 7.060l0.062-0.048-134 99.44c-18.355 14.784-30 37.257-30 62.45 0 0.004 0 0.007 0 0.011v-0.001 311.1c0 17.673 14.327 32 32 32v0h64c17.673 0 32-14.327 32-32v0-288l116-85c7.348-5.914 12.010-14.906 12.010-24.988 0-7.601-2.65-14.584-7.078-20.073l0.048 0.061z" />
<glyph unicode="&#xe944;" glyph-name="clone-solid" d="M928 960c53.020 0 96-42.98 96-96v-576c0-53.020-42.98-96-96-96h-576c-53.020 0-96 42.98-96 96v576c0 53.020 42.98 96 96 96h576zM352 128c-88.224 0-160 71.776-160 160v416h-96c-53.020 0-96-42.98-96-96v-576c0-53.020 42.98-96 96-96h576c53.020 0 96 42.98 96 96v96h-416z" />
<glyph unicode="&#xe945;" glyph-name="cog-solid" d="M974.8 328.6l-85.2 49.2c8.6 46.4 8.6 94 0 140.4l85.2 49.2c9.8 5.6 14.2 17.2 11 28-22.2 71.2-60 135.6-109.4 189.2-7.6 8.2-20 10.2-29.6 4.6l-85.2-49.2c-35.8 30.8-77 54.6-121.6 70.2v98.2c0 11.2-7.8 21-18.8 23.4-73.4 16.4-148.6 15.6-218.4 0-11-2.4-18.8-12.2-18.8-23.4v-98.4c-44.4-15.8-85.6-39.6-121.6-70.2l-85 49.2c-9.8 5.6-22 3.8-29.6-4.6-49.4-53.4-87.2-117.8-109.4-189.2-3.4-10.8 1.2-22.4 11-28l85.2-49.2c-8.6-46.4-8.6-94 0-140.4l-85.2-49.2c-9.8-5.6-14.2-17.2-11-28 22.2-71.2 60-135.6 109.4-189.2 7.6-8.2 20-10.2 29.6-4.6l85.2 49.2c35.8-30.8 77-54.6 121.6-70.2v-98.4c0-11.2 7.8-21 18.8-23.4 73.4-16.4 148.6-15.6 218.4 0 11 2.4 18.8 12.2 18.8 23.4v98.4c44.4 15.8 85.6 39.6 121.6 70.2l85.2-49.2c9.8-5.6 22-3.8 29.6 4.6 49.4 53.4 87.2 117.8 109.4 189.2 3 11-1.4 22.6-11.2 28.2zM512 288c-88.2 0-160 71.8-160 160s71.8 160 160 160 160-71.8 160-160-71.8-160-160-160z" />
<glyph unicode="&#xe946;" glyph-name="coin-solid" d="M0 320c0-55.54 36-106.74 96-148.66v128.66c-37.7 24-70.8 50.72-96 80.76zM512 256c282.66 0 512 128.88 512 288s-229.34 288-512 288-512-128.88-512-288 229.34-288 512-288zM160 134.98c54.18-25.78 119.32-45.62 192-57.6v128.62c-70.78 12-135.62 31.76-192 58zM928 171.34c60.1 42 96 93.12 96 148.66v60.74c-25.2-30-58.3-56.74-96-80.76zM672 77.34c72.68 12 137.82 31.82 192 57.6v129.060c-56.38-26.24-121.22-46-192-58zM416 197.6v-128.18c31.24-3.020 62.98-5.42 96-5.42s64.76 2.4 96 5.42v128.18c-28.493-3.296-61.835-5.323-95.595-5.597l-0.405-0.003c-34.165 0.277-67.507 2.304-100.345 5.997l4.345-0.397z" />
<glyph unicode="&#xe947;" glyph-name="coins-solid" d="M0 149.4v-85.4c0-70.6 172-128 384-128s384 57.4 384 128v85.4c-82.6-58.2-233.6-85.4-384-85.4s-301.4 27.2-384 85.4zM640 704c212 0 384 57.4 384 128s-172 128-384 128-384-57.4-384-128 172-128 384-128zM0 359.2v-103.2c0-70.6 172-128 384-128s384 57.4 384 128v103.2c-82.6-68-233.8-103.2-384-103.2s-301.4 35.2-384 103.2zM832 337.2c114.6 22.2 192 63.4 192 110.8v85.4c-46.4-32.8-114.6-55.2-192-69v-127.2zM384 640c-212 0-384-71.6-384-160s172-160 384-160 384 71.6 384 160-172 160-384 160zM822.6 527.4c120 21.6 201.4 64 201.4 112.6v85.4c-71-50.2-193-77.2-321.4-83.6 59-28.6 102.4-67 120-114.4z" />
<glyph unicode="&#xe948;" glyph-name="comment-alt-dots-solid" d="M896 960h-768c-70.6 0-128-57.4-128-128v-576c0-70.6 57.4-128 128-128h192v-168c0-19.6 22.4-31 38.2-19.4l249.8 187.4h288c70.6 0 128 57.4 128 128v576c0 70.6-57.4 128-128 128zM256 480c-35.4 0-64 28.6-64 64s28.6 64 64 64 64-28.6 64-64-28.6-64-64-64zM512 480c-35.4 0-64 28.6-64 64s28.6 64 64 64 64-28.6 64-64-28.6-64-64-64zM768 480c-35.4 0-64 28.6-64 64s28.6 64 64 64 64-28.6 64-64-28.6-64-64-64z" />
<glyph unicode="&#xe949;" glyph-name="comment-alt-lines-solid" d="M896 960h-768c-70.6 0-128-57.4-128-128v-576c0-70.6 57.4-128 128-128h192v-168c0-19.6 22.4-31 38.2-19.4l249.8 187.4h288c70.6 0 128 57.4 128 128v576c0 70.6-57.4 128-128 128zM576 432c0-8.8-7.2-16-16-16h-288c-8.8 0-16 7.2-16 16v32c0 8.8 7.2 16 16 16h288c8.8 0 16-7.2 16-16v-32zM768 624c0-8.8-7.2-16-16-16h-480c-8.8 0-16 7.2-16 16v32c0 8.8 7.2 16 16 16h480c8.8 0 16-7.2 16-16v-32z" />
<glyph unicode="&#xe94a;" glyph-name="comment-alt-solid" d="M896 960h-768c-70.6 0-128-57.4-128-128v-576c0-70.6 57.4-128 128-128h192v-168c0-19.6 22.4-31 38.2-19.4l249.8 187.4h288c70.6 0 128 57.4 128 128v576c0 70.6-57.4 128-128 128z" />
<glyph unicode="&#xe94b;" glyph-name="comment-dots-solid" d="M512 896c-282.8 0-512-186.2-512-416 0-99.2 42.8-190 114-261.4-25-100.8-108.6-190.6-109.6-191.6-4.4-4.6-5.6-11.4-3-17.4s8.2-9.6 14.6-9.6c132.6 0 232 63.6 281.2 102.8 65.4-24.6 138-38.8 214.8-38.8 282.8 0 512 186.2 512 416s-229.2 416-512 416zM256 416c-35.4 0-64 28.6-64 64s28.6 64 64 64 64-28.6 64-64-28.6-64-64-64zM512 416c-35.4 0-64 28.6-64 64s28.6 64 64 64 64-28.6 64-64-28.6-64-64-64zM768 416c-35.4 0-64 28.6-64 64s28.6 64 64 64 64-28.6 64-64-28.6-64-64-64z" />
<glyph unicode="&#xe94c;" glyph-name="comment-solid" d="M512 896c-282.8 0-512-186.2-512-416 0-99.2 42.8-190 114-261.4-25-100.8-108.6-190.6-109.6-191.6-4.4-4.6-5.6-11.4-3-17.4s8.2-9.6 14.6-9.6c132.6 0 232 63.6 281.2 102.8 65.4-24.6 138-38.8 214.8-38.8 282.8 0 512 186.2 512 416s-229.2 416-512 416z" />
<glyph unicode="&#xe94d;" glyph-name="comments-alt-solid" horiz-adv-x="1152" d="M832 512v320c0 70.6-57.4 128-128 128h-576c-70.6 0-128-57.4-128-128v-320c0-70.6 57.4-128 128-128v-108.4c0-16 18.2-25.2 31-15.6l165.6 124.2h379.4c70.6-0.2 128 57.2 128 127.8zM1024 640h-128v-128c0-105.8-86.2-192-192-192h-320v-128c0-70.6 57.4-128 128-128h251.4l165.6-124.2c12.8-9.6 31-0.4 31 15.6v108.6h64c70.6 0 128 57.4 128 128v320c0 70.6-57.4 128-128 128z" />
<glyph unicode="&#xe94e;" glyph-name="comments-solid" horiz-adv-x="1152" d="M832 576c0 176.8-186.2 320-416 320s-416-143.2-416-320c0-68.6 28.2-131.8 76-184-26.8-60.4-71-108.4-71.6-109-4.4-4.6-5.6-11.4-3-17.4s8.2-9.6 14.6-9.6c73.2 0 133.8 24.6 177.4 50 64.4-31.4 140.6-50 222.6-50 229.8 0 416 143.2 416 320zM1076 136c47.8 52 76 115.4 76 184 0 133.8-107 248.4-258.6 296.2 1.8-13.2 2.6-26.6 2.6-40.2 0-211.8-215.4-384-480-384-21.6 0-42.6 1.6-63.4 3.8 63-115 211-195.8 383.4-195.8 82 0 158.2 18.4 222.6 50 43.6-25.4 104.2-50 177.4-50 6.4 0 12.2 3.8 14.6 9.6 2.6 5.8 1.4 12.6-3 17.4-0.6 0.6-44.8 48.4-71.6 109z" />
<glyph unicode="&#xe94f;" glyph-name="compass-solid" horiz-adv-x="992" d="M450.76 493.26c-25-25-25-65.52 0-90.5 24.98-25 65.52-25 90.5 0 25 25 25 65.52 0 90.5s-65.52 24.98-90.5 0zM496 944c-273.94 0-496-222.060-496-496s222.060-496 496-496 496 222.060 496 496-222.060 496-496 496zM748.28 647.9l-131.94-288.7c-6.512-14.016-17.524-25.028-31.147-31.376l-0.393-0.164-288.68-131.94c-33.3-15.22-67.62 19.1-52.4 52.4l131.96 288.7c6.512 14.016 17.524 25.028 31.147 31.376l0.393 0.164 288.68 131.94c33.3 15.2 67.6-19.1 52.38-52.4z" />
<glyph unicode="&#xe950;" glyph-name="copy-solid" horiz-adv-x="896" d="M640 64v-80c0-26.51-21.49-48-48-48h-544c-26.51 0-48 21.49-48 48v736c0 26.51 21.49 48 48 48h144v-592c0-61.758 50.242-112 112-112h336zM640 752v208h-336c-26.51 0-48-21.49-48-48v-736c0-26.51 21.49-48 48-48h544c26.51 0 48 21.49 48 48v528h-208c-26.4 0-48 21.6-48 48zM881.942 814.058l-131.884 131.884c-8.686 8.686-20.686 14.058-33.94 14.058h-12.118v-192h192v12.118c0 13.254-5.372 25.254-14.058 33.94v0z" />
<glyph unicode="&#xe951;" glyph-name="credit-card-blank-solid" horiz-adv-x="1152" d="M1056 880h-960c-53 0-96-43-96-96v-704c0-53 43-96 96-96h960c53 0 96 43 96 96v704c0 53-43 96-96 96zM320 152c0-13.2-10.8-24-24-24h-144c-13.2 0-24 10.8-24 24v80c0 13.2 10.8 24 24 24h144c13.2 0 24-10.8 24-24v-80zM704 152c0-13.2-10.8-24-24-24h-272c-13.2 0-24 10.8-24 24v80c0 13.2 10.8 24 24 24h272c13.2 0 24-10.8 24-24v-80z" />
<glyph unicode="&#xe952;" glyph-name="cube-solid" d="M478.2 947.4l-416-156c-37.4-14-62.2-50-62.2-90v-450.2c0-36.4 20.6-69.6 53-85.8l416-208c27-13.6 58.8-13.6 85.8 0l416 208c32.6 16.2 53 49.6 53 85.8v450.2c0 40-24.8 75.8-62.2 89.8l-416 156c-21.6 8.4-45.6 8.4-67.4 0.2zM512 823.2l384-144v-2.2l-384-156-384 156v2.2l384 144zM576 111.2v297.8l320 130v-267.8l-320-160z" />
<glyph unicode="&#xe953;" glyph-name="database-solid" horiz-adv-x="896" d="M896 813.714v-91.428c0-80.572-200.666-146.286-448-146.286s-448 65.714-448 146.286v91.428c0 80.572 200.666 146.286 448 146.286s448-65.714 448-146.286zM896 608v-205.714c0-80.572-200.666-146.286-448-146.286s-448 65.714-448 146.286v205.714c96.25-66.286 272.416-97.144 448-97.144s351.748 30.858 448 97.144zM896 288v-205.714c0-80.572-200.666-146.286-448-146.286s-448 65.714-448 146.286v205.714c96.25-66.286 272.416-97.144 448-97.144s351.748 30.858 448 97.144z" />
<glyph unicode="&#xe954;" glyph-name="desktop-solid" horiz-adv-x="1152" d="M1056 960h-960c-53 0-96-43-96-96v-640c0-53 43-96 96-96h384l-32-96h-144c-26.6 0-48-21.4-48-48s21.4-48 48-48h544c26.6 0 48 21.4 48 48s-21.4 48-48 48h-144l-32 96h384c53 0 96 43 96 96v640c0 53-43 96-96 96zM1024 256h-896v576h896v-576z" />
<glyph unicode="&#xe955;" glyph-name="dice-d6-solid" horiz-adv-x="896" d="M844.38 740.1l-331.96 201.76c-39.82 24.2-89.040 24.2-128.86 0l-331.94-201.76c-10.64-6.46-10.58-22.54 0.12-28.92l396.26-236.28 396.28 236.28c10.7 6.38 10.76 22.44 0.1 28.92zM872.060 650.84l-392.060-233.76v-447.64c0-25.76 26.78-41.82 48.1-28.86l304.32 184.96c39.36 23.92 63.58 67.88 63.58 115.4v395.4c0 12.82-13.28 20.86-23.94 14.5zM0 636.34v-395.4c0-47.54 24.22-91.48 63.58-115.4l304.32-184.94c21.34-12.96 48.1 3.080 48.1 28.86v447.62l-392.060 233.76c-10.66 6.36-23.94-1.68-23.94-14.5z" />
<glyph unicode="&#xe956;" glyph-name="dollar-sign-solid" horiz-adv-x="576" d="M418.4 493.2l-216 63.2c-25 7.2-42.4 30.6-42.4 56.6 0 32.6 26.4 59 59 59h132.6c24.4 0 48.4-7.4 68.4-21 12.2-8.2 28.6-6.2 39 4l69.6 68c14.2 13.8 12.2 36.8-3.6 49-49 38.4-110.2 59.8-173 60v96c0 17.6-14.4 32-32 32h-64c-17.6 0-32-14.4-32-32v-96h-5c-127.4 0-229.8-109.4-218-239.2 8.4-92.2 78.8-167.2 167.6-193.2l205-60c25-7.4 42.4-30.6 42.4-56.6 0-32.6-26.4-59-59-59h-132.6c-24.4 0-48.4 7.4-68.4 21-12.2 8.2-28.6 6.2-39-4l-69.6-68c-14.2-13.8-12.2-36.8 3.6-49 49-38.4 110.2-59.8 173-60v-96c0-17.6 14.4-32 32-32h64c17.6 0 32 14.4 32 32v96.4c93.2 1.8 180.6 57.2 211.4 145.4 43 123.2-29.2 249.6-145 283.4z" />
<glyph unicode="&#xe957;" glyph-name="download-solid" d="M432 960h160c26.6 0 48-21.4 48-48v-336h175.4c35.6 0 53.4-43 28.2-68.2l-304.2-304.4c-15-15-39.6-15-54.6 0l-304.6 304.4c-25.2 25.2-7.4 68.2 28.2 68.2h175.6v336c0 26.6 21.4 48 48 48zM1024 208v-224c0-26.6-21.4-48-48-48h-928c-26.6 0-48 21.4-48 48v224c0 26.6 21.4 48 48 48h293.4l98-98c40.2-40.2 105-40.2 145.2 0l98 98h293.4c26.6 0 48-21.4 48-48zM776 32c0 22-18 40-40 40s-40-18-40-40 18-40 40-40 40 18 40 40zM904 32c0 22-18 40-40 40s-40-18-40-40 18-40 40-40 40 18 40 40z" />
<glyph unicode="&#xe958;" glyph-name="ellipsis-h-solid" d="M656 448c0-79.6-64.4-144-144-144s-144 64.4-144 144 64.4 144 144 144 144-64.4 144-144zM864 592c-79.6 0-144-64.4-144-144s64.4-144 144-144 144 64.4 144 144-64.4 144-144 144zM160 592c-79.6 0-144-64.4-144-144s64.4-144 144-144 144 64.4 144 144-64.4 144-144 144z" />
<glyph unicode="&#xe959;" glyph-name="ellipsis-v-solid" horiz-adv-x="384" d="M192 592c79.6 0 144-64.4 144-144s-64.4-144-144-144-144 64.4-144 144 64.4 144 144 144zM48 800c0-79.6 64.4-144 144-144s144 64.4 144 144-64.4 144-144 144-144-64.4-144-144zM48 96c0-79.6 64.4-144 144-144s144 64.4 144 144-64.4 144-144 144-144-64.4-144-144z" />
<glyph unicode="&#xe95a;" glyph-name="envelope-solid" d="M1004.6 578.4c7.8 6.2 19.4 0.4 19.4-9.4v-409c0-53-43-96-96-96h-832c-53 0-96 43-96 96v408.8c0 10 11.4 15.6 19.4 9.4 44.8-34.8 104.2-79 308.2-227.2 42.2-30.8 113.4-95.6 184.4-95.2 71.4-0.6 144 65.6 184.6 95.2 204 148.2 263.2 192.6 308 227.4zM512 320c46.4-0.8 113.2 58.4 146.8 82.8 265.4 192.6 285.6 209.4 346.8 257.4 11.6 9 18.4 23 18.4 37.8v38c0 53-43 96-96 96h-832c-53 0-96-43-96-96v-38c0-14.8 6.8-28.6 18.4-37.8 61.2-47.8 81.4-64.8 346.8-257.4 33.6-24.4 100.4-83.6 146.8-82.8z" />
<glyph unicode="&#xe95b;" glyph-name="exchange-alt-solid" d="M0 624v32c0 26.51 21.49 48 48 48h720v96c0 42.734 51.798 64.084 81.942 33.942l160-160c18.744-18.746 18.744-49.138 0-67.882l-160-160c-30.030-30.024-81.942-8.972-81.942 33.94v96h-720c-26.51 0-48 21.49-48 48zM976 320h-720v96c0 42.628-51.724 64.16-81.942 33.942l-160-160c-18.744-18.746-18.744-49.138 0-67.882l160-160c30.056-30.054 81.942-8.934 81.942 33.94v96h720c26.51 0 48 21.49 48 48v32c0 26.51-21.49 48-48 48z" />
<glyph unicode="&#xe95c;" glyph-name="exchange-solid" d="M0 624v32c0 26.51 21.49 48 48 48h763.94l-60.934 55.456c-19.63 18.578-20.060 49.692-0.948 68.804l21.68 21.68c18.746 18.746 49.136 18.746 67.882 0l165.634-164.686c24.994-24.994 24.994-65.516 0-90.51l-165.634-164.686c-18.746-18.746-49.138-18.746-67.882 0l-21.68 21.68c-19.112 19.112-18.682 50.228 0.948 68.804l60.934 55.458h-763.94c-26.51 0-48 21.49-48 48zM976 320h-763.94l60.934 55.456c19.63 18.578 20.060 49.692 0.948 68.804l-21.68 21.68c-18.746 18.746-49.136 18.746-67.882 0l-165.634-164.686c-24.994-24.994-24.994-65.516 0-90.51l165.634-164.686c18.746-18.746 49.138-18.746 67.882 0l21.68 21.68c19.112 19.112 18.682 50.226-0.948 68.804l-60.934 55.458h763.94c26.51 0 48 21.49 48 48v32c0 26.51-21.49 48-48 48z" />
<glyph unicode="&#xe95d;" glyph-name="exclamation-circle-solid" d="M1008 448c0-273.994-222.086-496-496-496s-496 222.006-496 496c0 273.834 222.086 496 496 496s496-222.166 496-496zM512 348c-50.81 0-92-41.19-92-92s41.19-92 92-92 92 41.19 92 92-41.19 92-92 92zM424.654 678.692l14.836-272c0.694-12.728 11.218-22.692 23.964-22.692h97.092c12.746 0 23.27 9.964 23.964 22.692l14.836 272c0.75 13.748-10.196 25.308-23.964 25.308h-126.766c-13.768 0-24.712-11.56-23.962-25.308z" />
<glyph unicode="&#xe95e;" glyph-name="exclamation-solid" horiz-adv-x="384" d="M352 96c0-88.224-71.776-160-160-160s-160 71.776-160 160 71.776 160 160 160 160-71.776 160-160zM50.52 909.602l27.2-544c1.278-25.546 22.362-45.602 47.94-45.602h132.68c25.578 0 46.662 20.056 47.94 45.602l27.2 544c1.37 27.418-20.488 50.398-47.94 50.398h-187.080c-27.452 0-49.31-22.98-47.94-50.398z" />
<glyph unicode="&#xe95f;" glyph-name="exclamation-square-solid" horiz-adv-x="896" d="M800 896h-704c-53.020 0-96-42.98-96-96v-704c0-53.020 42.98-96 96-96h704c53.020 0 96 42.98 96 96v704c0 53.020-42.98 96-96 96zM384.618 704h126.764c13.768 0 24.714-11.56 23.964-25.308l-14.836-272c-0.694-12.728-11.218-22.692-23.964-22.692h-97.092c-12.746 0-23.27 9.964-23.964 22.692l-14.836 272c-0.75 13.748 10.196 25.308 23.964 25.308zM448 164c-50.81 0-92 41.19-92 92s41.19 92 92 92 92-41.19 92-92-41.19-92-92-92z" />
<glyph unicode="&#xe960;" glyph-name="exclamation-triangle-solid" horiz-adv-x="1152" d="M1139.034 79.974c36.916-63.988-9.422-143.974-83.154-143.974h-959.772c-73.874 0-119.998 80.11-83.154 143.974l479.892 832.056c36.934 64.018 129.44 63.902 166.308 0l479.88-832.056zM576 252c-50.81 0-92-41.19-92-92s41.19-92 92-92 92 41.19 92 92-41.19 92-92 92zM488.654 582.692l14.836-272c0.694-12.728 11.218-22.692 23.964-22.692h97.092c12.746 0 23.27 9.964 23.964 22.692l14.836 272c0.75 13.748-10.196 25.308-23.964 25.308h-126.766c-13.768 0-24.712-11.56-23.962-25.308z" />
<glyph unicode="&#xe961;" glyph-name="expand-solid" horiz-adv-x="896" d="M0 600v248c0 26.6 21.4 48 48 48h248c13.2 0 24-10.8 24-24v-80c0-13.2-10.8-24-24-24h-168v-168c0-13.2-10.8-24-24-24h-80c-13.2 0-24 10.8-24 24zM576 872v-80c0-13.2 10.8-24 24-24h168v-168c0-13.2 10.8-24 24-24h80c13.2 0 24 10.8 24 24v248c0 26.6-21.4 48-48 48h-248c-13.2 0-24-10.8-24-24zM872 320h-80c-13.2 0-24-10.8-24-24v-168h-168c-13.2 0-24-10.8-24-24v-80c0-13.2 10.8-24 24-24h248c26.6 0 48 21.4 48 48v248c0 13.2-10.8 24-24 24zM320 24v80c0 13.2-10.8 24-24 24h-168v168c0 13.2-10.8 24-24 24h-80c-13.2 0-24-10.8-24-24v-248c0-26.6 21.4-48 48-48h248c13.2 0 24 10.8 24 24z" />
<glyph unicode="&#xe962;" glyph-name="external-link-alt-solid" d="M864 320h-64c-17.673 0-32-14.327-32-32v0-224h-640v640h288c17.673 0 32 14.327 32 32v0 64c0 17.673-14.327 32-32 32v0h-320c-53.019 0-96-42.981-96-96v0-704c0-53.019 42.981-96 96-96v0h704c53.019 0 96 42.981 96 96v0 256c0 17.673-14.327 32-32 32v0zM976 960h-256c-42.74 0-64.1-51.82-34-82l71.46-71.46-487.46-487.28c-8.721-8.692-14.118-20.716-14.118-34s5.396-25.308 14.116-33.999l0.001-0.001 45.34-45.26c8.692-8.721 20.716-14.118 34-14.118s25.308 5.396 33.999 14.116l487.221 487.361 71.44-71.36c30-30 82-9 82 34v256c0 26.51-21.49 48-48 48v0z" />
<glyph unicode="&#xe963;" glyph-name="external-link-solid" d="M864 320h-64c-17.673 0-32-14.327-32-32v0-224h-640v640h288c17.673 0 32 14.327 32 32v0 64c0 17.673-14.327 32-32 32v0h-320c-53.019 0-96-42.981-96-96v0-704c0-53.019 42.981-96 96-96v0h704c53.019 0 96 42.981 96 96v0 256c0 17.673-14.327 32-32 32v0zM949.34 960h-317.34c-30.928 0-56-25.072-56-56v0-37.42c0.89-30.233 25.611-54.403 55.977-54.403 0.564 0 1.125 0.008 1.685 0.025l-0.082-0.002 134.42 3.8-498-494.3c-8.686-8.686-14.058-20.686-14.058-33.94s5.372-25.254 14.058-33.94v0l48-47.82c8.674-8.614 20.625-13.938 33.82-13.938 13.284 0 25.308 5.396 33.999 14.117l0.001 0.001 494.18 497.82-3.76-134.44v-1.56c0-30.928 25.072-56 56-56v0h35.76c30.928 0 56 25.072 56 56v0 317.34c0 41.234-33.426 74.66-74.66 74.66v0z" />
<glyph unicode="&#xe964;" glyph-name="external-link-square-alt-solid" horiz-adv-x="896" d="M896 800v-704c0-53.020-42.98-96-96-96h-704c-53.020 0-96 42.98-96 96v704c0 53.020 42.98 96 96 96h704c53.020 0 96-42.98 96-96zM720 768h-223.942c-42.626 0-64.16-51.722-33.942-81.942l63.968-63.974-391.054-391.054c-9.372-9.372-9.372-24.568 0-33.942l62.058-62.058c9.374-9.372 24.57-9.372 33.942 0l391.052 391.052 63.976-63.982c30.058-30.054 81.942-8.95 81.942 33.942v223.958c0 26.51-21.49 48-48 48z" />
<glyph unicode="&#xe965;" glyph-name="external-link-square-solid" horiz-adv-x="896" d="M896 800v-704c0-53.020-42.98-96-96-96h-704c-53.020 0-96 42.98-96 96v704c0 53.020 42.98 96 96 96h704c53.020 0 96-42.98 96-96zM768 705.778c0 34.364-27.858 62.222-62.222 62.222h-264.444c-25.774 0-46.666-20.894-46.666-46.668v-29.808c0-26.276 21.686-47.372 47.952-46.648l112.004 3.176-414.808-411.868c-15.716-15.604-15.76-41.008-0.1-56.668l39.798-39.798c15.66-15.66 41.064-15.616 56.668 0.1l411.87 414.808-3.176-112.006c-0.724-26.266 20.372-47.952 46.648-47.952h29.808c25.774 0 46.668 20.894 46.668 46.666v264.444z" />
<glyph unicode="&#xe966;" glyph-name="eye-slash-solid" horiz-adv-x="1280" d="M640 160c-151.7 0-274.5 117.42-285.8 266.22l-209.8 162.14c-27.58-34.6-52.96-71.18-73.44-111.18-4.387-8.495-6.959-18.542-6.959-29.19s2.572-20.695 7.129-29.553l-0.17 0.363c108.46-211.62 323.18-354.8 569.040-354.8 53.82 0 105.74 8 155.78 20.92l-103.78 80.3c-15.55-3.151-33.498-5.043-51.857-5.219l-0.143-0.001zM1267.64 43.8l-221.1 170.88c66.318 56.14 120.801 123.919 160.761 200.48l1.739 3.66c4.387 8.495 6.959 18.542 6.959 29.19s-2.572 20.695-7.129 29.553l0.17-0.363c-108.46 211.62-323.18 354.8-569.040 354.8-108.057-0.135-209.564-28.059-297.794-77.006l3.154 1.606-254.44 196.66c-5.365 4.206-12.212 6.745-19.652 6.745-10.241 0-19.358-4.81-25.215-12.295l-0.053-0.070-39.26-50.54c-4.2-5.363-6.736-12.205-6.736-19.639 0-10.236 4.806-19.35 12.286-25.208l0.070-0.053 1176.72-909.46c5.365-4.206 12.212-6.745 19.652-6.745 10.241 0 19.358 4.81 25.215 12.295l0.053 0.070 39.28 50.54c4.196 5.361 6.728 12.2 6.728 19.63 0 10.242-4.812 19.36-12.298 25.217l-0.070 0.053zM900.2 327.8l-78.6 60.76c6.321 17.675 10.107 38.068 10.399 59.306l0.001 0.134c0.010 0.742 0.016 1.618 0.016 2.496 0 104.669-84.851 189.52-189.52 189.52-18.929 0-37.21-2.775-54.458-7.941l1.342 0.345c11.598-15.572 18.581-35.176 18.62-56.411v-0.009c-0.328-7.253-1.432-14.098-3.233-20.655l0.153 0.655-147.22 113.78c48.981 41.15 112.714 66.167 182.289 66.22h0.011c0.047 0 0.104 0 0.16 0 158.97 0 287.84-128.87 287.84-287.84 0-0.056 0-0.112 0-0.168v0.008c0-43.26-10.58-83.58-27.8-120.22z" />
<glyph unicode="&#xe967;" glyph-name="eye-solid" horiz-adv-x="1152" d="M1145.040 477.2c-108.46 211.62-323.18 354.8-569.040 354.8s-460.64-143.28-569.040-354.82c-4.387-8.495-6.959-18.542-6.959-29.19s2.572-20.695 7.129-29.553l-0.17 0.363c108.46-211.62 323.18-354.8 569.040-354.8s460.64 143.28 569.040 354.82c4.387 8.495 6.959 18.542 6.959 29.19s-2.572 20.695-7.129 29.553l0.17-0.363zM576 160c-159.058 0-288 128.942-288 288s128.942 288 288 288c159.058 0 288-128.942 288-288v0c0-0.041 0-0.091 0-0.14 0-158.981-128.879-287.86-287.86-287.86-0.049 0-0.098 0-0.147 0h0.007zM576 640c-18.13-0.261-35.516-3.012-51.969-7.926l1.349 0.346c11.631-15.661 18.62-35.374 18.62-56.72 0-52.854-42.846-95.7-95.7-95.7-21.346 0-41.059 6.988-56.977 18.802l0.257-0.182c-4.247-15.047-6.689-32.328-6.689-50.179 0-105.796 85.764-191.56 191.56-191.56s191.56 85.764 191.56 191.56c0 105.796-85.764 191.56-191.56 191.56-0.159 0-0.317 0-0.476-0.001h0.025z" />
<glyph unicode="&#xe968;" glyph-name="file-chart-line-solid" horiz-adv-x="768" d="M754 750l-195.8 196c-9 9-21.2 14-34 14h-12.2v-256h256v12.2c0 12.6-5 24.8-14 33.8zM448 688v272h-400c-26.6 0-48-21.4-48-48v-928c0-26.6 21.4-48 48-48h672c26.6 0 48 21.4 48 48v656h-272c-26.4 0-48 21.6-48 48zM256 89.6c0-12.8-12.8-25.6-25.6-25.6h-76.8c-12.8 0-25.6 12.8-25.6 25.6v140.8c0 12.8 12.8 25.6 25.6 25.6h76.8c12.8 0 25.6-12.8 25.6-25.6v-140.8zM448 89.6c0-12.8-12.8-25.6-25.6-25.6h-76.8c-12.8 0-25.6 12.8-25.6 25.6v396.8c0 12.8 12.8 25.6 25.6 25.6h76.8c12.8 0 25.6-12.8 25.6-25.6v-396.8zM512 358.4c0 12.8 12.8 25.6 25.6 25.6h76.8c12.8 0 25.6-12.8 25.6-25.6v-268.8c0-12.8-12.8-25.6-25.6-25.6h-76.8c-12.8 0-25.6 12.8-25.6 25.6v268.8z" />
<glyph unicode="&#xe969;" glyph-name="file-chart-pie-solid" horiz-adv-x="768" d="M448 688v272h-400c-26.6 0-48-21.4-48-48v-928c0-26.6 21.4-48 48-48h672c26.6 0 48 21.4 48 48v656h-272c-26.4 0-48 21.6-48 48zM273.020 82.94c-57.46 22.32-103.74 68.6-126.080 126.060-60.1 154.72 34.88 301.4 173.060 329.68v-282.68h282.68c-28.28-138.18-174.96-233.16-329.66-173.060zM624.28 320.040c0-0.020 0.020-0.040 0-0.040h-240.28v240.28c0 0.020 0.020 0 0.040 0 132.68-0.020 240.22-107.56 240.24-240.24zM754 750l-195.8 196c-9 9-21.2 14-34 14h-12.2v-256h256v12.2c0 12.6-5 24.8-14 33.8z" />
<glyph unicode="&#xe96a;" glyph-name="file-image-solid" horiz-adv-x="768" d="M768 716.118v-12.118h-256v256h12.118c13.254 0 25.254-5.372 33.94-14.058l195.882-195.882c8.687-8.687 14.059-20.687 14.060-33.942v0zM496 640c-26.4 0-48 21.6-48 48v272h-400c-26.51 0-48-21.49-48-48v-928c0-26.51 21.49-48 48-48h672c26.51 0 48 21.49 48 48v656h-272zM225.090 608c53.020 0 96-42.98 96-96s-42.98-96-96-96-96 42.98-96 96 42.982 96 96 96zM641.090 128h-512l0.97 96.97 79.030 79.030c9.372 9.372 23.598 8.402 32.97-0.97l79.030-79.030 207.030 207.030c9.372 9.372 24.568 9.372 33.942 0l79.028-79.030v-224z" />
<glyph unicode="&#xe96b;" glyph-name="file-solid" horiz-adv-x="768" d="M448 688v272h-400c-26.6 0-48-21.4-48-48v-928c0-26.6 21.4-48 48-48h672c26.6 0 48 21.4 48 48v656h-272c-26.4 0-48 21.6-48 48zM768 716.2v-12.2h-256v256h12.2c12.8 0 25-5 34-14l195.8-196c9-9 14-21.2 14-33.8z" />
<glyph unicode="&#xe96c;" glyph-name="filter-solid" d="M975.952 960h-927.896c-42.636 0-64.15-51.732-33.94-81.942l369.884-369.94v-412.118c0-15.662 7.642-30.34 20.474-39.324l160-111.96c31.566-22.096 75.526 0.298 75.526 39.324v524.078l369.894 369.94c30.148 30.15 8.782 81.942-33.942 81.942z" />
<glyph unicode="&#xe96d;" glyph-name="fingerprint-solid" d="M512.24 468.080c-26.5 0-48-21.48-48-48 2.28-144.5-16.28-283.8-55.4-423.1-5.46-19.44 4.3-60.98 46.24-60.98 20.96 0 40.22 13.84 46.18 35.040 27.060 95.82 62.080 250.82 58.96 449.040 0.020 26.5-21.46 48-47.98 48zM510.52 631.54c-122.52 0.14-208.020-94.14-206.32-202.18 1.5-95.88-7.5-191.82-26.74-285.1-5.38-25.96 11.34-51.38 37.28-56.72 26.1-5.34 51.34 11.32 56.72 37.28 20.68 100.18 30.34 203.16 28.74 306.040-0.82 51.9 39.84 104.98 108.9 104.68 62.62-0.94 114.3-50.68 115.24-110.94 1.54-96.1-5.62-192.66-21.22-287.1-4.34-26.12 13.38-50.84 39.52-55.16 39.94-6.66 53.62 30.2 55.16 39.54 16.56 100.060 24.12 202.42 22.54 304.22-1.76 111.6-95.88 203.76-209.82 205.44zM289.14 671.1c-20.6 16.68-50.74 13.6-67.52-6.96-51.24-63-78.78-142.56-77.5-224 1.18-75.16-4.94-150.54-18.22-224.1-4.68-26.1 12.62-51.060 38.72-55.78 40.22-7 54.14 29.62 55.78 38.72 14.38 79.68 21 161.32 19.72 242.66-0.94 59.76 18.4 115.76 56 161.94 16.7 20.56 13.58 50.78-6.98 67.52zM508.080 795.76c-30.82 0.82-61.74-2.88-91.56-9.94-25.78-6.12-41.74-31.96-35.66-57.78 6.12-25.78 32-41.66 57.78-35.66 22.1 5.22 44.94 7.54 68 7.38 150.86-2.26 275.46-123 277.76-269.16 1.18-75.76-2.56-152.22-11.16-227.26-3-26.34 15.9-50.16 42.22-53.16 33.44-3.9 51.020 23.76 53.16 42.22 7.643 63.285 12.004 136.566 12.004 210.866 0 10.138-0.081 20.257-0.243 30.356l0.019-1.522c-3.12 197.5-170.14 360.66-372.32 363.66zM1012.22 552.86c-5.72 25.84-31.020 42.4-57.22 36.54-25.88-5.72-42.24-31.32-36.52-57.22 9.42-42.82 9.82-74.82 9.4-123.2-0.22-26.54 21.1-48.18 47.6-48.4h0.4c26.34 0 47.78 21.22 48 47.6 0.36 44.36 0.8 88.22-11.66 144.68zM931.98 734.3c-97.4 138.78-256.78 223.12-426.36 225.66-139.58 1.68-268.68-49.78-364.7-145.84-92.74-92.86-142.72-216.2-140.64-347.42l-0.24-42.94c-0.78-26.5 20.060-48.62 46.56-49.38 0.46-0.040 0.96-0.040 1.44-0.040 25.84 0 47.18 20.6 47.94 46.6l0.32 47.28c-1.66 105 38.32 203.72 112.56 278 77.52 77.6 182.68 119.34 295.36 117.72 138.9-2.060 269.46-71.12 349.24-184.78 15.22-21.72 45.12-26.9 66.84-11.72 21.68 15.24 26.92 45.18 11.68 66.86z" />
<glyph unicode="&#xe96e;" glyph-name="flag-alt-solid" d="M64 960c-35.4 0-64-28.6-64-64v-928c0-17.6 14.4-32 32-32h64c17.6 0 32 14.4 32 32v928c0 35.4-28.6 64-64 64zM925.2 951.6c-342.6-174.6-314.4 132.8-733.2-56.4v-703.2c371.4 184.4 443.4-106.6 795 46.2 22.8 10 37 33 37 57.6v602.6c0 50.2-53.6 76.2-98.8 53.2z" />
<glyph unicode="&#xe96f;" glyph-name="flask-solid" horiz-adv-x="896" d="M874.4 153l-234.4 377v302h16c26.6 0 48 21.4 48 48v32c0 26.6-21.4 48-48 48h-416c-26.6 0-48-21.4-48-48v-32c0-26.6 21.4-48 48-48h16v-302l-234.4-377c-58.6-94.2 9-217 120.2-217h612.4c111.4 0 178.8 123 120.2 217zM275.8 320l96.4 155.2c7.4 10.4 11.6 23.2 11.6 36.8v320h128v-320c0-13.8 4.4-26.4 11.6-36.8l96.4-155.2h-344z" />
<glyph unicode="&#xe970;" glyph-name="folder-solid" d="M928 704h-384l-128 128h-320c-53.020 0-96-42.98-96-96v-576c0-53.020 42.98-96 96-96h832c53.020 0 96 42.98 96 96v448c0 53.020-42.98 96-96 96z" />
<glyph unicode="&#xe971;" glyph-name="frown-open-solid" horiz-adv-x="992" d="M496 944c-274 0-496-222-496-496s222-496 496-496 496 222 496 496-222 496-496 496zM272 544c0 35.4 28.6 64 64 64s64-28.6 64-64-28.6-64-64-64-64 28.6-64 64zM646.6 177.4c-62.4 19.2-118.8 30.6-150.6 30.6s-88.2-11.4-150.6-30.6c-23-7-45 12.6-41 36.2 14 80 120.2 122.4 191.6 122.4s177.6-42.6 191.6-122.4c4-23.8-18.2-43.2-41-36.2zM656 480c-35.4 0-64 28.6-64 64s28.6 64 64 64 64-28.6 64-64-28.6-64-64-64z" />
<glyph unicode="&#xe972;" glyph-name="frown-solid" horiz-adv-x="992" d="M496 944c-274 0-496-222-496-496s222-496 496-496 496 222 496 496-222 496-496 496zM656 608c35.4 0 64-28.6 64-64s-28.6-64-64-64-64 28.6-64 64 28.6 64 64 64zM336 608c35.4 0 64-28.6 64-64s-28.6-64-64-64-64 28.6-64 64 28.6 64 64 64zM676.4 171.6c-44.8 53.6-110.6 84.4-180.4 84.4s-135.6-30.8-180.4-84.4c-27-32.6-76.2 8.4-49.2 41 57 68.2 140.8 107.4 229.6 107.4s172.6-39.2 229.4-107.6c27.2-32.4-22-73.4-49-40.8z" />
<glyph unicode="&#xe973;" glyph-name="gem-solid" horiz-adv-x="1152" d="M971 960l181-320h-202.2l-138.4 320h159.6zM715 960l138.4-320h-554.8l138.4 320h278zM181 960h159.6l-138.4-320h-202.2l181 320zM0 576h201.4l246-503.4c3-6.2-5.4-11.8-10-6.6l-437.4 510zM296.4 576h559.2l-274-636.4c-2-4.8-9-4.8-11 0l-274.2 636.4zM704.6 72.6l246 503.4h201.4l-437.4-509.8c-4.6-5.4-13 0.2-10 6.4z" />
<glyph unicode="&#xe974;" glyph-name="genderless-solid" horiz-adv-x="576" d="M288 608c88.2 0 160-71.8 160-160s-71.8-160-160-160-160 71.8-160 160 71.8 160 160 160zM288 736c-159 0-288-129-288-288s129-288 288-288 288 129 288 288-129 288-288 288z" />
<glyph unicode="&#xe975;" glyph-name="gift-solid" d="M64 64c0-35.4 28.6-64 64-64h320v320h-384v-256zM576 0h320c35.4 0 64 28.6 64 64v256h-384v-320zM960 640h-84.2c12.4 24.2 20.2 51 20.2 80 0 97-79 176-176 176-83.2 0-137-42.6-206-136.6-69 94-122.8 136.6-206 136.6-97 0-176-79-176-176 0-29 7.6-55.8 20.2-80h-88.2c-35.4 0-64-28.6-64-64v-160c0-17.6 14.4-32 32-32h960c17.6 0 32 14.4 32 32v160c0 35.4-28.6 64-64 64zM307.8 640c-44.2 0-80 35.8-80 80s35.8 80 80 80c39.8 0 69.2-6.6 172.2-160h-172.2zM720 640h-172.2c102.8 153 131.4 160 172.2 160 44.2 0 80-35.8 80-80s-35.8-80-80-80z" />
<glyph unicode="&#xe976;" glyph-name="globe-africa-solid" horiz-adv-x="992" d="M496 944c-273.94 0-496-222.060-496-496s222.060-496 496-496 496 222.060 496 496-222.060 496-496 496zM816 513v-13.86c0-11.74-6.64-22.48-17.14-27.72l-30.78-15.4c-4.038-2.065-8.808-3.275-13.861-3.275-6.411 0-12.367 1.948-17.309 5.285l0.11-0.070-36.42 24.28c-4.836 3.261-10.794 5.206-17.206 5.206-3.503 0-6.871-0.58-10.012-1.65l0.219 0.065-5.3-1.76c-19.4-6.46-27.32-29.58-15.98-46.6l26.48-39.72c5.74-8.62 15.42-13.8 25.78-13.8h16.42c17.12 0 31-13.88 31-31v-22.68c0-6.7-2.18-13.24-6.2-18.6l-37.48-49.96c-2.84-3.8-4.78-8.2-5.66-12.86l-8.6-45.66c-1.24-6.58-4.58-12.58-9.52-17.12-18.721-17.183-35.201-36.307-49.279-57.185l-0.721-1.135-26.060-39.1c-10.096-14.988-27.001-24.717-46.18-24.72v0c-21.020 0-40.24 11.88-49.64 30.68-10.505 20.561-16.66 44.848-16.66 70.572 0 0.003 0 0.005 0 0.008v0 59.78c0 17.12-13.88 31-31 31h-51.76c-28.98 0-56.76 11.52-77.26 32-19.767 19.776-31.994 47.089-32 77.259v28.121c0 34.38 16.2 66.76 43.7 87.4l55.16 41.38c18.035 13.642 40.838 21.853 65.558 21.86h1.782c16.96 0 33.7-3.94 48.86-11.54l29.44-14.72c7.36-3.68 15.86-4.28 23.66-1.68l94.62 31.54c12.66 4.22 21.2 16.060 21.2 29.4 0 17.12-13.88 31-31 31h-20.18c-8.22 0-16.1 3.26-21.92 9.080l-13.84 13.84c-5.608 5.61-13.356 9.080-21.915 9.080-0.002 0-0.004 0-0.005 0h-180.1c-17.12 0-31 13.88-31 31v8.8c0 14.22 9.68 26.62 23.48 30.080l28.9 7.22c7.48 1.88 14 6.46 18.28 12.88l16.16 24.22c5.74 8.62 15.42 13.8 25.78 13.8h48.42c17.12 0 31 13.88 31 31v43.4c158.44-25.68 285.7-144.46 323.84-298.42h-36.86c-17.12 0-31-13.88-31-31z" />
<glyph unicode="&#xe977;" glyph-name="globe-americas-solid" horiz-adv-x="992" d="M496 944c-273.94 0-496-222.060-496-496s222.060-496 496-496 496 222.060 496 496-222.060 496-496 496zM660.58 228.8c-7.8-7.76-15.98-15.9-22.62-22.56-5.98-6-10.2-13.4-12.34-21.42-3.020-11.32-5.46-22.76-9.54-33.74l-34.78-93.7c-27.52-6-56-9.38-85.3-9.38v54.76c3.38 25.24-15.28 72.52-45.26 102.5-12 12-18.74 28.28-18.74 45.26v64.020c0 23.28-12.54 44.68-32.92 55.94-28.74 15.9-69.62 38.12-97.62 52.22-22.96 11.56-44.2 26.28-63.3 43.5l-1.6 1.44c-13.518 12.235-25.417 25.837-35.614 40.699l-0.506 0.781c-18.76 27.54-49.32 72.84-69.18 102.28 40.94 91 114.72 164.080 206.4 203.78l48.020-24.020c21.28-10.64 46.32 4.82 46.32 28.62v22.6c15.98 2.58 32.24 4.22 48.78 4.84l56.6-56.6c12.5-12.5 12.5-32.76 0-45.26l-9.38-9.36-20.68-20.68c-6.24-6.24-6.24-16.38 0-22.62l9.38-9.38c6.24-6.24 6.24-16.38 0-22.62l-16-16c-2.897-2.892-6.897-4.68-11.314-4.68-0.002 0-0.004 0-0.006 0h-17.98c-4.16 0-8.16-1.62-11.16-4.54l-19.84-19.3c-2.989-2.912-4.842-6.977-4.842-11.474 0-2.604 0.622-5.063 1.724-7.237l-0.042 0.091 31.18-62.38c5.32-10.64-2.42-23.16-14.3-23.16h-11.28c-3.86 0-7.58 1.4-10.48 3.92l-18.56 16.12c-5.588 4.868-12.944 7.837-20.992 7.837-3.616 0-7.092-0.599-10.334-1.703l0.226 0.067-62.34-20.78c-9.575-3.263-16.34-12.178-16.34-22.673 0-0.003 0-0.005 0-0.008v0c0-9.060 5.12-17.32 13.22-21.38l22.16-11.080c18.82-9.42 39.58-14.32 60.62-14.32s45.18-54.58 64-64h133.5c16.98 0 33.24-6.74 45.26-18.74l27.38-27.38c11.035-11.039 17.86-26.287 17.86-43.13 0-0.004 0-0.007 0-0.011v0.001c-0.009-25.779-10.497-49.107-27.436-65.956l-0.004-0.004zM834 411.5c-11.58 2.9-21.68 10-28.3 19.94l-35.96 53.94c-5.055 7.479-8.070 16.697-8.070 26.62s3.015 19.141 8.178 26.79l-0.108-0.17 39.18 58.76c4.64 6.94 11 12.58 18.48 16.3l25.96 12.98c27.040-53.84 42.64-114.4 42.64-178.66 0-17.34-1.48-34.32-3.64-51.080l-58.36 14.58z" />
<glyph unicode="&#xe978;" glyph-name="globe-asia-solid" horiz-adv-x="992" d="M496 944c-273.94 0-496-222.060-496-496s222.060-496 496-496 496 222.060 496 496-222.060 496-496 496zM473.32 463.54c-5.78-9.64-16.2-15.54-27.44-15.54h-0.62c-8.48 0-16.62-3.38-22.62-9.38l-11.32-11.32c-6.24-6.24-6.24-16.38 0-22.62l11.32-11.32c6-6 9.38-14.14 9.38-22.62v-18.74c0-17.68-14.32-32-32-32h-12.22c-12.12 0-23.2 6.84-28.62 17.7l-45.24 90.46c-4.88 9.76-17.9 11.88-25.62 4.16l-38.94-38.92c-6-6-14.14-9.38-22.62-9.38h-125.14c-3.38 20.88-5.62 42.14-5.62 63.98 0 220.56 179.44 400 400 400 43.020 0 84.4-7.020 123.26-19.64l-100.32-77.060c-10.22-6.82-9.26-22.12 1.72-27.62l21.66-10.82c10.84-5.42 17.68-16.5 17.68-28.62v-156.24c0-8.84-7.16-16-16-16h-6.12c-6.060 0-11.6 3.42-14.3 8.84-3.12 6.24-11.92 6.58-15.52 0.6l-34.74-57.9zM816 243.14c0-8.48-3.38-16.62-9.38-22.62l-19.14-19.14c-6-6-14.14-9.38-22.62-9.38h-30.32c-8.48 0-16.62 3.38-22.62 9.38l-26.020 26.020c-9.688 9.687-23.071 15.679-37.854 15.679-4.612 0-9.088-0.583-13.358-1.68l0.371 0.081-42.54-10.64c-2.54-0.64-5.14-0.96-7.76-0.96h-20.68c-8.48 0-16.62 3.38-22.62 9.38l-23.82 23.82c-2.892 2.897-4.68 6.897-4.68 11.314 0 0.002 0 0.004 0 0.006v0 20.4c0 6.54 3.98 12.42 10.060 14.86l78.68 31.48c3.96 1.58 7.72 3.64 11.18 6.1l47.42 33.78c2.572 1.851 5.785 2.96 9.257 2.96 0.008 0 0.016 0 0.024 0h24.179c6.46 0 12.3-3.88 14.78-9.86l10.7-25.7c1.238-2.913 4.075-4.919 7.38-4.92h7.6c3.56 0 6.7 2.36 7.68 5.76l8.4 28.94c1 3.42 4.12 5.76 7.68 5.76h12.12c4.42 0 8-3.58 8-8v-25.86c0-4.24 1.68-8.32 4.68-11.32l23.82-23.82c6-6 9.38-14.14 9.38-22.62v-49.2z" />
<glyph unicode="&#xe979;" glyph-name="globe-europe-solid" horiz-adv-x="992" d="M496 944c-274 0-496-222-496-496s222-496 496-496 496 222 496 496-222 496-496 496zM896 448c0-45-7.8-88.4-21.6-128.8h-40.6c-8.6 0-16.8 3.4-22.8 9.6l-64 65.2c-9 9.2-9 24.2 0.2 33.4l25 25v17.4c0 6-2.4 11.8-6.6 16l-18.8 18.8c-4.2 4.2-10 6.6-16 6.6h-32c-12.4 0-22.6 10.2-22.6 22.6 0 6 2.4 11.8 6.6 16l18.8 18.8c4.2 4.2 10 6.6 16 6.6h64c12.4 0 22.6 10.2 22.6 22.6v18.8c0 12.4-10.2 22.6-22.6 22.6h-73.4c-17.6 0-32-14.4-32-32v-9c0-13.8-8.8-26-21.8-30.4l-63.2-21c-6.6-2.2-11-8.2-11-15.2v-4.4c0-8.8-7.2-16-16-16h-32c-8.8 0-16 7.2-16 16s-7.2 16-16 16h-6.2c-6 0-11.6-3.4-14.4-8.8l-18.8-37.4c-5.4-10.8-16.4-17.6-28.6-17.6h-44.2c-17.6 0-32 14.4-32 32v50.6c0 8.4 3.4 16.6 9.4 22.6l40.2 40.2c9.2 9.2 14.4 21.8 14.4 35 0 6.8 4.4 13 11 15.2l80 26.6c3.4 1.2 6.4 3 8.8 5.4l53.6 53.6c4.2 4.2 6.6 10 6.6 16 0 12.4-10.2 22.6-22.6 22.6h-41.4l-32-32v-16c0-8.8-7.2-16-16-16h-32c-8.8 0-16 7.2-16 16v40c0 5 2.4 9.8 6.4 12.8l57.8 43.4c3.8 0.2 7.6 0.6 11.4 0.6 221 0 400.4-179.4 400.4-400zM260.2 661.8c0 6 2.4 11.8 6.6 16l50.8 50.8c4.2 4.2 10 6.6 16 6.6 12.4 0 22.6-10.2 22.6-22.6v-32c0-6-2.4-11.8-6.6-16l-18.8-18.8c-4.2-4.2-10-6.6-16-6.6h-32c-12.4 0-22.6 10.2-22.6 22.6zM516.2 49v14.2c0 17.6-14.4 32-32 32h-40.4c-21.6 0-53.4 10.6-70.8 23.6l-44.4 33.4c-23 17.2-36.4 44.2-36.4 72.8v47.8c0 32 16.8 61.6 44.2 78l85.8 51.4c14.2 8.4 30.4 13 46.8 13h62.4c21.8 0 42.8-7.8 59.2-21.8l86.4-74.2h36.6c17 0 33.2-6.8 45.2-18.8l34.6-34.6c6.8-6.8 16.2-10.6 25.8-10.6h26.8c-64.8-117.8-187.6-199-329.8-206.2z" />
<glyph unicode="&#xe97a;" glyph-name="globe-solid" horiz-adv-x="992" d="M673 640c-29 178.6-97.4 304-177 304s-148-125.4-177-304h354zM304 448c0-44.4 2.4-87 6.6-128h370.6c4.2 41 6.6 83.6 6.6 128s-2.4 87-6.6 128h-370.6c-4.2-41-6.6-83.6-6.6-128zM953.4 640c-57.2 135.8-173 240.8-316 283.2 48.8-67.6 82.4-169.4 100-283.2h216zM354.4 923.2c-142.8-42.4-258.8-147.4-315.8-283.2h216c17.4 113.8 51 215.6 99.8 283.2zM974.8 576h-229.4c4.2-42 6.6-85 6.6-128s-2.4-86-6.6-128h229.2c11 41 17.2 83.6 17.2 128s-6.2 87-17 128zM240 448c0 43 2.4 86 6.6 128h-229.4c-10.8-41-17.2-83.6-17.2-128s6.4-87 17.2-128h229.2c-4 42-6.4 85-6.4 128zM319 256c29-178.6 97.4-304 177-304s148 125.4 177 304h-354zM637.6-27.2c142.8 42.4 258.8 147.4 316 283.2h-216c-17.6-113.8-51.2-215.6-100-283.2zM38.6 256c57.2-135.8 173-240.8 316-283.2-48.8 67.6-82.4 169.4-100 283.2h-216z" />
<glyph unicode="&#xe97b;" glyph-name="grin-alt-solid" horiz-adv-x="992" d="M496 944c-274 0-496-222-496-496s222-496 496-496 496 222 496 496-222 496-496 496zM623.4 686.6c15.2 22.8 49.4 23.4 65.4 0 24.8-36.8 30.2-73.8 31.4-110.6-1-36.8-6.6-73.8-31.4-110.6-15.2-22.8-49.4-23.4-65.4 0-24.8 36.8-30.2 73.8-31.4 110.6 1 36.8 6.6 73.8 31.4 110.6zM303.4 686.6c15.2 22.8 49.4 23.4 65.4 0 24.8-36.8 30.2-73.8 31.4-110.6-1-36.8-6.6-73.8-31.4-110.6-15.2-22.8-49.4-23.4-65.4 0-24.8 36.8-30.2 73.8-31.4 110.6 1 36.8 6.6 73.8 31.4 110.6zM496 96c-121.2 0-269 76.6-287.6 186.6-4 23.6 18.6 43.2 41.4 35.8 60.4-19.4 150.2-30.4 246.2-30.4s185.8 11 246.2 30.4c22.8 7.4 45.2-12.2 41.4-35.8-18.6-110-166.4-186.6-287.6-186.6z" />
<glyph unicode="&#xe97c;" glyph-name="grin-solid" horiz-adv-x="992" d="M496 944c-274 0-496-222-496-496s222-496 496-496 496 222 496 496-222 496-496 496zM656 608c35.4 0 64-28.6 64-64s-28.6-64-64-64-64 28.6-64 64 28.6 64 64 64zM336 608c35.4 0 64-28.6 64-64s-28.6-64-64-64-64 28.6-64 64 28.6 64 64 64zM496 96c-121.2 0-269 76.6-287.6 186.6-4 23.6 18.6 43.2 41.4 35.8 60.4-19.4 150.2-30.4 246.2-30.4s185.8 11 246.2 30.4c22.6 7.4 45.2-12.2 41.4-35.8-18.6-110-166.4-186.6-287.6-186.6z" />
<glyph unicode="&#xe97d;" glyph-name="grip-lines-solid" d="M992 384h-960c-17.6 0-32-14.4-32-32v-64c0-17.6 14.4-32 32-32h960c17.6 0 32 14.4 32 32v64c0 17.6-14.4 32-32 32zM992 640h-960c-17.6 0-32-14.4-32-32v-64c0-17.6 14.4-32 32-32h960c17.6 0 32 14.4 32 32v64c0 17.6-14.4 32-32 32z" />
<glyph unicode="&#xe97e;" glyph-name="grip-lines-vertical-solid" horiz-adv-x="512" d="M192-32v960c0 17.6-14.4 32-32 32h-64c-17.6 0-32-14.4-32-32v-960c0-17.6 14.4-32 32-32h64c17.6 0 32 14.4 32 32zM448-32v960c0 17.6-14.4 32-32 32h-64c-17.6 0-32-14.4-32-32v-960c0-17.6 14.4-32 32-32h64c17.6 0 32 14.4 32 32z" />
<glyph unicode="&#xe97f;" glyph-name="heart-circle-solid" horiz-adv-x="992" d="M496 944c-274 0-496-222-496-496s222-496 496-496 496 222 496 496-222 496-496 496zM743 399.4l-221.2-228.4c-14.2-14.8-37.4-14.8-51.8 0l-221 228.4c-64.2 66.4-60.4 176.4 11.4 237.6 62.6 53.4 155.8 43.8 213.2-15.4l22.6-23.2 22.6 23.2c57.4 59.2 150.6 68.8 213.2 15.4 71.6-61.2 75.4-171.2 11-237.6z" />
<glyph unicode="&#xe980;" glyph-name="heart-solid" d="M924.6 834.8c-109.6 93.4-272.6 76.6-373.2-27.2l-39.4-40.6-39.4 40.6c-100.4 103.8-263.6 120.6-373.2 27.2-125.6-107.2-132.2-299.6-19.8-415.8l387-399.6c25-25.8 65.6-25.8 90.6 0l387 399.6c112.6 116.2 106 308.6-19.6 415.8z" />
<glyph unicode="&#xe981;" glyph-name="history-solid" d="M1008 448.938c0.506-273.28-222.36-496.744-495.64-496.936-118.030-0.084-226.446 41.060-311.644 109.822-22.154 17.88-23.81 51.082-3.678 71.214l22.534 22.534c17.218 17.218 44.706 19.102 63.782 3.968 62.77-49.81 142.208-79.54 228.646-79.54 203.41 0 368 164.622 368 368 0 203.41-164.622 368-368 368-97.628 0-186.298-37.938-252.136-99.864l101.508-101.508c20.16-20.16 5.882-54.628-22.626-54.628h-290.746c-17.674 0-32 14.326-32 32v290.746c0 28.508 34.468 42.786 54.628 22.628l98.744-98.744c89.046 85.098 209.732 137.37 342.628 137.37 273.62 0 495.494-221.56 496-495.062zM646.176 291.37l19.646 25.26c16.276 20.926 12.506 51.084-8.42 67.358l-81.402 63.314v208.698c0 26.51-21.49 48-48 48h-32c-26.51 0-48-21.49-48-48v-271.302l130.818-101.748c20.926-16.274 51.082-12.506 67.358 8.42z" />
<glyph unicode="&#xe982;" glyph-name="home-alt-solid" horiz-adv-x="1152" d="M560.74 663.48l-368.74-303.7v-327.78c0-17.673 14.327-32 32-32v0l224.12 0.58c17.604 0.091 31.84 14.383 31.84 32 0 0 0 0 0 0v0 191.42c0 17.673 14.327 32 32 32v0h128c17.673 0 32-14.327 32-32v0-191.28c0-0.030 0-0.065 0-0.1 0-17.673 14.327-32 32-32 0 0 0 0 0 0v0l224.040-0.62c17.673 0 32 14.327 32 32v0 328l-368.66 303.48c-4.145 3.363-9.485 5.399-15.3 5.399s-11.155-2.036-15.345-5.434l0.045 0.036zM1143.2 457.060l-506.26 416.94c-16.448 13.613-37.759 21.872-61 21.872s-44.552-8.259-61.161-22.001l0.161 0.129-506.26-416.94c-5.337-4.434-8.71-11.073-8.71-18.499 0-5.833 2.081-11.181 5.542-15.34l-0.032 0.039 51-62c4.434-5.364 11.089-8.755 18.537-8.755 5.825 0 11.166 2.075 15.323 5.527l-0.039-0.032 470.44 387.48c4.145 3.363 9.485 5.399 15.3 5.399s11.155-2.036 15.345-5.434l-0.045 0.036 470.46-387.48c4.12-3.429 9.468-5.51 15.301-5.51 7.426 0 14.065 3.373 18.467 8.671l0.032 0.039 51 62c3.398 4.11 5.459 9.434 5.459 15.239 0 7.494-3.435 14.186-8.816 18.587l-0.043 0.034z" />
<glyph unicode="&#xe983;" glyph-name="home-lg-alt-solid" horiz-adv-x="1152" d="M576 730l-437.060-385.42c-3.24-2.92-7.38-4.28-10.94-6.7v-369.88c0-17.673 14.327-32 32-32v0h256c17.673 0 32 14.327 32 32v0 256c0 17.673 14.327 32 32 32v0h192c17.673 0 32-14.327 32-32v0-256c0-17.673 14.327-32 32-32v0h256c17.673 0 32 14.327 32 32v0 369.8c-3.4 2.32-7.44 3.64-10.52 6.4zM1141.38 487.44l-511.88 452c-14.079 12.766-32.852 20.58-53.45 20.58s-39.371-7.814-53.517-20.64l0.067 0.060-512-452c-6.532-5.883-10.62-14.369-10.62-23.809 0-8.237 3.112-15.748 8.225-21.419l-0.025 0.029 42.82-47.64c5.883-6.532 14.369-10.62 23.809-10.62 8.237 0 15.748 3.112 21.419 8.225l-0.029-0.025 458.64 404.56c5.612 4.969 13.037 8.004 21.17 8.004s15.558-3.034 21.204-8.033l-0.034 0.029 458.64-404.54c5.643-5.088 13.153-8.2 21.391-8.2 9.441 0 17.927 4.088 23.784 10.591l0.026 0.029 42.8 47.64c5.076 5.64 8.181 13.142 8.181 21.37 0 9.441-4.089 17.928-10.592 23.785l-0.029 0.026z" />
<glyph unicode="&#xe984;" glyph-name="id-badge-solid" horiz-adv-x="768" d="M672 960h-576c-53 0-96-43-96-96v-832c0-53 43-96 96-96h576c53 0 96 43 96 96v832c0 53-43 96-96 96zM288 896h192c17.6 0 32-14.4 32-32s-14.4-32-32-32h-192c-17.6 0-32 14.4-32 32s14.4 32 32 32zM384 640c70.6 0 128-57.4 128-128s-57.4-128-128-128-128 57.4-128 128 57.4 128 128 128zM608 166.4c0-21.2-20-38.4-44.8-38.4h-358.4c-24.8 0-44.8 17.2-44.8 38.4v38.4c0 63.6 60.2 115.2 134.4 115.2h10c24.6-10.2 51.4-16 79.6-16s55.2 5.8 79.6 16h10c74.2 0 134.4-51.6 134.4-115.2v-38.4z" />
<glyph unicode="&#xe985;" glyph-name="id-card-solid" horiz-adv-x="1152" d="M1056 896h-960c-53 0-96-43-96-96v-32h1152v32c0 53-43 96-96 96zM0 96c0-53 43-96 96-96h960c53 0 96 43 96 96v608h-1152v-608zM704 560c0 8.8 7.2 16 16 16h288c8.8 0 16-7.2 16-16v-32c0-8.8-7.2-16-16-16h-288c-8.8 0-16 7.2-16 16v32zM704 432c0 8.8 7.2 16 16 16h288c8.8 0 16-7.2 16-16v-32c0-8.8-7.2-16-16-16h-288c-8.8 0-16 7.2-16 16v32zM704 304c0 8.8 7.2 16 16 16h288c8.8 0 16-7.2 16-16v-32c0-8.8-7.2-16-16-16h-288c-8.8 0-16 7.2-16 16v32zM352 576c70.6 0 128-57.4 128-128s-57.4-128-128-128-128 57.4-128 128 57.4 128 128 128zM134.2 167.6c16.8 51.4 65 88.4 121.8 88.4h16.4c24.6-10.2 51.4-16 79.6-16s55.2 5.8 79.6 16h16.4c56.8 0 105-37 121.8-88.4 6.4-19.8-10.4-39.6-31.2-39.6h-373.2c-20.8 0-37.6 20-31.2 39.6z" />
<glyph unicode="&#xe986;" glyph-name="image-solid" d="M928 64h-832c-53.020 0-96 42.98-96 96v576c0 53.020 42.98 96 96 96h832c53.020 0 96-42.98 96-96v-576c0-53.020-42.98-96-96-96zM224 720c-61.856 0-112-50.144-112-112s50.144-112 112-112 112 50.144 112 112-50.144 112-112 112zM128 192h768v224l-175.030 175.030c-9.372 9.372-24.568 9.372-33.942 0l-271.028-271.030-111.030 111.030c-9.372 9.372-24.568 9.372-33.942 0l-143.028-143.030v-96z" />
<glyph unicode="&#xe987;" glyph-name="info-circle-solid" d="M512 944c-273.914 0-496-222.166-496-496 0-273.994 222.086-496 496-496s496 222.006 496 496c0 273.834-222.086 496-496 496zM512 724c46.392 0 84-37.608 84-84s-37.608-84-84-84-84 37.608-84 84 37.608 84 84 84zM624 216c0-13.254-10.746-24-24-24h-176c-13.254 0-24 10.746-24 24v48c0 13.254 10.746 24 24 24h24v128h-24c-13.254 0-24 10.746-24 24v48c0 13.254 10.746 24 24 24h128c13.254 0 24-10.746 24-24v-200h24c13.254 0 24-10.746 24-24v-48z" />
<glyph unicode="&#xe988;" glyph-name="info-solid" horiz-adv-x="384" d="M40 111.542h40v288.916h-40c-22.092 0-40 17.908-40 40v95.542c0 22.092 17.908 40 40 40h224c22.092 0 40-17.908 40-40v-424.458h40c22.092 0 40-17.908 40-40v-95.542c0-22.092-17.908-40-40-40h-304c-22.092 0-40 17.908-40 40v95.542c0 22.092 17.908 40 40 40zM192 960c-79.53 0-144-64.47-144-144s64.47-144 144-144 144 64.47 144 144-64.472 144-144 144z" />
<glyph unicode="&#xe989;" glyph-name="info-square-solid" horiz-adv-x="896" d="M800 896h-704c-53.020 0-96-42.98-96-96v-704c0-53.020 42.98-96 96-96h704c53.020 0 96 42.98 96 96v704c0 53.020-42.98 96-96 96zM448 724c46.392 0 84-37.608 84-84s-37.608-84-84-84-84 37.608-84 84 37.608 84 84 84zM560 216c0-13.254-10.746-24-24-24h-176c-13.254 0-24 10.746-24 24v48c0 13.254 10.746 24 24 24h24v128h-24c-13.254 0-24 10.746-24 24v48c0 13.254 10.746 24 24 24h128c13.254 0 24-10.746 24-24v-200h24c13.254 0 24-10.746 24-24v-48z" />
<glyph unicode="&#xe98a;" glyph-name="landmark-solid" d="M1003.24 775.78l-468.76 180.14c-6.674 2.583-14.397 4.080-22.47 4.080s-15.796-1.497-22.907-4.228l0.437 0.148-468.78-180.14c-12.232-4.683-20.759-16.326-20.76-29.96v0-73.82c0-17.68 14.32-32 32-32h960c17.68 0 32 14.32 32 32v73.82c0 13.34-8.28 25.28-20.76 29.96zM128 576v-320h-32c-17.68 0-32-14.32-32-32v-96h896v96c0 17.68-14.32 32-32 32h-32v320h-128v-320h-192v320h-128v-320h-192v320h-128zM992 64h-960c-17.68 0-32-14.32-32-32v-64c0-17.68 14.32-32 32-32h960c17.68 0 32 14.32 32 32v64c0 17.68-14.32 32-32 32z" />
<glyph unicode="&#xe98b;" glyph-name="laptop-solid" horiz-adv-x="1280" d="M1248 128h-484.92c-1.48-39.62-29.42-64-65.48-64h-121.6c-37.38 0-66.040 34.94-65.54 64h-478.46c-17.6 0-32-14.4-32-32v-32c0-70.4 57.6-128 128-128h1024c70.4 0 128 57.6 128 128v32c0 17.6-14.4 32-32 32zM1152 864c0 52.8-43.2 96-96 96h-832c-52.8 0-96-43.2-96-96v-672h1024v672zM1024 320h-768v512h768v-512z" />
<glyph unicode="&#xe98c;" glyph-name="list-solid" d="M160 224h-128c-17.673 0-32-14.327-32-32v0-128c0-17.673 14.327-32 32-32v0h128c17.673 0 32 14.327 32 32v0 128c0 17.673-14.327 32-32 32v0zM160 864h-128c-17.673 0-32-14.327-32-32v0-128c0-17.673 14.327-32 32-32v0h128c17.673 0 32 14.327 32 32v0 128c0 17.673-14.327 32-32 32v0zM160 544h-128c-17.673 0-32-14.327-32-32v0-128c0-17.673 14.327-32 32-32v0h128c17.673 0 32 14.327 32 32v0 128c0 17.673-14.327 32-32 32v0zM992 192h-640c-17.673 0-32-14.327-32-32v0-64c0-17.673 14.327-32 32-32v0h640c17.673 0 32 14.327 32 32v0 64c0 17.673-14.327 32-32 32v0zM992 832h-640c-17.673 0-32-14.327-32-32v0-64c0-17.673 14.327-32 32-32v0h640c17.673 0 32 14.327 32 32v0 64c0 17.673-14.327 32-32 32v0zM992 512h-640c-17.673 0-32-14.327-32-32v0-64c0-17.673 14.327-32 32-32v0h640c17.673 0 32 14.327 32 32v0 64c0 17.673-14.327 32-32 32v0z" />
<glyph unicode="&#xe98d;" glyph-name="list-ul-solid" d="M96 864c-53.019 0-96-42.981-96-96s42.981-96 96-96c53.019 0 96 42.981 96 96v0c0 53.019-42.981 96-96 96v0zM96 544c-53.019 0-96-42.981-96-96s42.981-96 96-96c53.019 0 96 42.981 96 96v0c0 53.019-42.981 96-96 96v0zM96 224c-53.019 0-96-42.981-96-96s42.981-96 96-96c53.019 0 96 42.981 96 96v0c0 53.019-42.981 96-96 96v0zM992 192h-640c-17.673 0-32-14.327-32-32v0-64c0-17.673 14.327-32 32-32v0h640c17.673 0 32 14.327 32 32v0 64c0 17.673-14.327 32-32 32v0zM992 832h-640c-17.673 0-32-14.327-32-32v0-64c0-17.673 14.327-32 32-32v0h640c17.673 0 32 14.327 32 32v0 64c0 17.673-14.327 32-32 32v0zM992 512h-640c-17.673 0-32-14.327-32-32v0-64c0-17.673 14.327-32 32-32v0h640c17.673 0 32 14.327 32 32v0 64c0 17.673-14.327 32-32 32v0z" />
<glyph unicode="&#xe98e;" glyph-name="location-arrow-solid" d="M889.040 952.96l-831.56-383.8c-95.94-44.78-63.96-185.5 38.38-185.5h351.82v-351.82c0-102.34 140.72-134.34 185.5-38.38l383.8 831.56c31.98 76.78-51.18 159.94-127.94 127.94z" />
<glyph unicode="&#xe98f;" glyph-name="lock-solid" horiz-adv-x="896" d="M800 512h-48v144c0 167.6-136.4 304-304 304s-304-136.4-304-304v-144h-48c-53 0-96-43-96-96v-384c0-53 43-96 96-96h704c53 0 96 43 96 96v384c0 53-43 96-96 96zM592 512h-288v144c0 79.4 64.6 144 144 144s144-64.6 144-144v-144z" />
<glyph unicode="&#xe990;" glyph-name="long-arrow-alt-down-solid" horiz-adv-x="512" d="M336 268.118v603.882c0 13.254-10.746 24-24 24h-112c-13.254 0-24-10.746-24-24v-603.882h-92.118c-42.764 0-64.18-51.702-33.942-81.942l172.118-172.118c18.746-18.746 49.138-18.746 67.882 0l172.118 172.118c30.238 30.238 8.822 81.942-33.942 81.942h-92.116z" />
<glyph unicode="&#xe991;" glyph-name="long-arrow-alt-left-solid" horiz-adv-x="896" d="M268.118 368h603.882c13.254 0 24 10.746 24 24v112c0 13.254-10.746 24-24 24h-603.882v92.118c0 42.764-51.702 64.18-81.942 33.942l-172.118-172.118c-18.746-18.746-18.746-49.138 0-67.882l172.118-172.118c30.238-30.238 81.942-8.822 81.942 33.942v92.116z" />
<glyph unicode="&#xe992;" glyph-name="long-arrow-alt-right-solid" horiz-adv-x="896" d="M627.882 528h-603.882c-13.254 0-24-10.746-24-24v-112c0-13.254 10.746-24 24-24h603.882v-92.118c0-42.764 51.702-64.18 81.942-33.942l172.118 172.118c18.746 18.746 18.746 49.138 0 67.882l-172.118 172.118c-30.238 30.238-81.942 8.822-81.942-33.942v-92.116z" />
<glyph unicode="&#xe993;" glyph-name="long-arrow-alt-up-solid" horiz-adv-x="512" d="M176 627.882v-603.882c0-13.254 10.746-24 24-24h112c13.254 0 24 10.746 24 24v603.882h92.118c42.764 0 64.18 51.702 33.942 81.942l-172.118 172.118c-18.746 18.746-49.138 18.746-67.882 0l-172.118-172.118c-30.238-30.238-8.822-81.942 33.942-81.942h92.116z" />
<glyph unicode="&#xe994;" glyph-name="long-arrow-down-solid" horiz-adv-x="640" d="M523.146 386.912l-131.146-131.148v592.236c0 26.51-21.49 48-48 48h-48c-26.51 0-48-21.49-48-48v-592.236l-131.146 131.148c-18.746 18.746-49.138 18.746-67.882 0l-33.942-33.942c-18.746-18.746-18.746-49.138 0-67.882l271.030-271.028c18.746-18.746 49.136-18.746 67.882 0l271.030 271.028c18.746 18.746 18.746 49.138 0 67.882l-33.942 33.942c-18.746 18.746-49.138 18.746-67.884 0z" />
<glyph unicode="&#xe995;" glyph-name="long-arrow-left-solid" horiz-adv-x="896" d="M386.912 244.854l-131.148 131.146h592.236c26.51 0 48 21.49 48 48v48c0 26.51-21.49 48-48 48h-592.236l131.148 131.146c18.746 18.746 18.746 49.138 0 67.882l-33.942 33.942c-18.746 18.746-49.138 18.746-67.882 0l-271.030-271.028c-18.746-18.746-18.746-49.136 0-67.882l271.030-271.030c18.746-18.746 49.138-18.746 67.882 0l33.942 33.942c18.746 18.744 18.746 49.136 0 67.882z" />
<glyph unicode="&#xe996;" glyph-name="long-arrow-right-solid" horiz-adv-x="896" d="M509.088 651.146l131.148-131.146h-592.236c-26.51 0-48-21.49-48-48v-48c0-26.51 21.49-48 48-48h592.236l-131.148-131.146c-18.746-18.746-18.746-49.138 0-67.882l33.942-33.942c18.746-18.746 49.138-18.746 67.882 0l271.028 271.030c18.746 18.746 18.746 49.138 0 67.882l-271.028 271.028c-18.746 18.746-49.138 18.746-67.882 0l-33.942-33.942c-18.746-18.744-18.746-49.136 0-67.882z" />
<glyph unicode="&#xe997;" glyph-name="long-arrow-up-solid" horiz-adv-x="640" d="M116.854 509.088l131.146 131.148v-592.236c0-26.51 21.49-48 48-48h48c26.51 0 48 21.49 48 48v592.236l131.146-131.148c18.746-18.746 49.138-18.746 67.882 0l33.942 33.942c18.746 18.746 18.746 49.138 0 67.882l-271.028 271.030c-18.746 18.746-49.136 18.746-67.882 0l-271.030-271.030c-18.746-18.746-18.746-49.138 0-67.882l33.942-33.942c18.744-18.746 49.136-18.746 67.882 0z" />
<glyph unicode="&#xe998;" glyph-name="map-marked-alt-solid" horiz-adv-x="1152" d="M576 960c-139.18 0-252-112.82-252-252 0-112.52 164.7-317.6 227.8-392.040 12.78-15.080 35.64-15.080 48.4 0 63.1 74.44 227.8 279.52 227.8 392.040 0 139.18-112.82 252-252 252zM576 624c-46.4 0-84 37.6-84 84s37.6 84 84 84 84-37.6 84-84-37.6-84-84-84zM40.24 528.1c-23.779-9.697-40.234-32.636-40.24-59.419v-500.641c0-22.64 22.86-38.12 43.88-29.72l276.12 125.68v466.16c-17.68 31.96-32.14 63.080-42.5 92.84l-237.26-94.9zM576 240.66c-28.14 0-54.76 12.36-73.020 33.92-39.32 46.4-81.14 99.24-118.98 153.44v-364l384-128v491.98c-37.84-54.18-79.64-107.040-118.98-153.44-18.26-21.54-44.88-33.9-73.020-33.9zM1108.12 637.68l-276.12-125.68v-576l279.76 111.9c23.782 9.693 40.24 32.634 40.24 59.42v0 500.64c0 22.64-22.86 38.12-43.88 29.72z" />
<glyph unicode="&#xe999;" glyph-name="map-marker-alt-solid" horiz-adv-x="768" d="M344.536-43.34c-290.596 421.278-344.536 464.514-344.536 619.34 0 212.078 171.922 384 384 384s384-171.922 384-384c0-154.826-53.94-198.062-344.536-619.34-19.070-27.548-59.86-27.546-78.928 0zM384 416c88.366 0 160 71.634 160 160s-71.634 160-160 160-160-71.634-160-160 71.634-160 160-160z" />
<glyph unicode="&#xe99a;" glyph-name="map-solid" horiz-adv-x="1152" d="M0 724.68v-692.64c0-22.64 22.86-38.12 43.88-29.72l276.12 125.68v768l-279.76-111.9c-23.779-9.697-40.234-32.636-40.24-59.419v-0.001zM384 128l384-128v768l-384 128v-768zM1108.12 893.68l-276.12-125.68v-768l279.76 111.9c23.782 9.693 40.24 32.634 40.24 59.42v0 692.64c0 22.64-22.86 38.12-43.88 29.72z" />
<glyph unicode="&#xe99b;" glyph-name="medal-solid" d="M447.5 698.5l-138.26 230.42c-11.385 18.747-31.692 31.080-54.88 31.080h-222.3c-25.9 0-41.060-29.14-26.22-50.36l222.54-317.92c59.44 55.54 135.040 93.66 219.12 106.78zM991.94 960h-222.3c-22.48 0-43.32-11.8-54.88-31.080l-138.26-230.42c84.080-13.12 159.68-51.24 219.12-106.76l222.54 317.9c14.84 21.22-0.32 50.36-26.22 50.36zM512 640c-194.4 0-352-157.6-352-352s157.6-352 352-352 352 157.6 352 352-157.6 352-352 352zM697.040 325.48l-75.86-73.92 17.94-104.44c3.2-18.72-16.52-33.020-33.3-24.18l-93.82 49.3-93.8-49.3c-16.8-8.9-36.5 5.48-33.3 24.18l17.94 104.44-75.86 73.92c-13.64 13.28-6.1 36.46 12.7 39.18l104.86 15.28 46.86 95.040c4.22 8.56 12.38 12.78 20.56 12.78 8.22 0 16.44-4.28 20.66-12.78l46.86-95.040 104.86-15.28c18.8-2.72 26.34-25.9 12.7-39.18z" />
<glyph unicode="&#xe99c;" glyph-name="meh-solid" horiz-adv-x="992" d="M496 944c-274 0-496-222-496-496s222-496 496-496 496 222 496 496-222 496-496 496zM336 608c35.4 0 64-28.6 64-64s-28.6-64-64-64-64 28.6-64 64 28.6 64 64 64zM688 224h-384c-42.4 0-42.4 64 0 64h384c42.4 0 42.4-64 0-64zM656 480c-35.4 0-64 28.6-64 64s28.6 64 64 64 64-28.6 64-64-28.6-64-64-64z" />
<glyph unicode="&#xe99d;" glyph-name="microphone-slash-solid" horiz-adv-x="1280" d="M1267.64 43.8l-315.6 243.92c25.18 48.020 39.96 102.26 39.96 160.28v96c0 17.68-14.32 32-32 32h-32c-17.68 0-32-14.32-32-32v-96c0-35.84-7.92-69.6-21.44-100.4l-53.1 41.040c6.2 18.8 10.56 38.44 10.56 59.34v320.020c0 106.040-85.96 192-192 192s-192-85.96-192-192v-90.72l-357.080 275.98c-13.96 10.84-34.080 8.34-44.92-5.62l-39.28-50.54c-10.84-13.94-8.34-34.040 5.62-44.9l1176.72-909.46c13.96-10.86 34.060-8.34 44.92 5.62l39.28 50.54c10.82 13.94 8.32 34.040-5.64 44.9zM800 32h-112v67.54c23.32 3.2 45.7 9.080 67.34 16.62l-100.22 77.46c-13.42-0.8-26.82-1.74-40.7-0.4-111.7 10.9-197.48 97.26-222.36 203.7l-104.060 80.46v-13.7c0-179.28 127.94-339.1 304-363.38v-68.3h-112c-17.68 0-32-14.32-32-32v-32c0-17.68 14.32-32 32-32h320c17.68 0 32 14.32 32 32v32c0 17.68-14.32 32-32 32z" />
<glyph unicode="&#xe99e;" glyph-name="microphone-solid" horiz-adv-x="704" d="M352 256c106.040 0 192 85.96 192 192v320c0 106.040-85.96 192-192 192s-192-85.96-192-192v-320c0-106.040 85.96-192 192-192zM672 576h-32c-17.68 0-32-14.32-32-32v-96c0-149.6-128.98-269.64-281.58-254.76-133 12.98-230.42 132.54-230.42 266.16v84.6c0 17.68-14.32 32-32 32h-32c-17.68 0-32-14.32-32-32v-80.32c0-179.28 127.94-339.1 304-363.38v-68.3h-112c-17.68 0-32-14.32-32-32v-32c0-17.68 14.32-32 32-32h320c17.68 0 32 14.32 32 32v32c0 17.68-14.32 32-32 32h-112v67.54c171.42 23.52 304 170.66 304 348.46v96c0 17.68-14.32 32-32 32z" />
<glyph unicode="&#xe99f;" glyph-name="minus-circle-solid" d="M512 944c-274 0-496-222-496-496s222-496 496-496 496 222 496 496-222 496-496 496zM248 368c-13.2 0-24 10.8-24 24v112c0 13.2 10.8 24 24 24h528c13.2 0 24-10.8 24-24v-112c0-13.2-10.8-24-24-24h-528z" />
<glyph unicode="&#xe9a0;" glyph-name="minus-solid" horiz-adv-x="896" d="M832 544h-768c-35.34 0-64-28.66-64-64v-64c0-35.34 28.66-64 64-64h768c35.34 0 64 28.66 64 64v64c0 35.34-28.66 64-64 64z" />
<glyph unicode="&#xe9a1;" glyph-name="minus-square-solid" horiz-adv-x="896" d="M800 896h-704c-53 0-96-43-96-96v-704c0-53 43-96 96-96h704c53 0 96 43 96 96v704c0 53-43 96-96 96zM184 368c-13.2 0-24 10.8-24 24v112c0 13.2 10.8 24 24 24h528c13.2 0 24-10.8 24-24v-112c0-13.2-10.8-24-24-24h-528z" />
<glyph unicode="&#xe9a2;" glyph-name="mobile-android-alt-solid" horiz-adv-x="640" d="M544 960h-448c-53 0-96-43-96-96v-832c0-53 43-96 96-96h448c53 0 96 43 96 96v832c0 53-43 96-96 96zM416 56c0-13.2-10.8-24-24-24h-144c-13.2 0-24 10.8-24 24v16c0 13.2 10.8 24 24 24h144c13.2 0 24-10.8 24-24v-16zM544 216c0-13.2-10.8-24-24-24h-400c-13.2 0-24 10.8-24 24v624c0 13.2 10.8 24 24 24h400c13.2 0 24-10.8 24-24v-624z" />
<glyph unicode="&#xe9a3;" glyph-name="mobile-android-solid" horiz-adv-x="640" d="M544 960h-448c-53 0-96-43-96-96v-832c0-53 43-96 96-96h448c53 0 96 43 96 96v832c0 53-43 96-96 96zM416 56c0-13.2-10.8-24-24-24h-144c-13.2 0-24 10.8-24 24v16c0 13.2 10.8 24 24 24h144c13.2 0 24-10.8 24-24v-16z" />
<glyph unicode="&#xe9a4;" glyph-name="money-bill-solid" horiz-adv-x="1280" d="M1216 832h-1152c-35.34 0-64-28.66-64-64v-640c0-35.34 28.66-64 64-64h1152c35.34 0 64 28.66 64 64v640c0 35.34-28.66 64-64 64zM96 160v128c70.7 0 128-57.3 128-128h-128zM96 608v128h128c0-70.7-57.3-128-128-128zM640 256c-88.38 0-160 85.98-160 192 0 106.040 71.64 192 160 192s160-85.96 160-192c0-106.060-71.66-192-160-192zM1184 160h-128c0 70.7 57.3 128 128 128v-128zM1184 608c-70.7 0-128 57.3-128 128h128v-128z" />
<glyph unicode="&#xe9a5;" glyph-name="money-bill-wave-solid" horiz-adv-x="1280" d="M1242.32 851.080c-77.58 32.54-155.22 44.92-232.82 44.92-246.34 0.020-492.66-124.68-739-124.68-61.78 0-123.52 7.84-185.3 27.44-6.94 2.2-13.9 3.24-20.7 3.24-34.42 0-64.5-26.64-64.5-63.62v-634.52c0-25.26 14.46-49.2 37.68-58.92 77.58-32.56 155.22-44.94 232.82-44.94 246.34 0 492.68 124.7 739.020 124.7 61.78 0 123.52-7.84 185.3-27.44 6.94-2.2 13.9-3.24 20.7-3.24 34.42 0 64.5 26.64 64.5 63.62v634.5c-0.020 25.28-14.48 49.2-37.7 58.94zM96 695.56c40.24-10.080 82.24-15.14 125.44-17.86-11.76-58.78-63.44-103.080-125.44-103.080v120.94zM96 125.56v95.56c68.74 0 124.36-54.54 127.42-122.8-45.060 3.62-87.18 12.62-127.42 27.24zM640 256c-88.38 0-160 85.98-160 192 0 106.040 71.64 192 160 192s160-85.96 160-192c0-106.060-71.66-192-160-192zM1184 200.44c-35.040 8.78-71.42 13.7-108.64 16.88 11.74 52.16 55 91.76 108.64 98.56v-115.44zM1184 672.66c-61.78 7.82-109.72 59.4-111.62 123.1 39.080-4.34 76.18-12.46 111.62-25.32v-97.78z" />
<glyph unicode="&#xe9a6;" glyph-name="money-check-alt-solid" horiz-adv-x="1280" d="M1216 896h-1152c-35.34 0-64-28.66-64-64v-768c0-35.34 28.66-64 64-64h1152c35.34 0 64 28.66 64 64v768c0 35.34-28.66 64-64 64zM352 304.24v-32.24c0-8.84-7.16-16-16-16h-32c-8.84 0-16 7.16-16 16v32.58c-22.58 1.16-44.54 9.040-62.74 22.7-7.8 5.86-8.2 17.54-1.14 24.28l23.5 22.42c5.54 5.28 13.78 5.52 20.26 1.46 7.74-4.84 16.52-7.44 25.64-7.44h56.22c13 0 23.6 11.84 23.6 26.38 0 11.9-7.22 22.38-17.54 25.46l-90 27c-37.18 11.16-63.16 46.84-63.16 86.78 0 49.040 38.1 88.88 85.34 90.14v32.24c0 8.84 7.16 16 16 16h32c8.84 0 16-7.16 16-16v-32.58c22.58-1.16 44.54-9.020 62.74-22.7 7.8-5.86 8.2-17.54 1.14-24.28l-23.5-22.42c-5.54-5.28-13.78-5.52-20.26-1.46-7.74 4.86-16.52 7.44-25.64 7.44h-56.22c-13 0-23.6-11.84-23.6-26.38 0-11.9 7.22-22.38 17.54-25.46l90-27c37.18-11.16 63.16-46.84 63.16-86.78 0-49.060-38.1-88.88-85.34-90.14zM832 336c0-8.84-7.16-16-16-16h-224c-8.84 0-16 7.16-16 16v32c0 8.84 7.16 16 16 16h224c8.84 0 16-7.16 16-16v-32zM1152 336c0-8.84-7.16-16-16-16h-160c-8.84 0-16 7.16-16 16v32c0 8.84 7.16 16 16 16h160c8.84 0 16-7.16 16-16v-32zM1152 528c0-8.84-7.16-16-16-16h-544c-8.84 0-16 7.16-16 16v32c0 8.84 7.16 16 16 16h544c8.84 0 16-7.16 16-16v-32z" />
<glyph unicode="&#xe9a7;" glyph-name="moon-solid" d="M566.422-64c157.924 0 302.158 71.85 397.714 189.584 14.136 17.416-1.278 42.86-23.124 38.7-248.406-47.308-476.524 143.152-476.524 393.908 0 144.444 77.324 277.27 202.996 348.788 19.372 11.024 14.5 40.394-7.512 44.46-28.125 5.44-60.472 8.555-93.546 8.56h-0.004c-282.618 0-512-229.022-512-512 0-282.618 229.022-512 512-512z" />
<glyph unicode="&#xe9a8;" glyph-name="mouse-pointer-solid" horiz-adv-x="640" d="M604.378 301.748h-212.168l111.662-271.986c7.778-18.856-1.11-39.998-18.888-47.998l-98.33-42.854c-18.33-8-38.886 1.142-46.664 19.428l-106.106 258.272-173.328-178.276c-23.098-23.754-60.556-5.442-60.556 25.712v859.356c0 32.8 39.842 48.79 60.554 25.712l568.824-585.084c22.944-22.358 6.014-62.282-25-62.282z" />
<glyph unicode="&#xe9a9;" glyph-name="music-slash-solid" horiz-adv-x="1280" d="M384 184.16c-19.179 4.856-41.225 7.707-63.915 7.84h-0.085c-106 0-192-57.32-192-128s86-128 192-128 192 57.32 192 128v240.24l-128 98.92zM1267.64 43.8l-130.12 100.56c9.020 14.74 14.48 30.7 14.48 47.64v704c-0.034 35.321-28.675 63.94-64 63.94-6.871 0-13.489-1.083-19.693-3.087l0.453 0.126-639.94-188.98c-20.416-6.641-36.045-22.751-41.889-43.010l-0.111-0.45-295.88 228.68c-5.367 4.212-12.219 6.755-19.664 6.755-10.245 0-19.366-4.815-25.223-12.305l-0.053-0.070-39.26-50.54c-4.2-5.363-6.736-12.205-6.736-19.639 0-10.236 4.806-19.35 12.286-25.208l0.070-0.053 1176.7-909.42c5.367-4.212 12.219-6.755 19.664-6.755 10.245 0 19.366 4.815 25.223 12.305l0.053 0.070 39.26 50.54c4.2 5.363 6.736 12.205 6.736 19.639 0 10.236-4.806 19.35-12.286 25.208l-0.070 0.053zM1024 312.16c-19.179 4.856-41.225 7.707-63.915 7.84h-0.085c-15.81-0.223-31.105-1.749-45.98-4.476l1.68 0.256-313.22 242 421.52 123.62z" />
<glyph unicode="&#xe9aa;" glyph-name="music-solid" d="M940.76 956.98l-639.94-188.98c-26.182-8.41-44.802-32.538-44.82-61.018v-522.822c-19.179 4.856-41.225 7.707-63.915 7.84h-0.085c-106 0-192-57.32-192-128s86-128 192-128 192 57.32 192 128v467.36l512 150v-369.22c-19.18 4.873-41.226 7.732-63.918 7.86h-0.082c-106 0-192-57.32-192-128s86-128 192-128 192 57.3 192 128v704c-0.034 35.321-28.675 63.94-64 63.94-6.871 0-13.489-1.083-19.693-3.087l0.453 0.126z" />
<glyph unicode="&#xe9ab;" glyph-name="newspaper-solid" horiz-adv-x="1152" d="M1104 832h-928c-26.51 0-48-21.49-48-48v-16h-80c-26.51 0-48-21.49-48-48v-544c0-61.856 50.144-112 112-112h944c53.020 0 96 42.98 96 96v624c0 26.51-21.49 48-48 48zM112 160c-8.837 0-16 7.163-16 16v0 496h32v-496c0-8.837-7.163-16-16-16v0zM584 192h-304c-13.254 0-24 10.746-24 24v16c0 13.254 10.746 24 24 24h304c13.254 0 24-10.746 24-24v-16c0-13.254-10.746-24-24-24zM1000 192h-304c-13.254 0-24 10.746-24 24v16c0 13.254 10.746 24 24 24h304c13.254 0 24-10.746 24-24v-16c0-13.254-10.746-24-24-24zM584 384h-304c-13.254 0-24 10.746-24 24v16c0 13.254 10.746 24 24 24h304c13.254 0 24-10.746 24-24v-16c0-13.254-10.746-24-24-24zM1000 384h-304c-13.254 0-24 10.746-24 24v16c0 13.254 10.746 24 24 24h304c13.254 0 24-10.746 24-24v-16c0-13.254-10.746-24-24-24zM1000 576h-720c-13.254 0-24 10.746-24 24v80c0 13.254 10.746 24 24 24h720c13.254 0 24-10.746 24-24v-80c0-13.254-10.746-24-24-24z" />
<glyph unicode="&#xe9ac;" glyph-name="paper-plane-solid" d="M952 953.6l-927-534.8c-36.2-20.8-31.6-71.2 4.4-86.4l212.6-89.2 574.6 506.4c11 9.8 26.6-5.2 17.2-16.6l-481.8-587v-161c0-47.2 57-65.8 85-31.6l127 154.6 249.2-104.4c28.4-12 60.8 5.8 66 36.4l144 864c6.8 40.4-36.6 69.6-71.2 49.6z" />
<glyph unicode="&#xe9ad;" glyph-name="pen-solid" d="M581.48 773.52l256.040-256.040-555.98-555.98-228.28-25.2c-30.56-3.38-56.38 22.46-52.98 53.020l25.4 228.44 555.8 555.76zM995.88 811.64l-120.22 120.22c-37.5 37.5-98.32 37.5-135.82 0l-113.1-113.1 256.040-256.040 113.1 113.1c37.5 37.52 37.5 98.32 0 135.82z" />
<glyph unicode="&#xe9ae;" glyph-name="phone-alt-solid" d="M994.78 236.4l-224 96c-5.551 2.429-12.020 3.843-18.819 3.843-14.954 0-28.311-6.839-37.114-17.559l-0.067-0.084-99.2-121.2c-156.321 74.881-279.499 198.059-352.454 349.931l-1.926 4.449 121.2 99.2c10.818 8.848 17.669 22.197 17.669 37.145 0 6.814-1.423 13.295-3.989 19.163l0.12-0.308-96 224c-7.646 17.214-24.591 29.002-44.29 29.002-3.797 0-7.492-0.438-11.036-1.266l0.327 0.064-208-48c-21.471-5.084-37.2-24.090-37.2-46.769 0-0.004 0-0.008 0-0.011v0.001c0-513 415.8-928 928-928 0.009 0 0.020 0 0.031 0 22.68 0 41.686 15.729 46.704 36.874l0.065 0.326 48 208c0.751 3.201 1.182 6.876 1.182 10.652 0 19.822-11.872 36.871-28.893 44.425l-0.31 0.123z" />
<glyph unicode="&#xe9af;" glyph-name="phone-laptop-solid" horiz-adv-x="1280" d="M1208 704h-368c-39.765 0-72-32.235-72-72v0-624c0-39.765 32.235-72 72-72v0h368c39.765 0 72 32.235 72 72v0 624c0 39.765-32.235 72-72 72v0zM1152 64h-256v512h256zM256 832h640v-64h128v96c-0.113 52.911-42.924 95.784-95.799 96h-704.381c-52.896-0.216-95.707-43.089-95.82-95.989v-480.011h-96c-17.673 0-32-14.327-32-32v0-32c0.159-70.565 57.269-127.739 127.795-128h576.205v192h-448z" />
<glyph unicode="&#xe9b0;" glyph-name="phone-office-solid" horiz-adv-x="1152" d="M256 128h128c35.34 0 64 28.66 64 64v704c0 35.34-28.66 64-64 64h-128c-35.34 0-64-28.66-64-64v-704c0-35.34 28.66-64 64-64zM1056 896h-544v-704c0-70.58-57.42-128-128-128h-128c-70.58 0-128 57.42-128 128v704h-32c-53.020 0-96-42.98-96-96v-768c0-53.020 42.98-96 96-96h960c53.020 0 96 42.98 96 96v768c0 53.020-42.98 96-96 96zM768 96c0-17.68-14.32-32-32-32h-64c-17.68 0-32 14.32-32 32v64c0 17.68 14.32 32 32 32h64c17.68 0 32-14.32 32-32v-64zM768 352c0-17.68-14.32-32-32-32h-64c-17.68 0-32 14.32-32 32v64c0 17.68 14.32 32 32 32h64c17.68 0 32-14.32 32-32v-64zM1024 96c0-17.68-14.32-32-32-32h-64c-17.68 0-32 14.32-32 32v64c0 17.68 14.32 32 32 32h64c17.68 0 32-14.32 32-32v-64zM1024 352c0-17.68-14.32-32-32-32h-64c-17.68 0-32 14.32-32 32v64c0 17.68 14.32 32 32 32h64c17.68 0 32-14.32 32-32v-64zM1024 576h-384v192h384v-192z" />
<glyph unicode="&#xe9b1;" glyph-name="plane-solid" horiz-adv-x="1152" d="M960 576h-228.58l-210.2 367.88c-5.627 9.7-15.963 16.12-27.798 16.12-0.001 0-0.001 0-0.002 0h-131c-21.26 0-36.6-20.34-30.76-40.78l98.060-343.22h-205.72l-86.4 115.2c-6.040 8.060-15.54 12.8-25.6 12.8h-79.98c-20.82 0-36.1-19.56-31.040-39.76l63.020-216.24-63.020-216.24c-5.060-20.2 10.22-39.76 31.040-39.76h79.98c10.080 0 19.56 4.74 25.6 12.8l86.4 115.2h205.72l-98.060-343.2c-5.84-20.44 9.5-40.8 30.76-40.8h131c11.48 0 22.080 6.16 27.78 16.12l210.22 367.88h228.58c70.7 0 192 57.3 192 128s-121.3 128-192 128z" />
<glyph unicode="&#xe9b2;" glyph-name="play-circle-solid" d="M512 944c-274 0-496-222-496-496s222-496 496-496 496 222 496 496-222 496-496 496zM743.4 400l-352-202c-31.6-17.6-71.4 5-71.4 42v416c0 36.8 39.6 59.6 71.4 42l352-214c32.8-18.4 32.8-65.8 0-84z" />
<glyph unicode="&#xe9b3;" glyph-name="play-solid" horiz-adv-x="896" d="M848.8 530.6l-704 416.2c-57.2 33.8-144.8 1-144.8-82.6v-832.2c0-75 81.4-120.2 144.8-82.6l704 416c62.8 37 63 128.2 0 165.2z" />
<glyph unicode="&#xe9b4;" glyph-name="plus-circle-solid" d="M512 944c-274 0-496-222-496-496s222-496 496-496 496 222 496 496-222 496-496 496zM800 392c0-13.2-10.8-24-24-24h-184v-184c0-13.2-10.8-24-24-24h-112c-13.2 0-24 10.8-24 24v184h-184c-13.2 0-24 10.8-24 24v112c0 13.2 10.8 24 24 24h184v184c0 13.2 10.8 24 24 24h112c13.2 0 24-10.8 24-24v-184h184c13.2 0 24-10.8 24-24v-112z" />
<glyph unicode="&#xe9b5;" glyph-name="plus-solid" horiz-adv-x="896" d="M832 544h-288v288c0 35.34-28.66 64-64 64h-64c-35.34 0-64-28.66-64-64v-288h-288c-35.34 0-64-28.66-64-64v-64c0-35.34 28.66-64 64-64h288v-288c0-35.34 28.66-64 64-64h64c35.34 0 64 28.66 64 64v288h288c35.34 0 64 28.66 64 64v64c0 35.34-28.66 64-64 64z" />
<glyph unicode="&#xe9b6;" glyph-name="plus-square-solid" horiz-adv-x="896" d="M800 896h-704c-53 0-96-43-96-96v-704c0-53 43-96 96-96h704c53 0 96 43 96 96v704c0 53-43 96-96 96zM736 392c0-13.2-10.8-24-24-24h-184v-184c0-13.2-10.8-24-24-24h-112c-13.2 0-24 10.8-24 24v184h-184c-13.2 0-24 10.8-24 24v112c0 13.2 10.8 24 24 24h184v184c0 13.2 10.8 24 24 24h112c13.2 0 24-10.8 24-24v-184h184c13.2 0 24-10.8 24-24v-112z" />
<glyph unicode="&#xe9b7;" glyph-name="poll-solid" horiz-adv-x="896" d="M800 896h-704c-53 0-96-43-96-96v-704c0-53 43-96 96-96h704c53 0 96 43 96 96v704c0 53-43 96-96 96zM320 224c0-17.68-14.32-32-32-32h-64c-17.68 0-32 14.32-32 32v256c0 17.68 14.32 32 32 32h64c17.68 0 32-14.32 32-32v-256zM512 224c0-17.68-14.32-32-32-32h-64c-17.68 0-32 14.32-32 32v448c0 17.68 14.32 32 32 32h64c17.68 0 32-14.32 32-32v-448zM704 224c0-17.68-14.32-32-32-32h-64c-17.68 0-32 14.32-32 32v128c0 17.68 14.32 32 32 32h64c17.68 0 32-14.32 32-32v-128z" />
<glyph unicode="&#xe9b8;" glyph-name="portrait-solid" horiz-adv-x="768" d="M672 960h-576c-53 0-96-43-96-96v-832c0-53 43-96 96-96h576c53 0 96 43 96 96v832c0 53-43 96-96 96zM384 704c70.6 0 128-57.4 128-128s-57.4-128-128-128-128 57.4-128 128 57.4 128 128 128zM608 230.4c0-21.2-20-38.4-44.8-38.4h-358.4c-24.8 0-44.8 17.2-44.8 38.4v38.4c0 63.6 60.2 115.2 134.4 115.2h10c24.6-10.2 51.4-16 79.6-16s55.2 5.8 79.6 16h10c74.2 0 134.4-51.6 134.4-115.2v-38.4z" />
<glyph unicode="&#xe9b9;" glyph-name="power-off-solid" d="M800 851.8c126-90 208-237.2 208-403.8 0-273.6-221.6-495.4-495-496-273-0.6-496.6 222-497 495.2-0.2 166.6 81.8 314.2 207.6 404.4 23.4 16.6 56 9.6 70-15.4l31.6-56.2c11.8-21 6.2-47.6-13.2-62-83-61.6-136-159.2-136-269.8-0.2-184.6 149-336.2 336-336.2 183.2 0 337.2 148.4 336 338.2-0.6 103.6-49.4 203.6-136.2 268-19.4 14.4-24.8 41-13 61.8l31.6 56.2c14 24.8 46.4 32.2 69.6 15.6zM592 432v480c0 26.6-21.4 48-48 48h-64c-26.6 0-48-21.4-48-48v-480c0-26.6 21.4-48 48-48h64c26.6 0 48 21.4 48 48z" />
<glyph unicode="&#xe9ba;" glyph-name="qrcode-solid" horiz-adv-x="896" d="M0 512h384v384h-384v-384zM128 768h128v-128h-128v128zM512 896v-384h384v384h-384zM768 640h-128v128h128v-128zM0 0h384v384h-384v-384zM128 256h128v-128h-128v128zM832 384h64v-256h-192v64h-64v-192h-128v384h192v-64h128v64zM832 64h64v-64h-64v64zM704 64h64v-64h-64v64z" />
</font>
</defs>
</svg>
